VERSION	0.00.00	1.04.00
FES_MODE	0
BPM_DEF	122.000	122.000	122.000	122.000
MET_DEF	4	4
RESOLUTION	384
CLK_DEF	384
COMPATIBLE_CODE	MA2

BPM	0	0	122.000
MET	0	0	4	4
MET	38	0	4	2
MET	38	192	4	3
MET	44	192	4	4

NMSTR	1	288	0
NMSCR	1	288	0	96	192	4
NMTAP	2	0	4
NMTTP	2	96	5	B	0	M1
NMTTP	2	96	6	E	0	M1
NMSTR	2	288	7
NMSCL	2	288	7	96	192	3
NMTAP	3	0	3
NMTTP	3	96	2	B	0	M1
NMTTP	3	96	2	E	0	M1
NMSTR	3	288	0
NMSCR	3	288	0	96	192	4
NMTAP	4	0	4
NMTTP	4	96	5	B	0	M1
NMTTP	4	96	6	E	0	M1
NMTAP	4	288	7
NMSTR	5	0	2
NMSCR	5	0	2	96	96	5
NMSTR	5	288	4
NMSCR	5	288	4	96	192	0
NMTAP	6	0	2
NMTAP	6	96	2
NMTAP	6	192	2
BXSTR	6	288	3
BRSCL	6	288	3	96	192	7
NMTAP	7	0	5
NMTAP	7	96	5
NMTAP	7	192	5
NMSTR	7	288	4
NMSCR	7	288	4	96	192	0
NMTAP	8	0	2
NMTAP	8	96	2
NMTAP	8	192	2
NMSTR	8	288	3
NMSI_	8	288	3	96	144	0
NMHLD	9	0	4	192
NMTAP	9	240	0
NMTAP	9	240	4
NMTAP	9	288	1
NMTAP	9	336	2
NMTAP	9	336	5
NMHLD	10	0	3	48
NMHLD	10	0	6	48
NMHLD	10	96	1	48
NMHLD	10	96	4	48
NMTAP	10	192	2
NMTAP	10	192	5
NMTAP	10	240	6
NMTAP	10	288	4
NMTAP	10	288	6
NMTAP	10	336	3
NMHLD	11	0	2	48
NMHLD	11	0	4	48
NMHLD	11	96	3	48
NMHLD	11	96	5	48
NMTAP	11	192	2
NMTAP	11	192	4
NMTAP	11	240	1
NMTAP	11	288	3
NMTAP	11	288	5
NMTAP	11	336	6
NMHLD	12	0	1	48
NMHLD	12	0	7	48
NMHLD	12	96	0	48
NMHLD	12	96	6	48
NMTAP	12	192	1
NMTAP	12	192	5
NMTAP	12	240	2
NMTAP	12	288	3
NMTAP	12	288	7
NMTAP	12	336	6
NMTAP	13	0	4
NMTAP	13	0	5
NMTAP	13	48	3
NMTAP	13	96	2
NMTAP	13	96	4
NMTAP	13	144	5
NMTAP	13	192	3
NMTAP	13	192	6
NMTAP	13	240	2
NMTAP	13	288	1
NMTAP	13	288	5
NMSTR	14	0	6
NMSCL	14	0	6	96	48	3
NMTAP	14	96	2
NMSTR	14	144	1
NMSV_	14	144	1	96	48	4
NMTAP	14	240	5
NMTAP	14	288	5
NMTAP	14	336	6
NMHLD	15	0	6	72
NMHLD	15	72	5	72
NMTAP	15	144	4
NMTAP	15	240	3
NMTAP	15	240	6
NMTAP	15	288	3
NMTAP	15	288	6
NMTAP	15	336	2
NMSTR	16	0	1
NMSCR	16	0	1	96	48	4
NMTAP	16	96	5
NMTAP	16	144	6
NMHLD	16	192	6	72
NMHLD	16	264	5	72
NMTAP	16	336	4
NMTAP	17	48	3
NMTAP	17	48	4
NMSTR	17	96	3
NMSI_	17	96	3	96	48	0
NMSTR	17	96	4
NMSI_	17	96	4	96	48	7
NMTAP	17	144	2
NMTAP	17	144	5
EXTAP	17	288	0
EXTAP	17	288	7
NMSTR	18	0	1
NMSCR	18	0	1	96	48	4
NMTAP	18	48	0
NMSTR	18	96	6
NMSI_	18	96	6	96	48	3
NMTAP	18	144	7
NMTAP	18	192	2
NMTAP	18	240	2
NMTAP	18	288	1
NMTAP	18	288	4
NMTAP	18	336	5
NMSTR	19	0	6
NMSCL	19	0	6	96	48	3
NMTAP	19	48	7
NMSTR	19	96	1
NMSI_	19	96	1	96	48	4
NMTAP	19	144	0
NMTAP	19	192	5
NMTAP	19	240	5
NMTAP	19	288	3
NMTAP	19	288	6
NMTAP	19	336	7
NMSTR	20	0	7
NMSCL	20	0	7	96	48	4
NMTAP	20	48	4
NMTAP	20	96	3
NMTAP	20	144	2
NMHLD	20	192	2	72
NMHLD	20	264	1	72
NMTAP	20	336	0
NMTAP	21	48	0
NMTAP	21	48	7
NMTAP	21	96	0
NMTAP	21	96	7
NMTAP	21	192	2
NMTAP	21	192	5
NMTAP	21	240	2
NMTAP	21	240	5
NMTAP	21	288	3
NMSTR	21	288	4
NMSI_	21	288	4	96	48	6
NMHLD	22	0	1	192
CNSV_	22	48	6	0	48	3
CNSUR	22	96	3	0	48	7
EXSTR	22	192	0
NMSI_	22	192	0	96	48	6
NMHLD	22	288	2	384
CNSUL	22	336	6	0	96	1
CNSUL	23	48	1	0	48	4
EXTAP	23	192	5
EXTAP	23	240	5
EXTAP	23	288	4
EXTAP	23	336	4
NMSTR	24	0	3
NMSI_	24	0	3	96	48	1
EXTAP	24	0	5
NMHLD	24	96	6	192
CNSV_	24	144	1	0	48	4
CNSUL	24	192	4	0	48	0
EXSTR	24	288	7
NMSLR	24	288	7	96	96	4
NMHLD	25	0	5	336
EXTAP	25	192	4
EXTAP	25	264	3
EXTAP	25	336	2
NMHLD	26	0	2	72
NMHLD	26	72	1	72
NMSTR	26	144	0
NMSCR	26	144	0	96	48	3
EXTAP	26	240	4
EXTAP	26	288	4
NMTAP	26	336	5
NMTAP	27	0	4
NMTAP	27	0	6
NMTAP	27	48	3
NMTAP	27	96	2
NMTAP	27	96	7
NMTAP	27	144	6
NMTAP	27	192	1
NMTAP	27	192	5
NMTAP	27	240	0
NMTAP	27	288	1
NMTAP	27	336	2
NMTAP	27	336	4
NMTAP	28	0	2
NMTAP	28	0	4
NMTAP	28	72	1
NMTAP	28	72	5
NMTAP	28	144	0
NMSTR	28	144	6
NMSCL	28	144	6	96	48	3
NMTAP	28	240	0
NMHLD	28	288	0	96
NMTAP	29	0	3
NMTAP	29	48	3
NMTAP	29	96	4
NMTAP	29	144	4
NMTAP	29	192	3
NMTAP	29	192	4
NMTAP	29	240	2
NMTAP	29	240	5
NMSTR	29	288	1
BRSCR	29	288	1	96	48	3
NMSTR	29	288	6
BRSCL	29	288	6	96	48	4
NMTAP	29	336	0
NMTAP	29	336	7
BRTAP	30	0	1
BRTAP	30	0	6
NMSTR	30	96	0
NMSI_	30	96	0	96	48	4
NMTAP	30	96	7
NMTAP	30	144	1
NMTAP	30	192	0
NMSTR	30	192	6
NMSI_	30	192	6	96	48	2
NMTAP	30	240	7
NMSTR	30	288	1
NMSI_	30	288	1	96	48	7
NMTAP	30	288	6
NMTAP	30	336	0
NMTAP	31	0	1
NMSTR	31	0	3
NMSI_	31	0	3	96	48	7
NMTAP	31	48	4
NMSTR	31	96	0
NMSCR	31	96	0	96	96	4
NMTAP	31	96	3
NMTAP	31	144	1
NMTAP	31	192	0
NMTAP	31	192	6
NMTAP	31	288	5
NMHLD	31	336	5	144
NMTAP	32	0	4
NMTAP	32	48	7
NMHLD	32	96	3	96
NMTAP	32	144	7
NMHLD	32	192	4	96
NMTAP	32	240	0
NMHLD	32	288	2	96
NMTAP	32	336	0
NMHLD	33	0	5	96
NMTAP	33	48	7
NMTAP	33	96	3
NMTAP	33	144	3
NMTAP	33	192	4
NMTAP	33	240	3
NMTAP	33	240	5
NMSTR	33	288	2
NMSCL	33	288	2	96	48	7
NMSTR	33	288	6
NMSCL	33	288	6	96	48	3
NMTAP	33	336	1
NMTAP	33	336	5
NMTAP	34	0	2
NMTAP	34	0	6
NMSTR	34	96	0
NMSI_	34	96	0	96	48	4
NMTAP	34	144	7
NMTAP	34	192	0
NMSTR	34	192	6
NMSI_	34	192	6	96	48	1
NMTAP	34	240	5
NMSTR	34	288	2
NMSI_	34	288	2	96	48	5
NMTAP	34	288	6
NMTAP	34	336	3
NMTAP	35	0	2
NMSTR	35	0	7
NMSCL	35	0	7	96	48	4
NMTAP	35	48	6
NMSTR	35	96	3
NMSCL	35	96	3	96	48	0
NMTAP	35	96	7
NMTAP	35	144	2
NMTAP	35	192	3
NMSTR	35	192	4
NMSI_	35	192	4	96	48	7
NMTAP	35	240	5
NMSTR	35	288	0
NMSI_	35	288	0	96	48	4
NMTAP	35	288	4
NMTAP	35	336	1
NMTAP	36	0	0
NMHLD	36	0	7	96
NMSTR	36	96	4
NMSI_	36	96	4	96	48	0
NMTAP	36	144	3
NMTAP	36	192	4
NMSTR	36	192	5
NMSCL	36	192	5	96	48	2
NMTAP	36	240	6
NMSTR	36	288	1
NMSCL	36	288	1	96	48	6
NMTAP	36	288	5
NMTAP	36	336	0
NMTAP	37	0	1
NMSTR	37	0	3
NMSI_	37	0	3	96	48	7
NMTAP	37	48	4
NMSTR	37	96	0
NMSV_	37	96	0	96	48	2
NMSV_	37	96	0	96	48	6
NMTAP	37	96	3
NMTAP	37	144	1
CNSCR	37	240	2	0	48	4
CNSCL	37	240	6	0	48	4
NMTAP	38	0	3
NMTAP	38	32	3
NMTAP	38	48	4
NMTAP	38	80	4
NMSTR	38	96	2
NMSCR	38	96	2	96	48	3
NMTAP	38	128	2
NMTAP	38	144	3
NMTAP	38	192	4
CNSUR	38	240	3	0	72	4
CNSCR	38	312	4	0	72	5
NMSTR	39	0	7
NMSCR	39	0	7	96	48	0
NMTAP	39	96	1
CNSI_	39	144	0	0	48	6
CNSV_	39	192	6	0	96	4
NMSTR	39	288	3
NMSCL	39	288	3	96	48	2
NMTAP	40	0	4
CNSUL	40	48	2	0	72	1
CNSCL	40	120	1	0	72	0
NMSTR	40	192	5
NMSCL	40	192	5	96	48	4
NMTAP	40	288	1
CNSI_	40	336	4	0	48	6
CNSV_	41	0	6	0	96	0
NMSTR	41	96	3
NMSXR	41	96	3	96	128	4
NMTAP	41	192	4
NMTAP	41	352	6
NMSTR	42	0	6
NMSXL	42	0	6	96	128	5
NMTAP	42	64	4
NMTAP	42	96	4
NMTAP	42	160	3
NMTAP	42	224	2
NMSTR	42	288	1
NMSXR	42	288	1	96	128	2
NMTAP	43	0	3
NMTAP	43	160	5
NMTAP	43	192	5
NMTAP	43	256	3
NMTAP	43	288	3
NMTAP	43	352	2
NMTAP	43	352	4
NMTAP	44	32	1
NMTAP	44	32	5
NMTAP	44	96	1
NMTAP	44	96	5
NMSTR	44	192	7
NMSCL	44	192	7	96	96	4
NMTAP	44	288	0
NMTAP	44	352	0
NMSTR	45	0	1
NMSCL	45	0	1	96	96	6
NMTAP	45	96	2
NMTAP	45	160	2
NMSTR	45	192	3
NMSCL	45	192	3	96	96	0
NMTAP	45	256	4
NMTAP	45	320	4
NMSTR	46	0	6
NMSCL	46	0	6	96	96	3
NMTAP	46	96	0
NMSTR	46	192	1
NMSCL	46	192	1	96	96	6
NMTAP	46	288	3
NMTAP	46	352	3
NMSTR	47	0	4
NMSCL	47	0	4	96	96	1
NMTAP	47	96	6
NMTAP	47	160	6
NMSTR	47	192	7
NMSCL	47	192	7	96	96	4
NMTAP	47	256	1
EXTAP	47	320	0
EXTAP	48	0	7
NMTAP	48	96	1
NMTAP	48	96	6
NMSTR	48	192	0
NMSCR	48	192	0	96	96	3
NMTAP	48	288	7
NMTAP	48	352	7
NMSTR	49	0	6
NMSCR	49	0	6	96	96	1
NMTAP	49	96	5
NMTAP	49	160	5
NMSTR	49	192	4
NMSCR	49	192	4	96	96	7
NMTAP	49	256	3
NMTAP	49	320	3
NMSTR	50	0	2
NMSCR	50	0	2	96	96	5
NMTAP	50	96	1
NMSTR	50	192	0
NMSCR	50	192	0	96	96	3
NMTAP	50	288	6
NMTAP	50	352	6
NMSTR	51	0	7
NMSCL	51	0	7	96	96	4
NMTAP	51	96	1
NMTAP	51	160	1
NMSTR	51	192	0
NMSCR	51	192	0	96	96	3
NMTAP	51	256	6
NMTAP	51	320	6
NMHLD	52	0	7	96
NMSTR	52	96	3
BRSCL	52	96	3	96	144	4
NMTTP	52	192	0	C	1	M1
NMTAP	53	96	2
NMTAP	53	96	5
NMTAP	53	192	4
NMTAP	53	192	6
NMTAP	53	240	5
NMSTR	53	288	1
NMSCL	53	288	1	96	48	7
NMTAP	53	288	3
NMTAP	53	336	2
NMSTR	54	0	5
NMSCL	54	0	5	96	48	3
NMTAP	54	48	4
NMTAP	54	96	0
NMTAP	54	144	0
NMTAP	54	192	1
NMTAP	54	192	3
NMTAP	54	240	2
NMTAP	54	288	4
NMSTR	54	288	6
NMSCR	54	288	6	96	48	0
NMTAP	54	336	5
NMSTR	55	0	2
NMSCR	55	0	2	96	48	4
NMTAP	55	48	3
NMTAP	55	96	7
NMTAP	55	144	7
NMHLD	55	192	6	48
NMHLD	55	240	4	48
NMHLD	55	288	3	48
NMHLD	55	336	2	48
NMTAP	56	0	3
NMTAP	56	48	1
NMTAP	56	48	4
NMTAP	56	96	0
NMTAP	56	96	5
NMTAP	56	192	2
NMTAP	56	192	4
NMTAP	56	240	3
NMTAP	56	272	3
NMTAP	56	288	5
NMTAP	56	320	5
NMTAP	56	336	4
NMTAP	56	368	4
NMTAP	57	0	7
NMTAP	57	32	7
NMTAP	57	48	5
NMTAP	57	80	5
NMTAP	57	96	6
NMTAP	57	128	6
NMTAP	57	144	4
NMTAP	57	176	4
NMTAP	57	192	3
NMTAP	57	224	3
NMTAP	57	240	1
NMTAP	57	272	1
NMTAP	57	288	5
NMTAP	57	320	5
NMTAP	57	336	7
NMTAP	57	368	7
NMTAP	58	0	0
NMTAP	58	32	0
NMTAP	58	48	2
NMTAP	58	80	2
NMTAP	58	96	3
NMTAP	58	128	3
NMTAP	58	144	1
NMTAP	58	176	1
NMTAP	58	192	7
NMSTR	58	288	0
NMSI_	58	288	0	96	48	4
NMTAP	58	300	1
NMTAP	58	312	2
NMTAP	58	324	3
NMTAP	58	336	4
NMTAP	58	348	5
NMTAP	58	360	6
NMTAP	58	372	7
NMSTR	59	0	0
NMSCL	59	0	0	96	48	5
NMSCR	59	0	0	96	48	3
NMSTR	59	96	0
BRSF_	59	96	0	96	48	4
BRTAP	59	192	0
EXTAP	59	288	3
EXTAP	59	288	5
NMTAP	59	336	2
NMTAP	60	0	0
NMTAP	60	48	5
NMSTR	60	96	7
NMSCL	60	96	7	96	48	4
NMTAP	60	144	2
BRSTR	60	192	1
NMSCR	60	192	1	96	48	4
BRTAP	60	192	7
NMTAP	60	240	0
NMTAP	60	288	1
NMSTR	60	288	5
NMSCR	60	288	5	96	48	7
NMTAP	60	336	6
NMSTR	61	0	2
NMSI_	61	0	2	96	48	5
NMTAP	61	0	5
NMTAP	61	48	3
NMTAP	61	96	2
NMSTR	61	96	6
NMSCL	61	96	6	96	48	3
NMTAP	61	144	7
BRSTR	61	192	2
NMSCL	61	192	2	96	48	0
BRTAP	61	192	6
NMTAP	61	240	1
NMTAP	61	288	2
NMSTR	61	288	4
NMSI_	61	288	4	96	48	1
NMSI_	61	288	4	96	48	7
NMTAP	61	336	5
NMTAP	62	0	4
NMTAP	62	96	2
NMSTR	62	96	6
NMSCR	62	96	6	96	48	1
BRSTR	62	192	2
NMSCR	62	192	2	96	48	5
BRTAP	62	192	6
NMTAP	62	240	3
NMTAP	62	288	2
NMSTR	62	288	7
NMSI_	62	288	7	96	48	3
NMTAP	62	336	6
NMSTR	63	0	2
NMSI_	63	0	2	96	48	5
NMTAP	63	0	7
NMTAP	63	48	1
NMTAP	63	96	2
NMSTR	63	96	6
NMSCR	63	96	6	96	48	1
NMTAP	63	144	7
BRSTR	63	192	3
NMSI_	63	192	3	96	48	0
BRTAP	63	192	6
NMTAP	63	240	4
NMTAP	63	288	3
NMSTR	63	288	7
BRSCL	63	288	7	96	48	4
BRSCR	63	288	7	96	48	2
NMTAP	63	336	6
NMTAP	64	0	7
NMTAP	64	96	1
NMTAP	64	96	5
NMTHO	64	192	0	672	C	0	M1
NMTTP	64	192	7	B	0	M1
NMTTP	64	192	7	A	0	M1
NMTTP	64	288	0	B	0	M1
NMTTP	64	288	0	A	0	M1
NMTTP	65	0	1	B	0	M1
NMTTP	65	0	1	A	0	M1
NMTTP	65	96	2	B	0	M1
NMTTP	65	96	2	A	0	M1
NMTTP	65	192	3	B	0	M1
NMTTP	65	192	3	A	0	M1
NMTTP	65	288	4	B	0	M1
NMTTP	65	288	4	A	0	M1
NMTTP	66	0	5	B	0	M1
NMTTP	66	0	5	A	0	M1
NMTTP	66	96	6	B	0	M1
NMTTP	66	96	6	A	0	M1
BRSTR	66	192	7
NMSI_	66	192	7	96	48	3
NMTAP	66	240	0
NMSTR	66	288	1
NMSI_	66	288	1	96	48	4
NMTAP	66	288	7
NMTAP	66	336	2
BRTAP	67	0	1
BRSTR	67	0	5
NMSI_	67	0	5	96	48	7
NMTAP	67	48	6
NMSTR	67	96	2
NMSI_	67	96	2	96	48	0
NMTAP	67	96	5
NMTAP	67	144	1
BRSTR	67	192	2
NMSCR	67	192	2	96	48	5
BRSTR	67	192	6
NMSCR	67	192	6	96	48	1
NMTAP	67	240	5
NMTAP	67	288	2
NMSTR	67	288	6
NMSXL	67	288	6	96	144	3
BRTAP	68	0	3
BRTAP	68	0	6
NMTAP	68	96	2
NMTAP	68	144	2
BRSTR	68	192	1
NMSCR	68	192	1	96	48	4
NMTAP	68	240	0
NMTAP	68	288	1
NMSTR	68	288	5
NMSI_	68	288	5	96	48	7
NMTAP	68	336	6
BRTAP	69	0	2
BRTAP	69	0	5
NMTAP	69	48	2
NMSTR	69	96	7
NMSI_	69	96	7	96	48	5
NMSTR	69	144	0
NMSI_	69	144	0	96	48	2
BRSTR	69	192	7
NMSI_	69	192	7	96	48	3
BRSTR	69	240	0
NMSI_	69	240	0	96	48	4
BRTAP	69	288	7
BRTAP	69	336	0
NMTTP	70	0	7	A	0	M1
NMTTP	70	48	0	B	0	M1
NMTTP	70	96	6	B	0	M1
NMTTP	70	144	2	B	0	M1
NMTTP	70	192	4	B	0	M1
NMTTP	70	240	3	A	0	M1

T_REC_TAP	331
T_REC_BRK	14
T_REC_XTP	16
T_REC_BXX	0
T_REC_HLD	37
T_REC_XHO	0
T_REC_BHO	0
T_REC_BXH	0
T_REC_STR	87
T_REC_BST	11
T_REC_XST	2
T_REC_XBS	1
T_REC_TTP	29
T_REC_THO	1
T_REC_SLD	98
T_REC_BSL	7
T_REC_ALL	634
T_NUM_TAP	465
T_NUM_BRK	33
T_NUM_HLD	38
T_NUM_SLD	98
T_NUM_ALL	634
T_JUDGE_TAP	491
T_JUDGE_HLD	90
T_JUDGE_SLD	105
T_JUDGE_ALL	686
TTM_EACHPAIRS	100
TTM_SCR_TAP	232500
TTM_SCR_BRK	85800
TTM_SCR_HLD	38000
TTM_SCR_SLD	147000
TTM_SCR_ALL	503300
TTM_SCR_S	485000
TTM_SCR_SS	500000
TTM_RAT_ACV	10066

