VERSION	0.00.00	1.04.00
FES_MODE	0
BPM_DEF	122.000	122.000	122.000	122.000
MET_DEF	4	4
RESOLUTION	384
CLK_DEF	384
COMPATIBLE_CODE	MA2

BPM	0	0	122.000
MET	0	0	4	4
MET	37	0	4	6
MET	38	192	4	6
MET	44	192	4	4

NMTTP	2	96	2	E	0	M1
NMTTP	2	288	3	E	0	M1
NMTTP	3	96	6	E	0	M1
NMTTP	3	288	5	E	0	M1
NMTTP	4	96	2	D	0	M1
NMTTP	4	288	3	D	0	M1
NMTTP	5	96	6	D	0	M1
NMTTP	5	288	5	D	0	M1
NMTAP	6	0	3
NMTAP	6	96	3
NMTAP	6	192	3
NMTAP	6	288	3
NMTAP	7	0	3
NMTAP	7	96	2
NMTAP	7	96	3
NMTAP	7	192	4
NMTAP	7	288	4
NMTAP	7	288	5
NMTAP	8	0	2
NMTAP	8	96	1
NMTAP	8	96	3
NMTAP	8	192	5
NMTAP	8	288	4
NMSTR	8	288	6
NMSXL	8	288	6	96	192	1
EXTAP	9	288	3
EXTAP	9	288	4
NMSTR	10	0	1
NMSI_	10	0	1	96	48	3
NMTAP	10	0	6
NMTAP	10	96	5
NMTAP	10	192	4
NMSTR	10	192	6
NMSI_	10	192	6	96	48	4
NMTAP	10	288	2
NMTAP	10	336	2
NMTAP	11	0	1
NMTAP	11	0	3
NMTAP	11	96	7
NMTAP	11	192	4
NMTAP	11	192	6
NMTAP	11	288	0
NMTAP	12	0	1
NMSTR	12	0	6
NMSI_	12	0	6	96	48	4
NMTAP	12	96	2
NMSTR	12	192	1
NMSI_	12	192	1	96	48	3
NMTAP	12	192	3
NMTAP	12	288	5
NMTAP	12	336	5
NMTAP	13	0	4
NMTAP	13	0	6
NMTAP	13	96	0
NMTAP	13	192	1
NMTAP	13	192	3
NMTAP	13	288	7
NMTAP	14	0	0
NMTAP	14	0	6
NMTAP	14	96	1
NMTAP	14	144	1
NMTAP	14	240	3
NMTAP	14	288	3
NMTAP	14	336	2
NMHLD	15	0	1	72
NMHLD	15	72	2	72
NMTAP	15	144	3
NMTAP	15	240	2
NMTAP	15	240	4
NMSTR	15	288	2
NMSUR	15	288	2	96	120	4
NMTAP	15	288	4
NMTAP	16	0	5
NMTAP	16	144	6
NMHLD	16	192	6	72
NMHLD	16	264	5	72
NMTAP	16	336	4
NMTAP	17	48	2
NMTAP	17	96	3
NMTAP	17	144	1
NMTAP	17	144	4
NMTAP	17	240	5
NMTAP	17	288	5
NMTAP	17	336	4
NMTAP	18	0	3
NMTAP	18	0	6
NMTAP	18	96	7
NMTAP	18	144	7
NMTAP	18	240	5
NMTAP	18	288	5
NMTAP	18	336	4
NMHLD	19	0	6	72
NMHLD	19	72	5	72
NMTAP	19	144	4
NMTAP	19	240	2
NMTAP	19	288	2
NMTAP	19	336	3
NMTAP	20	0	1
NMTAP	20	0	4
NMTAP	20	96	0
NMTAP	20	144	0
NMHLD	20	192	6	72
NMHLD	20	264	5	72
NMTAP	20	336	4
NMTAP	21	48	3
NMTAP	21	48	5
NMTAP	21	96	3
NMSTR	21	96	5
NMSUL	21	96	5	96	120	3
NMTAP	21	192	2
NMTAP	21	288	2
NMHLD	22	0	0	192
NMSTR	22	192	2
NMSXR	22	192	2	96	192	3
NMHLD	22	288	4	288
NMTAP	23	192	3
NMTAP	23	240	3
NMTAP	23	288	3
NMTAP	23	336	3
NMHLD	24	0	7	192
NMSTR	24	192	5
NMSXL	24	192	5	96	192	4
NMHLD	24	288	3	288
NMTAP	25	192	4
NMTAP	25	264	2
NMTAP	25	264	5
NMTAP	25	336	1
NMTAP	25	336	6
NMTAP	26	0	1
NMTAP	26	0	6
NMTAP	26	96	7
NMTAP	26	192	0
NMTAP	26	288	1
NMTAP	26	288	7
NMTAP	27	0	0
NMTAP	27	0	6
NMTAP	27	96	5
NMTAP	27	144	4
NMTAP	27	144	5
NMTAP	27	240	2
NMTAP	27	288	2
NMTAP	27	288	3
NMTAP	28	0	0
NMTAP	28	0	1
NMTAP	28	96	2
NMTAP	28	96	3
NMTAP	28	192	4
NMTAP	28	192	5
NMTAP	28	288	6
NMTAP	28	288	7
NMTAP	29	0	0
NMTAP	29	48	1
NMTAP	29	96	2
NMTAP	29	144	3
NMTAP	29	192	4
NMTAP	29	240	5
NMTAP	29	288	6
EXTAP	29	336	0
EXTAP	29	360	7
BXSTR	30	0	0
NMSI_	30	0	0	96	48	4
NMTAP	30	96	6
NMHLD	30	144	6	96
NMTAP	30	240	4
NMTAP	30	288	6
NMTAP	30	336	0
NMTAP	31	0	2
NMTAP	31	0	3
NMTAP	31	48	1
NMTAP	31	96	0
NMTAP	31	96	7
NMTAP	31	144	6
NMTAP	31	192	4
NMSTR	31	192	5
NMSCR	31	192	5	96	48	0
NMTAP	31	288	1
NMTAP	32	0	1
NMTAP	32	48	0
NMTAP	32	96	2
NMTAP	32	96	7
NMTAP	32	144	6
NMTAP	32	192	7
NMTAP	32	240	0
NMTAP	32	288	1
NMTAP	32	288	6
NMTAP	33	0	4
NMTAP	33	0	5
NMTAP	33	48	6
NMTAP	33	96	0
NMTAP	33	96	7
NMTAP	33	144	1
NMTAP	33	192	2
NMTAP	33	192	3
NMTAP	33	240	2
NMTAP	33	240	3
NMTAP	33	288	1
NMTAP	33	288	4
BRTAP	34	0	0
BRSTR	34	0	7
NMSCL	34	0	7	96	48	4
NMTAP	34	96	1
NMHLD	34	144	1	96
NMTAP	34	240	3
NMTAP	34	288	1
NMTAP	34	336	7
NMSTR	35	0	5
NMSI_	35	0	5	96	48	0
NMSTR	35	96	1
NMSI_	35	96	1	96	48	4
NMTAP	35	192	7
NMTAP	35	288	6
NMTAP	35	336	7
NMTAP	36	0	0
NMTAP	36	0	5
NMTAP	36	96	1
NMTAP	36	144	0
NMTAP	36	192	2
NMTAP	36	192	7
NMTAP	36	240	6
NMTAP	36	288	5
NMTAP	36	336	4
NMTAP	37	0	3
NMTAP	37	0	4
NMTAP	37	48	3
NMTAP	37	48	4
NMTAP	37	96	2
NMTAP	37	96	5
NMTAP	37	144	2
NMTAP	37	144	5
NMTAP	37	192	1
NMTAP	37	192	6
NMTAP	37	240	1
NMTAP	37	240	6
NMSTR	37	288	0
NMSV_	37	288	0	96	48	3
NMSTR	37	288	7
NMSV_	37	288	7	96	48	4
NMTAP	37	336	0
NMTAP	37	336	7
CNSI_	38	48	3	0	72	1
CNSI_	38	48	4	0	72	6
BRTAP	38	192	0
BRTAP	38	192	7
NMTAP	39	96	2
NMTAP	40	0	3
NMTAP	40	288	4
NMTAP	41	192	5
NMTTP	42	0	4	B	0	M1
NMTAP	42	96	5
NMTAP	42	160	5
NMTAP	42	224	5
NMTTP	42	288	4	E	0	M1
NMTAP	43	0	2
NMTTP	43	192	3	B	0	M1
NMTAP	43	288	2
NMTAP	43	352	2
NMTAP	44	32	2
NMTTP	44	96	4	E	0	M1
NMTAP	44	192	5
NMTAP	44	288	4
NMTAP	44	288	5
NMTAP	45	0	2
NMTAP	45	96	2
NMTAP	45	96	3
NMTAP	45	192	4
NMTAP	45	288	3
NMTAP	45	288	4
NMTAP	46	0	2
NMTAP	46	0	5
NMSTR	46	96	1
NMSCR	46	96	1	96	48	3
NMTAP	46	96	6
NMTAP	46	192	0
NMSTR	46	288	6
NMSCL	46	288	6	96	48	4
NMTAP	47	0	7
NMSTR	47	96	1
NMSUR	47	96	1	96	48	5
NMTAP	47	192	0
NMSTR	47	288	6
NMSUL	47	288	6	96	48	2
NMTAP	48	0	7
NMTAP	48	96	0
NMTAP	48	96	7
NMTAP	48	192	1
NMTAP	48	288	2
NMTAP	48	288	3
NMTAP	49	0	6
NMTAP	49	96	4
NMTAP	49	96	5
NMTAP	49	192	2
NMTAP	49	288	1
NMTAP	49	288	3
NMTAP	50	0	5
NMSTR	50	96	4
NMSCL	50	96	4	96	48	1
NMTAP	50	96	6
NMTAP	50	192	5
NMSTR	50	288	3
NMSCR	50	288	3	96	48	6
NMTAP	51	0	2
NMSTR	51	96	1
NMSI_	51	96	1	96	48	3
NMSTR	51	192	7
NMSI_	51	192	7	96	48	5
NMSTR	51	288	0
NMSI_	51	288	0	96	48	4
NMSTR	52	0	6
NMSI_	52	0	6	96	48	2
NMSTR	52	96	0
NMSCR	52	96	0	96	216	7
NMTTP	52	192	0	C	1	M1
NMTAP	53	96	1
NMTAP	53	96	6
NMTAP	53	192	0
NMTAP	53	240	0
NMTAP	53	288	7
NMTAP	53	336	7
NMTAP	54	0	1
NMTAP	54	48	0
NMTAP	54	96	2
NMTAP	54	96	7
NMTAP	54	192	5
NMTAP	54	240	5
NMTAP	54	288	4
NMTAP	54	288	6
NMTAP	55	0	2
NMTAP	55	48	2
NMTAP	55	96	1
NMTAP	55	96	3
NMTAP	55	192	7
NMTAP	55	240	7
NMTAP	55	288	0
NMTAP	55	336	0
NMTAP	56	0	6
NMTAP	56	48	7
NMTAP	56	96	0
NMTAP	56	96	5
NMTAP	56	192	2
NMTAP	56	240	3
NMTAP	56	288	1
NMTAP	56	288	4
NMTAP	57	0	5
NMTAP	57	48	4
NMTAP	57	96	3
NMTAP	57	96	6
NMTAP	57	192	1
NMTAP	57	240	2
NMTAP	57	288	3
NMTAP	57	336	4
NMTAP	58	0	5
NMTAP	58	48	6
NMTAP	58	96	0
NMTAP	58	96	7
NMSTR	58	192	1
NMSCR	58	192	1	96	48	3
NMSTR	58	192	6
NMSCL	58	192	6	96	48	4
NMTAP	58	240	1
NMTAP	58	240	6
NMTAP	59	0	0
NMTAP	59	0	7
NMTAP	59	48	6
NMTAP	59	96	5
NMTAP	59	144	4
NMHLD	59	192	2	48
NMHLD	59	192	3	48
NMHLD	59	288	4	48
NMHLD	59	288	5	48
NMHLD	60	0	1	48
NMHLD	60	0	3	48
NMHLD	60	96	4	48
NMHLD	60	96	6	48
BRTAP	60	192	0
BRTAP	60	192	7
NMTAP	60	240	0
NMTAP	60	240	7
NMTAP	60	288	1
NMTAP	60	336	1
NMTAP	61	0	3
NMTAP	61	0	4
NMTAP	61	48	6
NMTAP	61	96	0
NMTAP	61	144	2
NMTAP	61	192	4
NMTAP	61	192	5
NMTAP	61	240	4
NMTAP	61	240	5
NMTAP	61	288	1
NMSTR	61	288	7
NMSCL	61	288	7	96	96	1
NMTAP	61	336	1
NMTAP	61	336	7
BRTAP	62	96	0
NMTAP	62	192	1
NMTAP	62	192	7
NMTAP	62	240	1
NMTAP	62	240	7
NMTAP	62	288	6
NMHLD	62	336	6	96
NMTAP	63	48	4
NMTAP	63	96	3
NMTAP	63	96	5
NMTAP	63	144	2
NMTAP	63	144	4
NMTAP	63	192	1
NMTAP	63	192	3
NMTAP	63	240	1
NMTAP	63	240	3
NMSTR	63	288	0
NMSCR	63	288	0	96	96	6
NMTAP	63	288	6
NMTAP	63	336	0
NMTAP	63	336	6
BRTAP	64	96	7
NMHLD	64	192	6	144
NMHLD	64	336	5	144
NMTAP	65	96	4
NMHLD	65	192	1	144
NMHLD	65	336	2	144
NMTAP	66	96	3
NMTAP	66	192	0
NMTAP	66	192	6
NMTAP	66	240	0
NMTAP	66	240	6
NMTAP	66	288	1
NMTAP	66	288	7
NMTAP	66	336	1
NMTAP	66	336	7
NMTAP	67	0	3
NMTAP	67	48	5
NMTAP	67	96	7
NMTAP	67	144	1
NMTAP	67	192	0
NMTAP	67	192	2
NMTAP	67	240	6
NMTAP	67	288	5
NMTAP	67	288	7
NMTAP	67	336	0
NMSTR	68	0	2
NMSI_	68	0	2	96	48	5
NMSTR	68	0	6
NMSI_	68	0	6	96	48	1
NMTAP	68	192	7
NMTAP	68	240	6
NMTAP	68	288	1
NMTAP	68	336	2
NMTAP	69	0	5
NMTAP	69	48	4
NMSTR	69	96	3
NMSXR	69	96	3	96	192	4
NMTTP	70	0	6	E	0	M1
NMTTP	70	48	5	E	0	M1
NMTTP	70	96	4	E	0	M1
NMTTP	70	144	3	E	0	M1

T_REC_TAP	330
T_REC_BRK	7
T_REC_XTP	4
T_REC_HLD	27
T_REC_XHO	0
T_REC_STR	32
T_REC_BST	2
T_REC_XST	0
T_REC_TTP	17
T_REC_THO	0
T_REC_SLD	34
T_REC_ALL	453
T_NUM_TAP	383
T_NUM_BRK	9
T_NUM_HLD	27
T_NUM_SLD	34
T_NUM_ALL	453
T_JUDGE_TAP	392
T_JUDGE_HLD	62
T_JUDGE_SLD	34
T_JUDGE_ALL	488
TTM_EACHPAIRS	101
TTM_SCR_TAP	191500
TTM_SCR_BRK	23400
TTM_SCR_HLD	27000
TTM_SCR_SLD	51000
TTM_SCR_ALL	292900
TTM_SCR_S	283250
TTM_SCR_SS	292000
TTM_RAT_ACV	10030

