VERSION	0.00.00	1.04.00
FES_MODE	0
BPM_DEF	122.000	122.000	122.000	122.000
MET_DEF	4	4
RESOLUTION	384
CLK_DEF	384
COMPATIBLE_CODE	MA2

BPM	0	0	122.000
MET	0	0	4	4

NMHLD	2	0	4	288
NMTTP	2	96	3	E	0	M1
NMTTP	2	108	3	A	0	M1
NMTTP	2	288	3	E	0	M1
NMTTP	2	300	3	A	0	M1
NMHLD	3	0	5	288
NMTTP	3	96	3	E	0	M1
NMTTP	3	108	3	A	0	M1
NMTTP	3	288	3	E	0	M1
NMTTP	3	300	3	A	0	M1
NMHLD	4	0	6	288
NMTTP	4	96	3	E	0	M1
NMTTP	4	108	3	A	0	M1
NMTTP	4	288	3	E	0	M1
NMTTP	4	300	3	A	0	M1
NMHLD	5	0	7	288
NMTTP	5	96	3	E	0	M1
NMTTP	5	108	3	A	0	M1
NMTTP	5	288	3	E	0	M1
NMTTP	5	300	3	A	0	M1
NMHLD	6	0	7	288
NMTTP	6	96	3	E	0	M1
NMTTP	6	108	3	A	0	M1
NMTTP	6	288	3	E	0	M1
NMTTP	6	300	3	A	0	M1
NMHLD	7	0	6	288
NMTTP	7	96	3	E	0	M1
NMTTP	7	108	3	A	0	M1
NMTTP	7	288	3	E	0	M1
NMTTP	7	300	3	A	0	M1
NMHLD	8	0	5	288
NMTTP	8	96	3	E	0	M1
NMTTP	8	108	3	A	0	M1
NMTTP	8	288	3	E	0	M1
NMTTP	8	300	3	A	0	M1
NMTAP	9	0	4
NMTTP	9	96	3	E	0	M1
NMSTR	9	96	4
NMSI_	9	96	4	96	96	7
NMTTP	9	108	3	A	0	M1
NMTTP	9	288	3	E	0	M1
NMTTP	9	300	3	A	0	M1
NMTAP	10	0	2
NMTAP	10	96	1
NMTAP	10	96	3
NMTAP	10	192	4
NMTAP	10	240	4
NMTAP	10	288	3
NMTAP	10	288	5
NMSTR	11	0	2
NMSCR	11	0	2	96	48	5
NMSTR	11	96	6
NMSUL	11	96	6	96	48	2
NMTAP	11	192	1
NMTAP	11	240	1
NMTAP	11	288	1
NMTAP	11	288	3
NMTAP	12	0	5
NMTAP	12	96	4
NMTAP	12	96	6
NMTAP	12	192	3
NMTAP	12	240	3
NMTAP	12	288	2
NMTAP	12	288	4
NMSTR	13	0	5
NMSCR	13	0	5	96	48	0
NMSTR	13	96	1
NMSUR	13	96	1	96	48	5
NMTAP	13	192	6
NMTAP	13	240	6
NMTAP	13	288	4
NMTAP	13	288	6
NMTAP	14	0	2
NMTAP	14	96	0
NMTAP	14	96	1
NMTAP	14	192	7
NMTAP	14	240	7
NMTAP	14	288	0
NMTAP	14	288	6
NMSTR	15	0	1
NMSCR	15	0	1	96	48	4
NMSTR	15	96	7
NMSUL	15	96	7	96	48	3
NMHLD	15	192	2	96
NMTAP	15	288	3
NMTAP	15	336	3
NMTAP	16	0	4
NMSTR	16	48	3
NMSI_	16	48	3	96	48	7
NMTAP	16	48	5
NMHLD	16	96	3	96
NMTAP	16	96	5
NMTAP	16	240	2
NMSTR	16	288	2
NMSCR	16	288	2	96	48	4
NMTAP	17	96	6
NMTAP	17	144	3
NMTAP	17	144	7
NMSTR	17	192	3
NMSCL	17	192	3	96	48	0
NMSTR	17	192	7
NMSCL	17	192	7	96	48	4
BRHLD	18	0	0	960
NMHLD	20	0	7	192
NMSTR	20	288	7
NMSXR	20	288	7	96	96	7
NMTAP	21	0	2
NMTAP	21	48	1
NMSTR	21	96	0
NMSXL	21	96	0	96	96	0
NMTAP	21	144	0
NMTAP	21	192	5
NMTAP	21	240	6
BRTAP	21	288	7
NMTAP	21	336	7
NMSTR	22	0	1
NMSI_	22	0	1	96	48	5
NMTAP	22	48	4
NMSTR	22	96	1
NMSCR	22	96	1	96	48	4
NMSTR	22	96	5
NMSCR	22	96	5	96	48	0
NMTAP	22	192	1
NMTAP	22	192	5
NMTAP	22	288	3
NMTAP	22	288	7
NMTAP	22	336	2
NMTAP	22	336	6
NMTAP	23	0	1
NMTAP	23	0	5
NMTAP	23	48	2
NMTAP	23	72	3
NMTAP	23	120	5
NMTAP	23	144	4
NMSTR	23	192	7
NMSXR	23	192	7	96	96	7
NMTAP	23	288	3
NMTAP	23	336	3
NMTAP	24	0	3
NMTAP	24	48	1
NMTAP	24	72	0
NMTAP	24	120	6
NMTAP	24	144	7
NMTAP	24	192	4
NMTAP	24	192	5
NMSTR	24	240	3
NMSCL	24	240	3	96	48	0
NMTAP	24	240	4
NMTAP	24	288	2
NMTAP	24	288	3
NMHLD	24	336	4	96
NMSTR	25	48	7
NMSI_	25	48	7	96	48	4
NMSV_	25	48	7	96	48	2
NMTAP	25	96	7
NMSTR	25	240	3
NMSCL	25	240	3	96	48	0
NMSCR	25	240	3	96	48	6
NMTAP	25	288	3
NMSTR	26	48	2
NMSV_	26	48	2	96	48	7
NMSTR	26	48	4
NMSCR	26	48	4	96	48	7
NMTAP	26	96	1
NMTAP	26	96	3
NMSTR	26	240	7
NMSXL	26	240	7	96	48	1
NMSXR	26	240	7	96	48	5
NMTAP	26	288	7
NMSTR	27	48	0
NMSV_	27	48	0	96	48	3
NMSTR	27	48	6
NMSCL	27	48	6	96	48	3
NMTAP	27	96	1
NMTAP	27	96	7
NMTAP	27	240	1
NMTAP	27	240	5
NMSTR	27	288	1
NMSI_	27	288	1	96	48	6
NMSTR	27	288	5
NMSI_	27	288	5	96	48	2
NMTAP	28	0	1
NMTAP	28	0	5
NMTAP	28	96	1
NMTAP	28	96	5
NMSTR	28	192	3
NMSCL	28	192	3	96	48	0
NMSTR	28	192	7
NMSCL	28	192	7	96	48	4
NMSTR	28	288	3
BRSV_	28	288	3	96	96	5
NMSTR	28	288	7
BRSV_	28	288	7	96	96	1
NMTAP	29	192	2
NMTAP	29	192	6
NMTAP	29	240	0
NMTAP	29	256	7
NMTAP	29	272	0
NMTAP	29	288	7
NMTAP	29	336	1
NMTAP	29	336	6
NMSTR	30	0	2
NMSCR	30	0	2	96	48	5
NMTAP	30	48	5
NMTAP	30	96	6
NMHLD	30	144	6	48
NMTAP	30	192	4
NMHLD	30	240	4	48
NMSTR	30	288	2
NMSCL	30	288	2	96	48	7
NMHLD	30	336	6	240
NMSTR	31	0	2
NMSCR	31	0	2	96	48	5
NMTAP	31	96	2
BRTAP	31	192	0
NMTAP	31	288	4
NMTAP	31	336	4
NMSTR	32	0	5
NMSCL	32	0	5	96	48	2
NMTAP	32	48	2
NMTAP	32	96	1
NMHLD	32	144	1	48
NMTAP	32	192	3
NMHLD	32	240	3	48
NMSTR	32	288	5
NMSI_	32	288	5	96	48	0
NMHLD	32	336	1	288
NMSTR	33	0	5
NMSI_	33	0	5	96	48	2
NMTAP	33	96	5
NMTAP	33	240	0
NMTAP	33	288	7
NMSTR	33	336	7
NMSCL	33	336	7	96	48	4
NMTAP	34	48	4
NMTAP	34	96	3
NMHLD	34	144	2	96
NMTAP	34	240	5
NMSTR	34	288	6
NMSI_	34	288	6	96	48	4
NMSTR	35	0	0
NMSI_	35	0	0	96	48	2
NMTAP	35	0	6
NMTAP	35	96	0
NMSTR	35	96	7
NMSCL	35	96	7	96	48	4
NMSTR	35	192	0
NMSCR	35	192	0	96	48	3
NMTAP	35	192	7
NMTAP	35	288	0
NMSTR	35	288	7
NMSI_	35	288	7	96	48	3
NMTAP	36	0	2
BRTAP	36	0	7
NMTAP	36	96	2
NMTAP	36	192	2
NMTAP	36	288	2
NMTAP	36	304	3
NMTAP	36	320	4
NMTAP	36	336	5
NMTAP	37	0	2
NMTAP	37	72	4
NMTAP	37	96	2
NMTAP	37	144	3
NMTAP	37	192	2
NMTAP	37	192	3
NMTAP	37	288	2
NMTAP	37	312	1
NMTAP	37	336	0
NMTAP	38	0	2
NMTAP	38	72	4
NMTAP	38	96	2
NMTAP	38	144	3
NMTAP	38	192	2
NMTAP	38	192	3
NMTAP	38	288	2
NMTAP	38	304	3
NMTAP	38	320	4
NMTAP	38	336	5
NMTAP	39	0	2
NMTAP	39	72	4
NMTAP	39	96	2
NMTAP	39	144	3
NMTAP	39	192	0
NMTAP	39	192	3
NMTAP	39	224	1
NMTAP	39	256	2
NMTAP	39	288	3
NMTAP	39	320	4
NMTAP	39	352	5
NMHLD	40	0	6	72
NMHLD	40	72	5	72
NMTAP	40	144	4
NMSTR	40	192	4
NMSCR	40	192	4	96	48	7
NMTAP	40	288	3
NMTAP	40	336	3
NMHLD	41	0	7	72
NMHLD	41	72	6	72
NMTAP	41	144	5
NMSTR	41	192	5
NMSI_	41	192	5	96	48	7
NMTAP	41	288	0
NMHLD	42	0	1	72
NMHLD	42	72	2	72
NMTAP	42	144	3
NMSTR	42	192	3
NMSCL	42	192	3	96	48	0
NMTAP	42	288	4
NMTAP	42	336	4
NMHLD	43	0	0	72
NMHLD	43	72	1	72
NMTAP	43	144	2
NMTAP	43	192	2
NMTAP	43	192	3
NMTAP	43	288	1
NMTAP	43	288	4
NMTAP	44	0	2
NMTAP	44	24	3
NMTAP	44	48	2
NMTAP	44	72	3
NMTTP	44	96	2	E	0	M1
NMTTP	44	120	4	E	0	M1
NMTTP	44	144	1	E	0	M1
NMTTP	44	168	5	E	0	M1
NMTAP	44	192	2
NMTAP	44	216	3
NMTAP	44	240	2
NMTAP	44	264	3
NMTTP	44	288	2	E	0	M1
NMTTP	44	312	4	E	0	M1
NMTTP	44	336	1	E	0	M1
NMTTP	44	360	5	E	0	M1
NMTAP	45	0	2
NMTAP	45	24	3
NMTAP	45	48	2
NMTAP	45	72	3
NMTTP	45	96	2	E	0	M1
NMTTP	45	120	4	E	0	M1
NMTTP	45	144	1	E	0	M1
NMTTP	45	168	5	E	0	M1
NMTTP	45	192	0	E	0	M1
NMTAP	45	288	3
NMTAP	45	288	5
NMTAP	46	0	5
NMTAP	46	24	4
NMTAP	46	48	5
NMTAP	46	72	4
NMTTP	46	96	6	E	0	M1
NMTTP	46	120	4	E	0	M1
NMTTP	46	144	7	E	0	M1
NMTTP	46	168	3	E	0	M1
NMTAP	46	192	5
NMTAP	46	216	4
NMTAP	46	240	5
NMTAP	46	264	4
NMTTP	46	288	6	E	0	M1
NMTTP	46	312	4	E	0	M1
NMTTP	46	336	7	E	0	M1
NMTTP	46	360	3	E	0	M1
NMTAP	47	0	5
NMTAP	47	24	4
NMTAP	47	48	5
NMTAP	47	72	4
NMTTP	47	96	6	E	0	M1
NMTTP	47	120	4	E	0	M1
NMTTP	47	144	7	E	0	M1
NMTTP	47	168	3	E	0	M1
NMTTP	47	192	0	E	0	M1
NMTAP	47	288	2
NMSTR	47	288	4
NMSCR	47	288	4	96	96	7
NMTAP	48	0	3
NMSTR	48	96	4
NMSCL	48	96	4	96	96	1
NMTAP	48	192	7
NMSTR	48	288	7
NMSCL	48	288	7	96	96	4
NMTAP	49	0	2
NMTAP	49	144	1
NMHLD	49	192	1	288
NMSTR	49	288	3
NMSI_	49	288	3	96	96	7
NMTAP	50	144	0
NMTAP	50	168	0
NMTAP	50	192	0
NMTAP	50	216	0
NMTAP	50	240	0
NMTAP	50	264	0
NMSTR	50	288	0
NMSCL	50	288	0	96	48	5
NMSCR	50	288	0	96	48	3
EXTAP	51	0	0
NMSTR	51	96	4
BRSI_	51	96	4	96	48	1
BRSI_	51	96	4	96	48	7
EXTAP	51	192	4
BXTAP	51	288	1
BXSTR	51	288	7
NMSI_	51	288	7	96	48	3
NMSTR	52	0	2
NMSI_	52	0	2	96	48	4
NMTAP	52	0	7
NMTAP	52	48	0
NMTAP	52	96	2
NMSTR	52	96	6
NMSI_	52	96	6	96	48	2
NMTAP	52	144	7
NMSTR	52	192	0
NMSI_	52	192	0	96	48	4
NMTAP	52	192	6
NMTAP	52	240	1
NMTAP	52	288	0
NMSTR	52	288	5
NMSI_	52	288	5	96	48	7
NMTAP	52	336	6
NMSTR	53	0	3
NMSCL	53	0	3	96	48	0
NMTAP	53	0	5
NMTAP	53	48	4
NMTAP	53	96	3
NMSTR	53	96	7
NMSF_	53	96	7	96	48	3
NMTAP	53	144	6
EXTAP	53	192	7
NMSTR	53	288	1
NMSI_	53	288	1	96	48	5
NMTAP	53	336	0
NMTAP	54	0	1
NMSTR	54	0	7
NMSCL	54	0	7	96	48	4
NMTAP	54	48	6
NMSTR	54	96	0
NMSCR	54	96	0	96	48	2
NMTAP	54	96	7
NMTAP	54	144	1
NMTAP	54	192	0
NMSTR	54	192	3
NMSI_	54	192	3	96	48	7
NMTAP	54	240	4
NMSTR	54	288	2
NMSI_	54	288	2	96	48	6
NMTAP	54	288	3
NMTAP	54	336	1
NMTAP	55	0	2
NMSTR	55	0	7
NMSI_	55	0	7	96	48	3
NMTAP	55	48	0
NMTAP	55	96	1
NMTAP	55	96	7
NMTAP	55	144	2
NMTAP	55	192	0
NMTAP	55	192	4
NMSTR	55	288	6
BRSCL	55	288	6	96	48	3
NMTAP	55	336	2
NMSTR	56	0	1
BRSI_	56	0	1	96	48	5
NMTAP	56	0	6
NMTAP	56	48	0
NMTAP	56	96	1
NMSTR	56	96	7
BRSCL	56	96	7	96	48	4
BRSCR	56	96	7	96	48	2
NMTAP	56	144	6
NMSTR	56	288	1
NMSCR	56	288	1	96	48	4
NMTAP	56	336	5
NMTAP	57	0	1
NMSTR	57	0	6
NMSI_	57	0	6	96	48	2
NMTAP	57	48	7
NMSTR	57	96	0
NMSV_	57	96	0	96	48	3
NMSV_	57	96	0	96	48	5
NMTAP	57	96	6
NMTAP	57	144	1
NMTAP	57	288	2
NMTAP	57	288	6
NMHLD	58	0	0	96
NMTTP	58	48	3	E	0	M1
NMHLD	58	96	6	96
NMTTP	58	144	4	B	0	M1
NMHLD	58	192	2	96
NMTTP	58	240	3	B	0	M1
NMHLD	58	288	4	96
NMTTP	58	336	4	E	0	M1
NMHLD	59	0	3	192
NMTAP	59	192	4
NMTAP	59	240	2
NMTAP	59	240	5
NMTAP	59	264	3
NMTAP	59	264	4
NMSTR	59	288	3
BRSCL	59	288	3	96	48	0
NMSTR	59	288	4
BRSCR	59	288	4	96	48	7
NMTAP	59	336	1
NMTAP	59	336	6
BRTAP	60	0	3
BRTAP	60	0	4
BRTAP	60	96	1
BRTAP	60	96	6
NMSTR	60	192	2
NMSI_	60	192	2	96	48	0
NMTAP	60	192	4
NMTAP	60	240	3
NMTAP	60	288	2
NMSTR	60	288	5
NMSI_	60	288	5	96	48	3
NMTAP	60	336	6
NMSTR	61	0	0
NMSCR	61	0	0	96	48	3
NMTAP	61	0	5
NMTAP	61	48	7
NMTAP	61	96	0
NMSTR	61	96	4
NMSI_	61	96	4	96	48	0
NMSI_	61	96	4	96	48	6
NMTAP	61	144	5
NMTAP	61	192	4
NMSTR	61	288	7
NMSI_	61	288	7	96	48	3
NMTAP	61	336	6
NMSTR	62	0	2
NMSI_	62	0	2	96	48	0
NMTAP	62	0	7
NMTAP	62	48	1
NMTAP	62	96	2
NMSTR	62	96	4
NMSI_	62	96	4	96	48	6
NMTAP	62	144	5
NMSTR	62	192	0
NMSI_	62	192	0	96	48	4
NMTAP	62	192	4
NMTAP	62	240	1
NMTAP	62	288	0
NMSTR	62	288	6
NMSI_	62	288	6	96	48	1
NMTAP	62	336	7
NMSTR	63	0	2
NMSI_	63	0	2	96	48	5
NMTAP	63	48	3
NMTAP	63	96	2
NMSTR	63	96	6
NMSCR	63	96	6	96	48	1
NMTAP	63	144	7
NMTAP	63	192	3
NMTAP	63	240	4
NMSTR	63	288	4
NMSV_	63	288	4	96	48	1
NMSV_	63	288	4	96	48	7
NMTAP	64	96	0
NMHLD	64	144	1	96
NMHLD	64	144	7	96
NMSTR	64	288	0
NMSI_	64	288	0	96	48	2
NMSTR	65	0	0
NMSI_	65	0	0	96	48	6
NMSTR	65	96	0
NMSI_	65	96	0	96	48	3
NMSTR	65	192	0
NMSI_	65	192	0	96	48	5
NMSTR	65	288	0
BRSI_	65	288	0	96	48	4
NMTAP	66	0	0
NMHLD	66	0	5	288
NMHLD	67	0	5	288
NMTAP	68	0	3
NMTAP	68	72	3
NMTAP	68	144	2
NMTAP	68	144	4
NMTTP	68	288	2	A	0	M1
NMTTP	68	304	3	E	0	M1
NMTTP	68	320	4	E	0	M1
NMTTP	68	336	4	A	0	M1
NMTAP	69	0	5
NMTAP	69	72	5
NMTAP	69	144	3
NMTAP	69	144	5
NMTTP	69	288	5	E	0	M1
NMTTP	69	312	4	E	0	M1
NMTTP	69	336	3	E	0	M1
NMTAP	70	0	4
NMTAP	70	72	4
NMTAP	70	144	3
NMTAP	70	144	5
NMTTP	70	288	5	A	0	M1
NMTTP	70	304	5	E	0	M1
NMTTP	70	320	4	E	0	M1
NMTTP	70	336	3	A	0	M1
NMTAP	71	0	2
NMTAP	71	72	2
NMTAP	71	144	2
NMTAP	71	144	4
NMTTP	71	288	3	E	0	M1
NMTTP	71	312	4	E	0	M1
NMTTP	71	336	5	E	0	M1
NMTAP	72	0	3
NMTAP	72	72	3
NMTAP	72	144	2
NMTAP	72	144	4
NMTTP	72	288	2	A	0	M1
NMTTP	72	304	3	E	0	M1
NMTTP	72	320	4	E	0	M1
NMTTP	72	336	4	A	0	M1
NMTAP	73	0	5
NMTAP	73	72	5
NMSTR	73	144	3
NMSUR	73	144	3	96	144	4
NMTAP	73	144	5

T_REC_TAP	292
T_REC_BRK	7
T_REC_XTP	3
T_REC_BXX	1
T_REC_HLD	36
T_REC_XHO	0
T_REC_BHO	1
T_REC_BXH	0
T_REC_STR	90
T_REC_BST	0
T_REC_XST	0
T_REC_XBS	1
T_REC_TTP	80
T_REC_THO	0
T_REC_SLD	89
T_REC_BSL	11
T_REC_ALL	611
T_NUM_TAP	465
T_NUM_BRK	21
T_NUM_HLD	36
T_NUM_SLD	89
T_NUM_ALL	611
T_JUDGE_TAP	474
T_JUDGE_HLD	139
T_JUDGE_SLD	100
T_JUDGE_ALL	713
TTM_EACHPAIRS	86
TTM_SCR_TAP	232500
TTM_SCR_BRK	54600
TTM_SCR_HLD	36000
TTM_SCR_SLD	133500
TTM_SCR_ALL	456600
TTM_SCR_S	440900
TTM_SCR_SS	454500
TTM_RAT_ACV	10046

