VERSION	0.00.00	1.04.00
FES_MODE	0
BPM_DEF	122.000	122.000	122.000	122.000
MET_DEF	4	4
RESOLUTION	384
CLK_DEF	384
COMPATIBLE_CODE	MA2

BPM	0	0	122.000
MET	0	0	4	4

NMTAP	2	0	4
NMTAP	2	0	5
NMTTP	2	96	3	E	0	M1
NMTTP	2	288	4	E	0	M1
NMTAP	3	0	4
NMTAP	3	0	5
NMTTP	3	96	3	E	0	M1
NMTTP	3	288	2	E	0	M1
NMTAP	4	0	2
NMTAP	4	0	3
NMTTP	4	96	5	E	0	M1
NMTTP	4	288	4	E	0	M1
NMTAP	5	0	2
NMTAP	5	0	3
NMTTP	5	96	5	E	0	M1
NMTTP	5	288	4	B	0	M1
NMTAP	6	0	3
NMTAP	6	0	5
NMTTP	6	96	2	B	0	M1
NMTTP	6	288	4	B	0	M1
NMTAP	7	0	3
NMTAP	7	0	5
NMTTP	7	96	2	B	0	M1
NMTTP	7	288	3	B	0	M1
NMTAP	8	0	2
NMTAP	8	0	4
NMTTP	8	96	5	B	0	M1
NMTTP	8	288	3	B	0	M1
NMTAP	9	0	2
NMTAP	9	0	4
NMTTP	9	96	5	B	0	M1
NMTTP	9	288	6	B	0	M1
NMTAP	10	0	4
NMTAP	10	0	5
NMTAP	10	96	6
NMTAP	10	192	4
NMTAP	10	192	5
NMTAP	10	288	6
NMTAP	11	0	0
NMTAP	11	0	7
NMTAP	11	96	6
EXTAP	11	192	7
EXTAP	11	240	7
EXTAP	11	288	0
NMTAP	12	0	0
NMTAP	12	0	1
NMTAP	12	96	2
NMTAP	12	192	0
NMTAP	12	192	1
NMTAP	12	288	2
NMTAP	13	0	3
NMTAP	13	0	4
NMTAP	13	96	2
EXTAP	13	192	3
EXTAP	13	240	3
EXTAP	13	288	4
NMTAP	14	0	4
NMTAP	14	0	5
NMTAP	14	96	6
NMTAP	14	192	4
NMTAP	14	192	5
NMTAP	14	288	6
NMTAP	15	0	0
NMTAP	15	0	7
NMTAP	15	96	6
EXTAP	15	192	7
EXTAP	15	240	7
EXTAP	15	288	0
NMTAP	16	0	0
NMTAP	16	0	1
NMTAP	16	96	2
NMTAP	16	192	0
NMTAP	16	192	1
NMTAP	16	288	2
NMTAP	17	0	3
NMTAP	17	0	4
NMTAP	17	96	2
EXTAP	17	192	3
EXTAP	17	240	3
EXTAP	17	288	4
NMHLD	18	0	4	192
NMHLD	18	192	5	192
NMTAP	19	0	6
EXTAP	19	144	7
EXTAP	19	192	7
NMSTR	19	288	6
NMSI_	19	288	6	96	192	2
NMHLD	20	0	1	192
NMTAP	20	288	1
NMTAP	20	288	3
BXHLD	21	0	0	96
BXHLD	21	0	2	96
BXHLD	21	192	1	96
BXHLD	21	192	7	96
NMTAP	22	0	0
NMTAP	22	48	0
NMHLD	22	96	0	96
NMTAP	22	192	7
NMTAP	22	288	2
NMTAP	22	336	2
NMTAP	23	0	1
NMTAP	23	0	3
NMTAP	23	96	2
NMTAP	23	96	4
NMTAP	23	192	1
NMTAP	23	192	5
NMTAP	23	288	6
NMTAP	24	0	0
NMSTR	24	0	7
NMSI_	24	0	7	96	96	4
NMTAP	24	192	3
NMTAP	24	240	3
NMHLD	24	288	5	96
NMTAP	25	0	4
EXTAP	25	96	2
EXTAP	25	96	6
EXTAP	25	144	2
EXTAP	25	144	6
EXTAP	25	240	7
EXTAP	25	288	7
EXHLD	25	336	7	192
NMTAP	26	48	5
NMTAP	26	96	5
NMTAP	26	144	5
EXTAP	26	240	0
EXTAP	26	288	0
EXHLD	26	336	0	192
NMTAP	27	48	2
NMTAP	27	96	2
NMTAP	27	144	2
EXTAP	27	240	4
EXTAP	27	288	4
NMTAP	28	0	2
NMTAP	28	0	3
NMTAP	28	96	5
NMTAP	28	96	6
NMHLD	28	192	0	48
NMHLD	28	192	1	48
EXTAP	28	288	0
EXTAP	28	288	1
BRTAP	29	0	3
BRTAP	29	0	6
NMTAP	29	192	4
NMTAP	29	192	5
NMTAP	29	288	5
NMTAP	29	288	6
NMTAP	30	0	7
NMTAP	30	48	7
NMHLD	30	96	7	96
NMTAP	30	192	0
NMTAP	30	288	5
NMTAP	30	336	5
NMTAP	31	0	4
NMTAP	31	0	6
NMTAP	31	96	3
NMTAP	31	96	7
NMTAP	31	192	0
NMTAP	31	192	2
NMTAP	31	288	1
NMSTR	32	0	0
NMSCR	32	0	0	96	96	3
NMTAP	32	0	7
NMTAP	32	192	4
NMTAP	32	240	4
EXTAP	32	288	3
EXHLD	32	336	3	96
NMTAP	33	48	4
NMTAP	33	96	4
EXTAP	33	144	2
EXTAP	33	240	2
EXTAP	33	240	3
NMTAP	33	288	1
NMHLD	33	336	0	96
NMTAP	34	48	7
NMTAP	34	96	7
NMTAP	34	144	0
NMTAP	34	144	6
NMTAP	34	288	3
NMTAP	34	288	4
NMHLD	35	0	2	96
NMHLD	35	96	7	96
NMHLD	35	192	0	96
NMHLD	35	288	5	96
NMTTP	36	0	0	C	1	M1
EXTAP	37	0	3
EXTAP	37	72	3
NMTAP	37	144	4
NMTAP	37	192	4
EXTAP	38	0	4
EXTAP	38	72	4
NMTAP	38	144	3
NMTAP	38	192	3
EXTAP	39	0	3
EXTAP	39	72	3
NMTAP	39	144	4
NMHLD	39	192	4	96
EXTAP	40	0	3
EXTAP	40	72	3
NMTAP	40	144	2
NMTAP	40	192	2
NMTAP	40	192	3
NMTAP	40	288	3
EXTAP	41	0	4
EXTAP	41	72	4
NMTAP	41	144	5
NMTAP	41	192	4
NMTAP	41	192	5
NMTAP	41	288	4
EXTAP	42	0	3
EXTAP	42	72	3
NMTAP	42	144	2
NMTAP	42	144	4
NMTAP	42	192	2
NMTAP	42	192	4
NMTAP	42	288	3
NMTAP	42	288	5
EXTAP	43	0	4
EXTAP	43	72	4
NMTAP	43	144	3
NMTAP	43	144	5
NMTAP	43	192	3
NMTAP	43	192	5
NMTAP	43	288	2
NMTAP	43	288	4
NMTAP	44	0	0
NMTAP	44	48	0
NMHLD	44	96	7	96
NMHLD	44	192	6	96
NMHLD	44	288	5	96
NMHLD	45	0	4	96
NMTAP	45	96	5
NMTAP	45	192	4
NMTAP	45	192	6
NMTAP	45	288	3
NMTAP	45	336	3
NMTAP	46	0	4
NMTAP	46	48	4
NMHLD	46	96	3	96
NMHLD	46	192	2	96
NMHLD	46	288	1	96
NMHLD	47	0	0	96
NMTAP	47	96	1
NMTAP	47	192	0
NMTAP	47	192	2
NMTAP	47	288	3
NMTAP	47	336	3
NMHLD	48	0	3	192
NMHLD	48	192	2	192
NMTAP	49	0	1
NMTAP	49	144	0
NMTAP	49	192	0
NMSTR	49	288	1
NMSI_	49	288	1	96	192	5
NMTAP	50	0	6
NMTAP	50	96	6
NMTAP	50	192	6
NMTAP	50	288	4
NMTAP	50	288	6
BRHLD	51	0	5	48
BRHLD	51	0	7	48
EXTAP	51	96	5
EXTAP	51	96	7
BRHLD	51	192	0	48
BRHLD	51	192	6	48
EXTAP	51	288	0
EXTAP	51	288	6
NMTAP	52	0	7
NMTAP	52	48	7
NMHLD	52	96	7	96
NMTAP	52	192	0
NMTAP	52	288	5
NMTAP	52	336	5
NMTAP	53	0	4
NMTAP	53	0	6
NMTAP	53	96	3
NMTAP	53	96	5
NMTAP	53	192	2
NMTAP	53	192	6
NMTAP	53	288	1
NMTAP	53	336	1
NMSTR	54	0	0
NMSI_	54	0	0	96	96	3
NMTAP	54	0	7
NMTAP	54	192	4
NMTAP	54	240	4
NMHLD	54	288	2	96
NMTAP	55	0	3
NMTAP	55	96	1
NMTAP	55	96	5
NMTAP	55	144	1
NMTAP	55	144	5
NMTAP	55	240	0
NMTAP	55	288	0
NMHLD	55	336	0	192
NMTAP	56	48	2
NMTAP	56	96	2
BRTAP	56	144	3
NMTAP	56	240	7
NMTAP	56	288	7
NMHLD	56	336	7	192
NMTAP	57	48	5
NMTAP	57	96	5
BRTAP	57	144	4
NMTAP	57	240	3
NMTAP	57	288	3
NMTAP	58	0	4
NMTAP	58	0	5
NMTAP	58	96	1
NMTAP	58	96	2
NMHLD	58	192	6	48
NMHLD	58	192	7	48
NMTAP	58	288	6
NMTAP	58	288	7
NMHLD	59	0	4	192
NMTAP	59	192	2
NMTAP	59	240	2
NMTAP	59	288	1
NMTAP	59	288	3
BRHLD	60	0	0	48
BRHLD	60	0	6	48
NMTAP	60	96	0
NMTAP	60	96	6
NMHLD	60	192	4	96
NMTAP	60	288	2
NMTAP	60	336	2
NMTAP	61	0	1
NMTAP	61	0	3
NMTAP	61	96	0
NMTAP	61	96	4
NMTAP	61	192	5
NMTAP	61	192	7
NMTAP	61	288	6
NMTAP	61	336	6
NMTAP	62	0	0
NMSTR	62	0	7
NMSCL	62	0	7	96	96	4
NMTAP	62	192	3
NMTAP	62	240	3
EXTAP	62	288	4
EXHLD	62	336	4	96
NMTAP	63	48	3
NMTAP	63	96	3
EXTAP	63	144	5
NMTAP	63	240	4
NMTAP	63	240	5
NMTAP	63	288	6
NMHLD	63	336	7	96
NMTAP	64	48	0
NMTAP	64	96	0
NMTAP	64	144	1
NMTAP	64	144	7
NMTAP	64	288	3
NMTAP	64	288	4
NMHLD	65	0	5	96
NMHLD	65	96	0	96
NMHLD	65	192	7	96
NMHLD	65	288	2	96
NMTTP	66	0	0	C	0	M1
NMTAP	66	288	0
NMTAP	66	288	1
NMTAP	67	0	0
NMTAP	67	0	7
NMTAP	67	144	7
NMHLD	67	192	7	96
NMSTR	67	288	0
NMSCR	67	288	0	96	192	5
NMTAP	68	336	6
NMHLD	69	0	6	288
NMTAP	69	288	3
NMHLD	70	0	3	192
NMTAP	70	192	4
NMTAP	70	288	2
NMTAP	71	0	1
NMTAP	71	0	3
NMTAP	71	144	0
NMHLD	71	192	0	96
NMSTR	71	288	7
NMSCL	71	288	7	96	192	2
NMTAP	72	336	1
NMTAP	73	0	1
NMTTP	73	288	1	B	0	M1
NMTTP	73	312	0	C	0	M1
NMTTP	73	336	5	B	0	M1

T_REC_TAP	237
T_REC_BRK	4
T_REC_XTP	50
T_REC_BXX	0
T_REC_HLD	41
T_REC_XHO	4
T_REC_BHO	6
T_REC_BXH	4
T_REC_STR	8
T_REC_BST	0
T_REC_XST	0
T_REC_XBS	0
T_REC_TTP	21
T_REC_THO	0
T_REC_SLD	8
T_REC_BSL	0
T_REC_ALL	383
T_NUM_TAP	316
T_NUM_BRK	14
T_NUM_HLD	45
T_NUM_SLD	8
T_NUM_ALL	383
T_JUDGE_TAP	320
T_JUDGE_HLD	126
T_JUDGE_SLD	8
T_JUDGE_ALL	454
TTM_EACHPAIRS	81
TTM_SCR_TAP	158000
TTM_SCR_BRK	36400
TTM_SCR_HLD	45000
TTM_SCR_SLD	12000
TTM_SCR_ALL	251400
TTM_SCR_S	242500
TTM_SCR_SS	250000
TTM_RAT_ACV	10056

