VERSION	0.00.00	1.04.00
FES_MODE	0
BPM_DEF	155.000	155.000	180.000	155.000
MET_DEF	4	4
RESOLUTION	384
CLK_DEF	384
COMPATIBLE_CODE	MA2

BPM	0	0	155.000
BPM	42	0	155.000
BPM	43	0	160.000
BPM	44	0	165.000
BPM	45	0	170.000
BPM	46	0	172.000
BPM	46	192	174.000
BPM	47	0	176.000
BPM	47	192	178.000
BPM	48	0	180.000
MET	0	0	4	4

NMTHO	1	0	0	288	C	1	M1
BRSTR	2	0	1
NMSI_	2	0	1	96	48	3
BRTAP	2	0	7
NMTAP	2	96	0
NMSTR	2	144	0
NMSI_	2	144	0	96	48	4
CNSI_	2	144	3	0	48	7
NMTAP	2	240	1
NMSTR	2	288	1
NMSI_	2	288	1	96	48	3
CNSI_	2	288	4	0	48	6
NMTAP	3	0	0
NMSTR	3	48	0
NMSI_	3	48	0	96	48	4
CNSI_	3	48	3	0	48	7
NMTAP	3	144	1
NMSTR	3	192	1
NMSI_	3	192	1	96	48	3
NMSI_	3	192	1	96	48	7
CNSI_	3	192	4	0	48	6
NMTAP	3	288	1
BRTAP	4	0	0
BRSTR	4	0	6
NMSI_	4	0	6	96	48	4
NMTAP	4	96	7
CNSI_	4	144	4	0	48	0
NMSTR	4	144	7
NMSI_	4	144	7	96	48	3
NMTAP	4	240	6
CNSI_	4	288	3	0	48	1
NMSTR	4	288	6
NMSI_	4	288	6	96	48	4
NMTAP	5	0	7
CNSI_	5	48	4	0	48	0
NMSTR	5	48	7
NMSI_	5	48	7	96	48	3
NMTAP	5	144	6
CNSI_	5	192	3	0	48	1
NMSTR	5	192	6
NMSI_	5	192	6	96	48	0
NMSI_	5	192	6	96	48	4
NMTAP	5	288	6
EXTAP	6	0	2
EXTAP	6	0	3
NMTAP	6	48	2
NMTAP	6	96	1
NMTAP	6	96	3
NMTAP	6	144	1
NMTAP	6	192	0
NMTAP	6	192	3
NMTAP	6	240	0
NMTAP	6	288	3
NMTAP	6	288	7
NMTAP	6	336	7
NMTAP	7	0	4
NMTAP	7	0	6
NMTAP	7	48	6
NMTAP	7	96	4
NMTAP	7	96	5
NMTAP	7	144	5
NMTAP	7	192	3
NMTAP	7	192	4
NMTAP	7	240	3
NMTAP	7	288	2
NMTAP	7	288	5
NMTAP	7	336	2
NMTAP	7	336	5
NMTAP	8	0	3
NMTAP	8	24	4
NMTAP	8	48	3
NMTAP	8	72	4
NMTAP	8	96	3
NMTAP	8	112	4
NMTAP	8	128	3
NMTAP	8	144	4
NMTAP	8	160	3
NMTAP	8	176	4
NMTAP	8	192	3
NMTAP	8	208	4
NMTAP	8	224	3
NMTAP	8	240	4
NMTAP	8	256	3
NMTAP	8	272	4
NMSTR	8	288	3
NMSI_	8	288	3	96	48	0
BXSTR	9	0	3
NMSI_	9	0	3	96	48	6
BXHLD	9	0	4	48
BXHLD	9	96	2	48
BXSTR	9	96	3
NMSF_	9	96	3	96	48	7
BXTAP	9	192	3
NMTAP	9	288	1
NMTAP	9	288	5
EXHLD	10	0	0	48
EXHLD	10	0	7	48
NMTAP	10	96	6
NMTAP	10	128	3
NMTAP	10	144	5
NMTAP	10	176	2
NMTAP	10	192	4
NMTAP	10	224	1
NMTAP	10	240	3
NMTAP	10	272	2
NMTAP	10	288	4
NMTAP	10	320	3
NMTAP	10	336	5
NMTAP	10	368	4
NMHLD	11	0	6	48
NMHLD	11	48	3	48
NMTAP	11	96	0
NMTAP	11	128	1
NMTAP	11	144	7
NMSTR	11	192	2
NMSCR	11	192	2	96	48	5
NMSTR	11	192	6
NMSUL	11	192	6	96	48	1
NMTTP	11	240	0	C	0	M1
EXTAP	12	0	0
EXTAP	12	0	7
NMTAP	12	96	1
NMTAP	12	128	4
NMTAP	12	144	2
NMTAP	12	176	5
NMTAP	12	192	3
NMTAP	12	224	6
NMTAP	12	240	4
NMTAP	12	272	5
NMTAP	12	288	3
NMTAP	12	320	4
NMTAP	12	336	2
NMTAP	12	368	3
NMTAP	13	0	1
NMTAP	13	32	4
NMTAP	13	48	2
NMTAP	13	80	6
NMTAP	13	96	0
NMTAP	13	128	5
NMTAP	13	144	1
NMTAP	13	176	7
NMSTR	13	192	0
NMSV_	13	192	0	96	48	3
NMSV_	13	192	0	96	48	5
NMTTP	13	224	7	B	0	M1
NMTTP	13	240	1	B	0	M1
EXTAP	14	0	3
EXTAP	14	0	5
EXTAP	14	48	2
EXTAP	14	48	5
EXTAP	14	96	1
EXTAP	14	96	5
NMTAP	14	128	0
NMTAP	14	144	6
NMTAP	14	176	1
NMTAP	14	192	7
NMTAP	14	224	2
NMTAP	14	240	0
NMTAP	14	272	1
NMTAP	14	288	7
NMTAP	14	320	0
NMTAP	14	336	6
NMTAP	14	368	7
NMHLD	15	0	5	48
NMHLD	15	48	0	48
NMTAP	15	96	3
NMTAP	15	128	2
NMTAP	15	144	4
NMSTR	15	192	1
NMSCL	15	192	1	96	48	6
NMSTR	15	192	5
NMSUR	15	192	5	96	48	2
NMTTP	15	240	0	C	0	M1
BXTAP	16	0	3
BXTAP	16	0	4
NMTAP	16	96	2
NMTAP	16	128	7
NMTAP	16	144	1
NMTAP	16	176	6
NMTAP	16	192	0
NMTAP	16	224	5
NMTAP	16	240	7
NMTAP	16	272	6
NMTAP	16	288	0
NMTAP	16	320	7
NMTAP	16	336	1
NMTAP	16	368	0
NMSTR	17	0	2
NMSI_	17	0	2	96	48	7
NMTAP	17	48	3
NMSTR	17	96	4
NMSI_	17	96	4	96	48	7
NMTAP	17	144	5
NMSTR	17	192	0
NMSI_	17	192	0	96	48	4
NMTAP	17	240	1
NMTAP	17	288	6
NMTAP	17	336	5
BXTAP	18	0	1
BXTAP	18	0	7
EXHLD	18	96	0	48
NMTAP	18	96	7
NMTAP	18	112	6
NMTAP	18	128	5
EXHLD	18	192	0	48
NMTAP	18	192	1
NMTAP	18	208	2
NMTAP	18	224	3
EXHLD	18	288	0	48
NMTAP	18	288	7
NMTAP	18	304	6
NMTAP	18	320	5
EXHLD	19	0	0	48
NMTAP	19	0	2
NMTAP	19	16	3
NMTAP	19	32	4
EXHLD	19	96	0	48
NMTAP	19	96	6
NMTAP	19	112	5
NMTAP	19	128	4
NMSTR	19	192	0
NMSSL	19	192	0	96	96	4
NMSSR	19	192	0	96	96	4
NMTAP	19	192	2
NMTAP	19	208	3
NMTAP	19	224	4
CNSCL	20	0	4	0	48	1
CNSCR	20	0	4	0	48	7
NMTTP	20	96	0	C	0	M1
NMTTP	20	96	3	B	0	M1
NMTTP	20	96	6	B	0	M1
NMTAP	20	192	0
NMTAP	20	192	1
NMTAP	20	240	2
NMTAP	20	288	1
NMTAP	20	288	7
NMTAP	20	336	6
NMTAP	21	0	0
EXHLD	21	0	7	48
NMTAP	21	16	1
NMTAP	21	32	2
NMTAP	21	96	6
EXHLD	21	96	7	48
NMTAP	21	112	5
NMTAP	21	128	4
NMTAP	21	192	0
EXSTR	21	192	7
NMSF_	21	192	7	96	48	3
NMTAP	21	208	1
NMTAP	21	224	2
EXTAP	21	288	7
BXTAP	22	0	1
BXTAP	22	0	5
NMHLD	22	96	2	48
BXHLD	22	96	3	48
BXHLD	22	192	3	48
NMHLD	22	192	5	48
NMHLD	22	288	1	48
BXHLD	22	288	3	48
BXHLD	23	0	3	48
NMHLD	23	0	6	48
NMHLD	23	96	0	48
BXHLD	23	96	3	48
BXSTR	23	192	3
NMSI_	23	192	3	96	48	0
BRSTR	23	192	7
NMSSR	23	192	7	96	48	3
NMTAP	24	0	1
NMTAP	24	48	2
NMTAP	24	48	4
NMTAP	24	96	6
NMTAP	24	144	3
NMTAP	24	144	5
NMTAP	24	192	1
NMTAP	24	240	2
NMTAP	24	240	4
NMSTR	24	288	1
NMSLL	24	288	1	96	144	2
NMSTR	24	288	5
NMSLL	24	288	5	96	144	6
NMTAP	24	336	1
NMTAP	24	336	5
NMSTR	25	192	4
BRSI_	25	192	4	96	48	7
BRSV_	25	192	4	96	48	1
NMTAP	25	240	3
NMTAP	25	240	5
BRTAP	25	288	4
NMSTR	26	0	2
NMSLL	26	0	2	96	48	6
NMTAP	26	0	6
NMTAP	26	48	3
NMTAP	26	80	4
NMTAP	26	96	2
NMTAP	26	144	5
NMSTR	26	192	4
NMSI_	26	192	4	96	48	0
NMTAP	26	192	7
NMTAP	26	240	0
NMTAP	26	288	2
NMTAP	26	288	4
NMTAP	26	336	3
NMSTR	27	0	2
NMSLL	27	0	2	96	48	6
NMTAP	27	0	6
NMTAP	27	48	3
NMTAP	27	80	4
NMTAP	27	96	2
NMTAP	27	144	5
NMTAP	27	160	4
NMTAP	27	176	3
NMTAP	27	192	2
NMTAP	27	240	7
NMTAP	27	288	0
NMTAP	27	288	6
NMTAP	27	336	5
NMSTR	28	0	0
NMSI_	28	0	0	96	48	4
NMTAP	28	0	4
NMTAP	28	48	1
NMTAP	28	80	3
NMSTR	28	96	0
NMSCL	28	96	0	96	48	5
NMTAP	28	144	6
NMTAP	28	192	0
NMSTR	28	192	2
NMSI_	28	192	2	96	48	5
NMTAP	28	240	1
NMTAP	28	288	2
NMTAP	28	288	7
NMTAP	28	336	6
BXTAP	29	0	5
BXTAP	29	0	7
BXTAP	29	72	0
BXTAP	29	72	2
BXSTR	29	144	3
NMSV_	29	144	3	96	48	1
BXSTR	29	144	4
NMSV_	29	144	4	96	48	6
BXSTR	29	192	1
NMSI_	29	192	1	96	48	5
BXSTR	29	192	6
NMSI_	29	192	6	96	48	2
NMTAP	30	0	0
NMSTR	30	0	4
NMSLR	30	0	4	96	48	0
NMTAP	30	48	3
NMTAP	30	80	2
NMTAP	30	96	4
NMTAP	30	144	1
EXTAP	30	192	0
NMSTR	30	192	3
NMSI_	30	192	3	96	48	7
NMTAP	30	240	7
NMTAP	30	288	3
NMTAP	30	288	5
NMTAP	30	336	4
NMTAP	31	0	1
NMSTR	31	0	5
NMSLR	31	0	5	96	48	1
NMTAP	31	48	4
NMTAP	31	80	3
NMTAP	31	96	5
NMTAP	31	144	2
NMTAP	31	160	3
NMTAP	31	176	4
NMTAP	31	192	5
NMTAP	31	240	0
NMTAP	31	288	1
NMTAP	31	288	7
NMTAP	31	336	3
NMTAP	31	336	5
BXHLD	32	0	2	96
BXHLD	32	0	6	96
NMTAP	32	144	2
NMTAP	32	144	6
NMTAP	32	160	1
NMTAP	32	160	5
NMTAP	32	176	0
NMTAP	32	176	4
BXSTR	32	192	3
BRSLR	32	192	3	96	48	7
BXSTR	32	192	7
BRSLR	32	192	7	96	48	3
NMTHO	33	0	0	192	C	0	M1
EXTAP	33	192	7
EXTAP	33	240	0
BRTAP	33	288	1
BRTAP	33	288	6
NMHLD	34	0	2	96
NMTAP	34	96	3
NMTAP	34	144	4
NMHLD	34	192	5	96
NMTAP	34	240	3
NMSTR	34	288	4
NMSCR	34	288	4	96	192	3
EXSTR	35	0	7
NMSSR	35	0	7	96	96	3
EXTAP	35	288	3
EXTAP	35	288	4
NMHLD	36	0	5	96
NMTAP	36	96	4
NMTAP	36	144	3
NMHLD	36	192	2	96
NMTAP	36	240	1
NMSTR	36	288	0
NMSI_	36	288	0	96	48	6
NMHLD	37	0	3	288
CNSI_	37	48	6	0	48	1
CNSI_	37	96	1	0	48	5
CNSI_	37	144	5	0	48	2
CNSI_	37	192	2	0	48	4
EXTAP	37	288	4
EXTAP	37	336	4
NMHLD	38	0	1	96
NMTAP	38	96	2
NMTAP	38	144	3
NMHLD	38	192	4	96
NMTAP	38	240	5
NMSTR	38	288	6
NMSXL	38	288	6	96	144	3
CNSCL	39	144	3	0	144	0
EXSTR	39	144	5
NMSUL	39	144	5	96	48	0
NMHLD	40	0	6	96
NMTAP	40	96	5
NMTAP	40	144	4
NMHLD	40	192	3	96
NMTAP	40	240	2
NMSTR	40	288	1
NMSUL	40	288	1	96	192	6
NMTTP	41	96	3	E	0	M1
NMTTP	41	144	4	E	0	M1
NMTTP	41	192	5	E	0	M1
EXTAP	41	288	0
EXTAP	41	288	7
NMSTR	42	0	1
NMSI_	42	0	1	96	48	5
NMTAP	42	48	1
NMTAP	42	96	2
NMTAP	42	144	3
NMSTR	42	192	4
NMSI_	42	192	4	96	48	0
NMTAP	42	240	4
NMTAP	42	288	5
NMTAP	42	336	6
NMSTR	43	0	7
NMSI_	43	0	7	96	48	3
NMTAP	43	48	7
NMTAP	43	96	0
NMTAP	43	144	1
NMSTR	43	192	2
NMSI_	43	192	2	96	48	5
NMSI_	43	192	2	96	48	7
NMTAP	43	240	2
NMSTR	44	0	6
NMSI_	44	0	6	96	48	2
NMTAP	44	48	6
NMTAP	44	96	5
NMTAP	44	144	4
NMSTR	44	192	3
NMSI_	44	192	3	96	48	7
NMTAP	44	240	3
NMTAP	44	288	2
NMTAP	44	336	1
NMSTR	45	0	0
NMSI_	45	0	0	96	48	4
NMTAP	45	48	0
NMTAP	45	96	7
NMTAP	45	144	6
NMTTP	45	192	6	E	0	M1
NMTTP	45	216	7	E	0	M1
NMTTP	45	240	0	E	0	M1
NMTTP	45	264	1	E	0	M1
NMTTP	45	288	2	E	0	M1
NMTTP	45	312	3	E	0	M1
NMTTP	45	336	4	E	0	M1
EXSTR	46	0	0
NMSI_	46	0	0	96	48	4
NMTAP	46	48	0
NMSTR	46	96	1
NMSI_	46	96	1	96	48	5
NMTAP	46	144	1
NMSTR	46	192	2
NMSI_	46	192	2	96	48	6
NMTAP	46	240	2
NMSTR	46	288	3
NMSI_	46	288	3	96	48	7
NMTAP	46	336	3
NMSTR	47	0	4
NMSI_	47	0	4	96	48	0
NMTAP	47	48	4
NMSTR	47	96	5
NMSI_	47	96	5	96	48	1
NMTAP	47	144	5
NMSTR	47	192	6
NMSI_	47	192	6	96	48	2
NMTAP	47	240	6
NMTAP	47	288	7
NMTAP	47	336	7
BXTAP	48	0	0
NMTAP	48	48	0
BXTAP	48	96	1
NMTAP	48	120	7
BXTAP	48	144	1
NMTAP	48	168	7
NMTAP	48	192	2
NMTAP	48	216	6
BXTAP	48	240	2
NMTAP	48	264	6
BXTAP	48	288	3
NMTAP	48	312	5
NMTAP	48	336	3
NMTAP	48	360	5
BXTAP	49	0	3
NMTAP	49	12	2
NMTAP	49	24	1
NMTAP	49	36	0
NMTAP	49	48	7
NMTAP	49	60	6
NMTAP	49	72	5
NMTAP	49	84	4
BXSTR	49	96	3
NMSF_	49	96	3	96	48	7
NMTAP	49	108	2
NMTAP	49	120	1
NMTAP	49	132	0
NMTAP	49	144	7
NMTAP	49	156	6
NMTAP	49	168	5
NMTAP	49	180	4
BXTAP	49	192	3
NMTTP	49	204	3	B	0	M1
NMTTP	49	216	0	C	1	M1
NMTTP	49	228	7	B	0	M1
NMSTR	50	0	0
NMSSL	50	0	0	96	480	4
NMHLD	50	0	7	360
BRTAP	52	0	1
BXTAP	52	0	5
NMTAP	52	48	2
BXTAP	52	96	2
BRTAP	52	96	6
NMTAP	52	144	5
BRTAP	52	192	1
BXTAP	52	192	5
NMTAP	52	240	3
BXTAP	52	288	2
BRTAP	52	288	6
NMTAP	52	336	4
BRTAP	53	0	0
BXTAP	53	0	7
BXTAP	53	48	2
BRTAP	53	48	5
BRSTR	53	96	1
NMSLR	53	96	1	96	96	0
BXSTR	53	96	6
NMSLL	53	96	6	96	96	7
BXTAP	53	144	3
BRTAP	53	144	4
BRTAP	53	192	1
BXTAP	53	192	6
BXHLD	54	0	1	96
BRTAP	54	0	6
NMTAP	54	96	7
NMTAP	54	144	3
NMTAP	54	144	6
NMSTR	54	192	5
NMSCR	54	192	5	96	48	0
NMTAP	54	216	4
NMTAP	54	264	4
NMSTR	54	288	5
NMSI_	54	288	5	96	48	3
NMTAP	54	336	2
NMTAP	55	0	5
NMTAP	55	48	1
NMTAP	55	96	7
NMTAP	55	144	2
NMTAP	55	144	7
NMSTR	55	192	1
NMSI_	55	192	1	96	48	3
NMTAP	55	216	0
NMTAP	55	264	0
NMTAP	55	288	1
NMTAP	55	336	7
BRTAP	56	0	1
BXHLD	56	0	5	96
NMTAP	56	96	3
NMTAP	56	144	2
NMTAP	56	144	4
NMSTR	56	192	1
NMSCR	56	192	1	96	48	4
NMTAP	56	216	0
NMTAP	56	264	0
NMTAP	56	288	1
NMTAP	56	336	6
NMTAP	57	0	6
NMTAP	57	24	4
NMTAP	57	72	4
NMTAP	57	96	5
NMHLD	57	120	3	72
NMTAP	57	168	4
NMTAP	57	192	4
NMTAP	57	240	1
NMTAP	57	264	0
NMTAP	57	288	1
NMTAP	57	336	1
NMTAP	57	336	7
BXTAP	58	0	2
BRTAP	58	0	6
BRTAP	58	48	3
BXTAP	58	48	5
BXHLD	58	96	1	96
BRTAP	58	96	7
NMSTR	58	192	3
NMSCR	58	192	3	96	48	6
NMTAP	58	216	2
NMTAP	58	264	2
NMSTR	58	288	3
NMSI_	58	288	3	96	48	0
NMTAP	58	336	1
NMTAP	59	0	7
NMTAP	59	48	6
NMTAP	59	96	1
NMTAP	59	96	5
NMTAP	59	144	2
NMTAP	59	144	4
NMSTR	59	192	5
NMSI_	59	192	5	96	48	7
NMTAP	59	216	4
NMTAP	59	264	4
NMSTR	59	288	5
NMSI_	59	288	5	96	48	2
NMTAP	59	336	0
BXHLD	60	0	1	96
NMTAP	60	0	5
NMTAP	60	96	0
NMTAP	60	120	1
NMTAP	60	144	0
NMTAP	60	168	1
NMTAP	60	192	4
NMTAP	60	216	3
NMTAP	60	240	4
NMTAP	60	264	3
NMTAP	60	288	6
NMTAP	60	312	7
NMTAP	60	336	6
NMTAP	60	360	7
NMSTR	61	0	5
NMSI_	61	0	5	96	48	0
NMSTR	61	96	3
NMSI_	61	96	3	96	48	0
NMTAP	61	96	5
NMTAP	61	192	3
NMSTR	61	192	7
NMSI_	61	192	7	96	48	3
NMTAP	61	288	1
NMTAP	61	288	7
BRTAP	62	0	0
BRTAP	62	0	6
EXHLD	62	96	0	48
NMTAP	62	96	7
NMTAP	62	108	6
NMTAP	62	120	5
EXHLD	62	192	0	48
NMTAP	62	192	1
NMTAP	62	204	2
NMTAP	62	216	3
EXHLD	62	288	0	48
NMTAP	62	288	6
NMTAP	62	300	5
NMTAP	62	312	4
EXHLD	63	0	0	48
NMTAP	63	0	2
NMTAP	63	12	3
NMTAP	63	24	4
EXHLD	63	96	0	48
NMTAP	63	96	6
NMTAP	63	108	5
NMTAP	63	120	4
EXSTR	63	192	0
NMSSL	63	192	0	96	96	4
NMSSR	63	192	0	96	96	4
NMTAP	63	192	3
NMTAP	63	204	4
NMTAP	63	216	5
CNSCL	64	0	4	0	24	3
CNSCR	64	0	4	0	24	5
CNSI_	64	24	3	0	24	1
CNSI_	64	24	5	0	24	7
NMTTP	64	96	0	C	0	M1
NMTTP	64	96	3	B	0	M1
NMTTP	64	96	4	B	0	M1
NMTTP	64	96	5	B	0	M1
NMTTP	64	96	5	E	0	M1
NMTTP	64	96	6	B	0	M1
NMTAP	64	192	0
NMTAP	64	192	1
NMTAP	64	240	2
NMTAP	64	288	1
NMTAP	64	288	7
NMTAP	64	336	6
NMTAP	65	0	0
EXHLD	65	0	7	48
NMTAP	65	12	1
NMTAP	65	24	2
NMTAP	65	96	6
EXHLD	65	96	7	48
NMTAP	65	108	5
NMTAP	65	120	4
NMTAP	65	192	1
EXSTR	65	192	7
NMSF_	65	192	7	96	48	3
NMTAP	65	204	2
NMTAP	65	216	3
EXTAP	65	288	7
BRTAP	66	0	1
BRTAP	66	0	5
NMHLD	66	96	2	48
BXHLD	66	96	3	48
BXHLD	66	192	3	48
NMHLD	66	192	5	48
NMHLD	66	288	1	48
BXHLD	66	288	3	48
BXHLD	67	0	3	48
NMHLD	67	0	6	48
NMHLD	67	96	0	48
BXHLD	67	96	3	48
BXSTR	67	192	3
NMSF_	67	192	3	96	48	7
BRTAP	67	192	7
NMTAP	68	0	1
NMTAP	68	0	5
NMTAP	68	48	1
NMTAP	68	96	2
NMTAP	68	96	4
NMTAP	68	144	2
NMTAP	68	192	3
NMTAP	68	192	5
NMTAP	68	240	5
NMTAP	68	288	2
NMTAP	68	288	6
NMTAP	68	336	2
NMTAP	69	0	1
NMTAP	69	0	3
NMTAP	69	48	2
NMTAP	69	48	4
NMTAP	69	96	3
NMTAP	69	96	5
NMTAP	69	144	4
NMTAP	69	144	6
NMTAP	69	192	7
NMTAP	69	216	3
NMTAP	69	240	7
NMTAP	69	264	3
NMTAP	69	288	7
NMTAP	69	312	3
NMTAP	69	336	7
NMTAP	69	360	3
NMTTP	70	0	0	C	0	M1
NMTTP	70	0	2	B	1	M1
NMTTP	70	0	2	A	0	M1
BRTAP	70	0	6
NMTTP	70	192	0	B	1	M1
NMTTP	70	192	0	C	0	M1
NMTTP	70	192	0	A	0	M1
BRTAP	70	192	4
NMTTP	71	0	0	C	0	M1
BRTAP	71	0	2
NMTTP	71	0	6	B	1	M1
NMTTP	71	0	6	A	0	M1
BRTAP	71	192	0
NMTTP	71	192	0	C	0	M1
NMTTP	71	192	4	B	1	M1
NMTTP	71	192	4	A	0	M1
NMTAP	72	0	0
NMTAP	72	0	6
NMTAP	72	48	5
NMTAP	72	96	1
NMTAP	72	96	7
NMTAP	72	144	2
NMTAP	72	192	0
NMTAP	72	192	6
NMTAP	72	240	4
NMTAP	72	288	1
NMTAP	72	288	7
NMTAP	72	336	3
BRTAP	73	0	0
BRTAP	73	0	7
BRTAP	73	48	2
BRTAP	73	48	5
BRSTR	73	96	1
NMSI_	73	96	1	96	48	4
BRSTR	73	96	6
NMSI_	73	96	6	96	48	3
BRTAP	73	144	3
BRTAP	73	144	4
BRTAP	73	192	1
BRTAP	73	192	6
CNSCR	73	240	3	0	24	5
CNSCL	73	240	4	0	24	2
CNSI_	73	264	2	0	48	0
CNSI_	73	264	5	0	48	7
BRTAP	74	0	1
BRTAP	74	0	6
NMTAP	74	48	2
NMTAP	74	72	3
NMTAP	74	96	1
NMTAP	74	120	0
NMTAP	74	144	2
NMTAP	74	168	7
NMHLD	74	192	1	48
NMTAP	74	240	6
NMTAP	74	264	0
NMTAP	74	288	5
NMTAP	74	312	1
NMTAP	74	336	4
NMTAP	74	360	2
NMHLD	75	0	5	48
NMTAP	75	48	4
NMTAP	75	72	6
NMTAP	75	96	3
NMTAP	75	120	7
NMTAP	75	144	1
NMTAP	75	168	0
NMSTR	75	192	2
NMSI_	75	192	2	96	48	7
NMTAP	75	240	3
NMTAP	75	288	4
NMTAP	75	336	5
NMTAP	76	0	0
NMTAP	76	0	6
NMTAP	76	48	2
NMTAP	76	72	3
NMSTR	76	96	1
NMSI_	76	96	1	96	48	5
NMTAP	76	120	4
NMTAP	76	144	0
NMTAP	76	168	7
NMSTR	76	192	1
NMSCR	76	192	1	96	48	4
NMTAP	76	240	4
NMTAP	76	288	1
NMTAP	76	336	5
BRTAP	77	0	6
BRTAP	77	0	7
BRTAP	77	72	0
BRTAP	77	72	1
BRSTR	77	144	3
NMSI_	77	144	3	96	48	7
BRSTR	77	144	4
NMSI_	77	144	4	96	48	0
BRTAP	77	192	2
BRTAP	77	192	5
CNSI_	77	288	0	0	48	2
CNSI_	77	288	7	0	48	5
BXTAP	78	0	3
BXTAP	78	0	4
NMTAP	78	48	5
NMTAP	78	72	4
NMTAP	78	96	6
NMTAP	78	120	7
NMTAP	78	144	5
NMTAP	78	168	0
NMHLD	78	192	6	48
NMTAP	78	240	1
NMTAP	78	264	7
NMTAP	78	288	2
NMTAP	78	312	6
NMTAP	78	336	3
NMTAP	78	360	5
NMHLD	79	0	2	48
NMTAP	79	48	3
NMTAP	79	72	1
NMTAP	79	96	4
NMTAP	79	120	0
NMTAP	79	144	6
NMTAP	79	168	7
NMSTR	79	192	5
NMSI_	79	192	5	96	48	0
NMTAP	79	240	4
NMTAP	79	288	3
NMTAP	79	336	2
NMTAP	80	0	1
NMTAP	80	0	7
NMTAP	80	48	6
NMTAP	80	72	4
NMTAP	80	120	2
NMTAP	80	144	3
NMTAP	80	192	3
NMTAP	80	192	4
NMTAP	80	240	5
NMTAP	80	264	4
NMTAP	80	264	6
NMTAP	80	312	2
NMTAP	80	336	1
NMTAP	80	336	3
BRTAP	81	0	0
BRTAP	81	0	4
NMSTR	81	192	0
NMSI_	81	192	0	96	48	4
NMSTR	81	192	7
NMSI_	81	192	7	96	48	3
NMTAP	81	204	1
NMTAP	81	204	6
NMTAP	81	216	2
NMTAP	81	216	5
NMTAP	81	228	3
NMTAP	81	228	4
BRTAP	81	288	0
BRTAP	81	288	7
BRTAP	82	0	1
BRTAP	82	0	6
NMTAP	82	48	2
NMTAP	82	72	3
NMSTR	82	96	1
NMSI_	82	96	1	96	24	4
NMTAP	82	120	0
NMTAP	82	144	2
NMTAP	82	168	7
NMTAP	82	192	1
NMTAP	82	240	6
NMTAP	82	264	7
NMSTR	82	288	5
NMSI_	82	288	5	96	24	0
NMTAP	82	312	2
NMTAP	82	336	4
NMTAP	82	360	3
NMTAP	83	0	5
NMTAP	83	48	1
NMTAP	83	72	7
NMSTR	83	96	2
NMSI_	83	96	2	96	24	7
NMTAP	83	120	5
NMTAP	83	144	3
NMTAP	83	168	6
NMTAP	83	192	2
NMTAP	83	240	3
NMTAP	83	288	0
NMTAP	83	288	4
NMTAP	83	336	1
NMTAP	83	336	5
NMTAP	84	0	2
NMTAP	84	0	4
NMTAP	84	48	5
NMTAP	84	72	4
NMSTR	84	96	6
NMSI_	84	96	6	96	48	2
NMTAP	84	120	3
NMSTR	84	144	7
NMSI_	84	144	7	96	48	3
NMTAP	84	168	0
NMSTR	84	192	6
NMSI_	84	192	6	96	48	4
NMTAP	84	240	7
NMSTR	84	288	6
NMSCR	84	288	6	96	120	2
NMSLR	84	288	6	96	120	2
NMSTR	85	192	4
NMSI_	85	192	4	96	48	0
NMSTR	85	192	5
NMSI_	85	192	5	96	48	0
NMTAP	85	240	4
NMTAP	85	240	5
BRTAP	85	288	4
BRTAP	85	288	5
BXTAP	86	0	1
BXTAP	86	0	7
NMTAP	86	48	2
NMTAP	86	72	4
NMTAP	86	96	3
NMTAP	86	120	6
NMTAP	86	144	4
NMTAP	86	168	5
BRTAP	86	192	0
EXTAP	86	240	1
NMTAP	86	264	1
NMTAP	86	264	3
EXTAP	86	312	5
NMTAP	86	336	4
NMTAP	86	336	5
EXTAP	87	0	2
EXTAP	87	0	6
NMTAP	87	48	0
NMTAP	87	48	1
NMTAP	87	72	0
NMTAP	87	72	1
NMTAP	87	120	6
NMTAP	87	120	7
NMTAP	87	144	6
NMTAP	87	144	7
BRTAP	87	192	0
BRTAP	87	192	5
NMTAP	87	240	1
NMTTP	87	288	5	E	0	M1
NMTTP	87	312	4	B	0	M1
NMTTP	87	336	2	E	0	M1
NMTTP	87	360	2	B	0	M1
BRTAP	88	0	7
NMTAP	88	48	6
NMTAP	88	72	4
NMTAP	88	72	6
NMTAP	88	120	1
NMTAP	88	144	1
NMTAP	88	144	3
BRTAP	88	192	0
NMTAP	88	216	7
NMTAP	88	240	0
NMTAP	88	264	7
NMTAP	88	288	1
NMTAP	88	312	6
NMTAP	88	336	2
NMTAP	88	360	5
BRTAP	89	0	3
BRTAP	89	0	4
BRTAP	89	48	2
BRTAP	89	48	5
BRSTR	89	96	0
NMSI_	89	96	0	96	48	4
BRSTR	89	96	7
NMSI_	89	96	7	96	48	3
BRTAP	89	144	1
BRTAP	89	144	6
BRTAP	89	192	0
BRTAP	89	192	7
BRTAP	89	288	2
BRTAP	89	288	5
BRTAP	90	0	1
BRSTR	90	0	6
NMSI_	90	0	6	96	48	4
NMTAP	90	96	7
CNSI_	90	144	4	0	48	0
NMSTR	90	144	7
NMSI_	90	144	7	96	48	3
NMTAP	90	240	5
CNSI_	90	288	3	0	48	1
NMSTR	90	288	5
NMSI_	90	288	5	96	48	3
NMTAP	91	0	7
CNSI_	91	48	3	0	48	6
NMSTR	91	48	7
NMSI_	91	48	7	96	48	2
NMTAP	91	144	3
CNSI_	91	192	2	0	48	0
NMSTR	91	192	3
NMSI_	91	192	3	96	48	5
NMSI_	91	192	3	96	48	7
NMTAP	91	288	3
BRSTR	92	0	1
NMSI_	92	0	1	96	48	3
BRTAP	92	0	6
NMTAP	92	96	0
NMSTR	92	144	0
NMSI_	92	144	0	96	48	4
CNSI_	92	144	3	0	48	7
NMTAP	92	240	2
NMSTR	92	288	2
NMSI_	92	288	2	96	48	4
CNSI_	92	288	4	0	48	6
NMTAP	93	0	0
NMSTR	93	48	0
NMSI_	93	48	0	96	48	5
CNSI_	93	48	4	0	48	1
NMTAP	93	144	4
NMSTR	93	192	4
NMSI_	93	192	4	96	48	0
NMSI_	93	192	4	96	48	2
CNSI_	93	192	5	0	48	7
NMTAP	93	288	4
EXTAP	94	0	1
NMTAP	94	0	7
NMTAP	94	48	1
NMTAP	94	96	2
NMTAP	94	144	2
NMTAP	94	192	3
NMTAP	94	240	3
NMTAP	94	288	4
NMTAP	94	336	4
NMTAP	95	0	3
NMTAP	95	0	5
NMTAP	95	48	2
NMTAP	95	96	1
NMTAP	95	96	4
NMTAP	95	144	5
NMTAP	95	192	2
NMTAP	95	192	6
NMTAP	95	240	1
NMTAP	95	288	0
NMTAP	95	288	7
NMTAP	95	336	0
NMTAP	95	336	7
NMTAP	96	0	1
NMTAP	96	24	2
NMTAP	96	48	3
NMTAP	96	72	4
NMTAP	96	96	7
NMTAP	96	120	6
NMTAP	96	144	5
NMTAP	96	168	4
BRTAP	96	192	0
EXTAP	96	192	3
NMTAP	96	204	1
NMTAP	96	216	2
NMTAP	96	228	3
NMTAP	96	240	4
NMTAP	96	252	5
NMTAP	96	264	6
NMTAP	96	276	7
BRTAP	96	288	0
EXTAP	96	288	4
NMTAP	96	300	1
NMTAP	96	312	2
NMTAP	96	324	3
NMTAP	96	336	4
NMTAP	96	348	5
NMTAP	96	360	6
NMTAP	96	372	7
BRTAP	97	0	0
EXTAP	97	0	5
BRTAP	97	48	2
BRSTR	97	96	4
NMSI_	97	96	4	96	48	0
BRSTR	97	96	6
NMSCL	97	96	6	96	48	5
BRTAP	97	144	3
BRTAP	97	144	7
BRTAP	97	192	4
BRTAP	97	192	6
CNSI_	97	240	0	0	48	3
CNSI_	97	240	5	0	48	7
CNSI_	97	288	3	0	48	1
CNSI_	97	288	7	0	48	4

T_REC_TAP	613
T_REC_BRK	76
T_REC_XTP	29
T_REC_BXX	32
T_REC_HLD	29
T_REC_XHO	16
T_REC_BHO	0
T_REC_BXH	18
T_REC_STR	82
T_REC_BST	14
T_REC_XST	6
T_REC_XBS	12
T_REC_TTP	42
T_REC_THO	2
T_REC_SLD	120
T_REC_BSL	4
T_REC_ALL	1095
T_NUM_TAP	772
T_NUM_BRK	156
T_NUM_HLD	47
T_NUM_SLD	120
T_NUM_ALL	1095
T_JUDGE_TAP	906
T_JUDGE_HLD	100
T_JUDGE_SLD	124
T_JUDGE_ALL	1130
TTM_EACHPAIRS	189
TTM_SCR_TAP	386000
TTM_SCR_BRK	405600
TTM_SCR_HLD	47000
TTM_SCR_SLD	180000
TTM_SCR_ALL	1018600
TTM_SCR_S	972950
TTM_SCR_SS	1003000
TTM_RAT_ACV	10155

