VERSION	0.00.00	1.04.00
FES_MODE	0
BPM_DEF	155.000	180.000	180.000	155.000
MET_DEF	4	4
RESOLUTION	384
CLK_DEF	384
COMPATIBLE_CODE	MA2

BPM	0	0	155.000
BPM	42	0	155.000
BPM	43	0	160.000
BPM	44	0	165.000
BPM	45	0	170.000
BPM	46	0	172.000
BPM	46	192	174.000
BPM	47	0	176.000
BPM	47	192	178.000
BPM	48	0	180.000
MET	0	0	4	4

NMSTR	1	0	3
NMSF_	1	0	3	96	192	7
EXTAP	2	0	0
EXTAP	2	0	5
NMTAP	2	96	6
NMTAP	2	96	7
EXTAP	2	144	0
EXTAP	2	144	5
NMTAP	2	240	6
NMTAP	2	240	7
EXTAP	2	288	0
EXTAP	2	288	5
NMTAP	3	0	6
NMTAP	3	0	7
EXTAP	3	48	0
EXTAP	3	48	5
NMTAP	3	144	6
NMTAP	3	144	7
EXSTR	3	192	0
NMSI_	3	192	0	96	48	3
EXSTR	3	192	5
NMSI_	3	192	5	96	48	0
EXTAP	4	0	2
EXTAP	4	0	7
NMTAP	4	96	0
NMTAP	4	96	1
EXTAP	4	144	2
EXTAP	4	144	7
NMTAP	4	240	0
NMTAP	4	240	1
EXTAP	4	288	2
EXTAP	4	288	7
NMTAP	5	0	0
NMTAP	5	0	1
EXTAP	5	48	2
EXTAP	5	48	7
NMTAP	5	144	0
NMTAP	5	144	1
EXTAP	5	192	2
EXSTR	5	192	7
NMSI_	5	192	7	96	48	3
NMSI_	5	192	7	96	48	4
EXTAP	6	0	3
EXHLD	6	0	4	672
NMTTP	6	96	2	E	0	M1
NMTTP	6	192	1	E	0	M1
NMTTP	6	288	0	E	0	M1
NMTTP	7	0	7	E	0	M1
NMTTP	7	96	6	E	0	M1
NMTTP	7	192	5	E	0	M1
NMTTP	7	288	4	E	0	M1
NMTAP	8	0	3
NMTAP	8	0	4
NMTAP	8	48	3
NMTAP	8	48	4
NMTAP	8	96	2
NMTAP	8	96	3
NMTAP	8	144	2
NMTAP	8	144	3
NMTAP	8	192	1
NMTAP	8	216	2
NMTAP	8	240	1
NMTAP	8	264	2
NMTAP	8	288	1
NMTAP	8	312	2
NMTAP	8	336	1
NMTAP	8	360	2
EXTAP	9	0	1
NMTAP	9	96	3
NMTAP	9	96	4
NMSTR	9	192	7
NMSI_	9	192	7	96	48	3
EXTAP	10	0	0
EXHLD	10	0	5	96
NMHLD	10	96	2	32
NMHLD	10	144	4	32
NMHLD	10	192	3	32
NMHLD	10	240	5	32
NMHLD	10	288	4	32
NMHLD	10	336	6	32
NMSTR	11	0	5
NMSI_	11	0	5	96	48	2
NMTAP	11	48	5
NMSTR	11	96	6
NMSI_	11	96	6	96	48	1
NMTAP	11	144	6
NMSTR	11	192	0
NMSI_	11	192	0	96	48	3
NMSI_	11	192	0	96	48	4
EXHLD	12	0	2	96
EXTAP	12	0	7
NMHLD	12	96	5	32
NMHLD	12	144	3	32
NMHLD	12	192	4	32
NMHLD	12	240	2	32
NMHLD	12	288	3	32
NMHLD	12	336	1	32
NMSTR	13	0	2
NMSI_	13	0	2	96	48	5
NMTAP	13	48	2
NMSTR	13	96	1
NMSI_	13	96	1	96	48	6
NMTAP	13	144	1
EXSTR	13	192	7
NMSF_	13	192	7	96	48	3
EXTAP	14	0	2
EXTAP	14	0	7
EXTAP	14	48	0
EXTAP	14	48	1
EXTAP	14	96	2
EXTAP	14	96	7
NMHLD	14	192	2	32
NMHLD	14	240	6	32
NMHLD	14	288	1	32
NMHLD	14	336	5	32
NMSTR	15	0	0
NMSI_	15	0	0	96	48	4
NMTAP	15	48	0
NMSTR	15	96	5
NMSI_	15	96	5	96	48	1
NMTAP	15	144	5
NMSTR	15	192	3
NMSI_	15	192	3	96	48	0
NMSI_	15	192	3	96	48	6
EXHLD	16	0	2	96
EXTAP	16	0	7
NMHLD	16	96	4	32
NMHLD	16	144	0	32
NMHLD	16	192	5	32
NMHLD	16	240	1	32
NMHLD	16	288	6	32
NMHLD	16	336	2	32
NMSTR	17	0	7
NMSI_	17	0	7	96	48	1
CNSI_	17	144	1	0	48	6
CNSI_	17	192	6	0	48	2
CNSI_	17	240	2	0	48	5
CNSI_	17	288	5	0	48	3
EXTAP	18	0	0
EXTAP	18	0	7
NMTAP	18	96	1
NMTAP	18	96	2
NMTAP	18	192	3
NMTAP	18	192	4
NMTAP	18	288	5
NMTAP	18	288	6
NMTAP	19	0	0
NMTAP	19	0	7
NMTAP	19	96	1
NMTAP	19	96	2
NMTAP	19	192	3
NMTAP	19	192	4
NMTAP	19	240	5
NMTAP	19	264	4
NMTAP	19	288	5
NMTAP	19	336	2
NMTAP	19	360	3
NMSTR	20	0	2
NMSI_	20	0	2	96	48	7
NMSTR	20	96	5
NMSI_	20	96	5	96	48	0
NMSTR	20	192	1
NMSI_	20	192	1	96	48	4
NMSTR	20	288	6
NMSI_	20	288	6	96	48	3
NMSTR	21	0	2
NMSI_	21	0	2	96	48	7
NMSTR	21	96	5
NMSI_	21	96	5	96	48	0
NMSTR	21	192	1
NMSI_	21	192	1	96	48	4
NMSTR	21	288	7
NMSSR	21	288	7	96	96	3
NMTAP	22	96	0
NMTAP	22	192	6
NMTAP	22	192	7
NMTAP	22	288	4
NMTAP	22	288	5
NMTAP	23	0	2
NMTAP	23	0	3
NMTAP	23	96	0
NMTAP	23	96	1
NMTAP	23	192	6
NMTAP	23	192	7
NMTAP	23	240	5
NMTAP	23	264	4
NMTAP	23	288	5
NMTAP	23	312	4
NMTAP	23	336	5
EXTAP	24	0	2
EXTAP	24	0	3
NMTAP	24	48	2
NMTAP	24	96	1
NMTAP	24	96	2
NMTAP	24	144	1
NMTAP	24	192	0
NMTAP	24	192	1
NMTAP	24	240	0
NMHLD	24	288	0	288
NMTAP	24	288	7
NMSTR	25	0	6
NMSXL	25	0	6	96	144	3
BRTAP	25	288	2
BRTAP	25	288	7
NMHLD	26	0	4	96
NMTAP	26	48	1
NMHLD	26	96	3	96
NMTAP	26	144	6
NMHLD	26	192	5	96
NMTAP	26	240	1
NMHLD	26	288	2	96
NMTAP	26	336	6
NMHLD	27	0	5	96
NMTAP	27	48	0
NMHLD	27	96	1	96
NMTAP	27	144	7
NMHLD	27	192	6	96
NMTAP	27	240	0
NMTAP	27	288	0
NMHLD	28	0	1	96
NMTAP	28	48	7
NMHLD	28	96	6	96
NMTAP	28	144	0
NMHLD	28	192	2	96
NMTAP	28	240	7
NMHLD	28	288	5	96
NMTAP	28	336	0
EXSTR	29	0	1
NMSXL	29	0	1	96	96	4
EXSTR	29	192	7
NMSI_	29	192	7	96	48	3
NMHLD	30	0	4	96
NMTAP	30	48	1
NMHLD	30	96	3	96
NMTAP	30	144	6
NMHLD	30	192	5	96
NMTAP	30	240	1
NMHLD	30	288	2	96
NMTAP	30	336	6
NMHLD	31	0	5	96
NMTAP	31	48	0
NMHLD	31	96	1	96
NMTAP	31	144	7
NMHLD	31	192	6	96
NMTAP	31	240	0
NMTAP	31	288	0
EXHLD	32	0	0	72
EXHLD	32	0	1	72
NMTAP	32	144	2
NMTAP	32	144	7
NMSTR	32	192	2
NMSI_	32	192	2	96	48	0
NMSTR	32	192	7
NMSI_	32	192	7	96	48	3
NMTTP	33	0	0	E	0	M1
NMTTP	33	48	1	E	0	M1
NMTTP	33	96	2	E	0	M1
NMTTP	33	144	3	E	0	M1
NMTTP	33	192	4	E	0	M1
BRTAP	33	288	0
BRTAP	33	288	5
NMTTP	34	0	3	B	0	M1
EXTAP	34	0	7
EXTAP	34	96	0
NMTTP	34	96	4	B	0	M1
NMTTP	34	192	2	B	0	M1
EXTAP	34	192	6
EXTAP	34	288	1
NMTTP	34	288	5	B	0	M1
NMTTP	35	0	0	C	0	M1
NMSTR	35	0	7
NMSSR	35	0	7	96	96	3
EXTAP	35	336	0
NMHLD	36	0	0	48
NMHLD	36	96	1	48
NMHLD	36	96	3	48
NMHLD	36	192	4	48
NMHLD	36	192	6	48
NMHLD	36	288	1	48
NMSTR	36	288	7
NMSI_	36	288	7	96	72	1
CNSV_	37	72	1	0	72	2
CNSI_	37	144	2	0	48	4
EXTAP	37	288	2
EXTAP	37	288	5
EXTAP	37	336	2
EXTAP	37	336	5
NMTHO	38	0	0	384	C	1	M1
NMTTP	38	0	3	B	0	M1
NMTTP	38	96	2	B	0	M1
NMTTP	38	192	1	B	0	M1
NMTTP	38	288	0	B	0	M1
EXTAP	39	0	7
EXTAP	39	144	0
EXTAP	39	144	6
EXTAP	39	240	1
EXTAP	39	240	5
NMTAP	39	312	3
NMTAP	39	312	4
NMTAP	39	360	3
NMTAP	39	360	4
EXHLD	40	0	2	48
EXHLD	40	0	5	48
NMHLD	40	96	3	48
NMHLD	40	96	6	48
NMHLD	40	192	4	48
NMHLD	40	192	7	48
NMHLD	40	288	0	48
NMHLD	40	288	5	48
NMSTR	41	0	1
NMSLR	41	0	1	96	96	7
NMSTR	41	0	6
NMSLL	41	0	6	96	96	0
CNSI_	41	192	0	0	96	2
CNSI_	41	192	7	0	96	5
EXTAP	42	0	3
EXTAP	42	0	4
NMTAP	42	48	3
NMTAP	42	48	4
NMTAP	42	96	2
NMTAP	42	96	4
NMTAP	42	144	2
NMTAP	42	144	4
NMTAP	42	192	1
NMTAP	42	192	4
NMTAP	42	240	1
NMTAP	42	240	4
NMTAP	42	288	0
NMTAP	42	288	4
NMTAP	42	336	0
NMTAP	42	336	4
NMTAP	43	0	4
NMHLD	43	0	7	192
NMTAP	43	96	0
NMTAP	43	144	0
NMSTR	43	192	0
NMSI_	43	192	0	96	48	3
NMSI_	43	192	0	96	48	4
EXTAP	44	0	3
EXTAP	44	0	4
NMTAP	44	48	3
NMTAP	44	48	4
NMTAP	44	96	3
NMTAP	44	96	5
NMTAP	44	144	3
NMTAP	44	144	5
NMTAP	44	192	3
NMTAP	44	192	6
NMTAP	44	240	3
NMTAP	44	240	6
NMTAP	44	288	3
NMTAP	44	288	7
NMTAP	44	336	3
NMTAP	44	336	7
NMHLD	45	0	0	192
NMTAP	45	0	3
NMTAP	45	96	7
NMTAP	45	144	7
NMSTR	45	192	7
NMSI_	45	192	7	96	48	3
NMSI_	45	192	7	96	48	4
EXTAP	46	0	5
NMTAP	46	48	5
EXTAP	46	96	2
NMTAP	46	144	2
EXTAP	46	192	6
NMTAP	46	240	6
EXTAP	46	288	1
NMTAP	46	336	1
EXTAP	47	0	2
EXTAP	47	0	3
NMTAP	47	48	2
NMTAP	47	48	3
EXTAP	47	96	2
EXTAP	47	96	3
NMTAP	47	144	2
NMTAP	47	144	3
EXTAP	47	192	4
EXTAP	47	192	5
NMTAP	47	240	4
NMTAP	47	240	5
EXTAP	47	288	4
EXTAP	47	288	5
NMTAP	47	336	4
NMTAP	47	336	5
EXTAP	48	0	6
EXTAP	48	0	7
EXTAP	48	96	0
EXTAP	48	96	2
EXTAP	48	144	0
EXTAP	48	144	2
EXTAP	48	240	5
EXTAP	48	240	7
EXTAP	48	288	5
EXTAP	48	288	7
BRTAP	49	0	0
BRTAP	49	0	1
BRTAP	49	96	6
BRSTR	49	96	7
NMSI_	49	96	7	96	48	3
BRTAP	49	192	3
NMTTP	50	0	0	B	0	M1
NMTTP	50	0	0	C	1	M1
NMTTP	50	0	1	B	0	M1
NMTTP	50	0	2	B	0	M1
NMTTP	50	0	3	B	0	M1
NMTTP	50	0	4	B	0	M1
NMTTP	50	0	5	B	0	M1
NMTTP	50	0	6	B	0	M1
NMTTP	50	0	7	B	0	M1
NMTAP	52	0	2
NMTAP	52	0	4
NMTAP	52	96	3
NMTAP	52	96	5
NMTAP	52	192	1
NMTAP	52	192	4
NMTAP	52	288	3
NMTAP	52	288	6
EXTAP	53	0	0
EXTAP	53	0	4
EXTAP	53	48	0
EXTAP	53	48	4
EXTAP	53	96	0
EXTAP	53	96	4
EXTAP	53	144	0
EXTAP	53	144	4
EXSTR	53	192	0
NMSI_	53	192	0	96	48	3
NMSI_	53	192	0	96	48	5
EXTAP	53	192	4
EXTAP	54	0	2
EXTAP	54	0	7
NMHLD	54	96	1	24
NMHLD	54	144	2	24
NMHLD	54	192	0	24
NMHLD	54	240	3	24
NMHLD	54	288	7	24
NMHLD	54	336	4	24
NMTAP	55	0	6
NMTAP	55	24	5
NMTAP	55	48	6
NMTAP	55	72	5
NMTAP	55	96	6
NMTAP	55	120	5
NMTAP	55	144	6
NMTAP	55	168	5
NMSTR	55	192	6
NMSI_	55	192	6	96	48	3
NMSI_	55	192	6	96	48	4
EXTAP	56	0	0
EXTAP	56	0	5
NMHLD	56	96	6	24
NMHLD	56	144	5	24
NMHLD	56	192	7	24
NMHLD	56	240	4	24
NMHLD	56	288	0	24
NMHLD	56	336	3	24
NMTAP	57	0	1
NMTAP	57	24	2
NMTAP	57	48	1
NMTAP	57	72	2
NMTAP	57	96	1
NMTAP	57	120	2
NMTAP	57	144	1
NMTAP	57	168	2
NMSTR	57	192	1
NMSI_	57	192	1	96	48	3
NMSI_	57	192	1	96	48	4
EXTAP	58	0	0
EXTAP	58	0	5
EXTAP	58	48	6
EXTAP	58	48	7
EXTAP	58	96	0
EXTAP	58	96	5
NMHLD	58	192	1	24
NMHLD	58	240	3	24
NMHLD	58	288	4	24
NMHLD	58	336	6	24
NMTAP	59	0	7
NMTAP	59	24	6
NMTAP	59	48	7
NMTAP	59	72	6
NMTAP	59	96	7
NMTAP	59	120	6
NMTAP	59	144	7
NMTAP	59	168	6
NMSTR	59	192	7
NMSI_	59	192	7	96	48	3
NMSI_	59	192	7	96	48	4
EXTAP	60	0	2
EXTAP	60	0	7
NMHLD	60	96	6	24
NMHLD	60	144	4	24
NMHLD	60	192	3	24
NMHLD	60	240	1	24
NMTAP	60	288	0
NMTAP	60	312	1
NMTAP	60	336	0
NMTAP	60	360	1
EXTAP	61	0	0
EXTAP	61	96	3
NMTTP	61	96	7	E	0	M1
EXTAP	61	192	2
NMTTP	61	192	6	E	0	M1
EXTAP	61	288	1
NMTTP	61	288	5	E	0	M1
EXHLD	62	0	0	96
NMTTP	62	0	4	E	0	M1
NMHLD	62	96	1	96
NMHLD	62	192	2	96
NMHLD	62	288	3	96
NMHLD	63	0	4	96
NMHLD	63	96	5	96
NMSTR	63	192	6
NMSI_	63	192	6	96	48	3
NMSI_	63	192	6	96	48	4
EXSTR	64	0	2
NMSI_	64	0	2	96	48	7
NMSTR	64	192	3
NMSI_	64	192	3	96	48	0
NMHLD	64	192	4	96
NMSTR	65	0	4
NMSI_	65	0	4	96	48	1
NMHLD	65	0	5	96
NMTAP	65	192	5
NMTAP	65	192	6
BRTAP	65	288	0
BRTAP	65	288	7
EXTAP	66	0	3
EXTAP	66	0	4
NMHLD	66	96	1	96
NMHLD	66	192	2	96
NMHLD	66	288	3	96
NMHLD	67	0	4	96
NMHLD	67	96	5	96
NMHLD	67	192	6	96
NMHLD	67	288	7	96
NMTAP	68	0	0
NMTAP	68	48	1
NMTAP	68	96	2
NMTAP	68	144	3
NMTAP	68	192	4
NMTAP	68	240	5
NMTAP	68	288	6
NMTAP	68	336	7
NMTAP	69	0	0
NMTAP	69	0	1
NMTAP	69	48	0
NMTAP	69	48	1
NMTAP	69	96	2
NMTAP	69	96	3
NMTAP	69	144	2
NMTAP	69	144	3
NMTAP	69	192	4
NMTAP	69	216	3
NMTAP	69	240	4
NMTAP	69	264	3
NMTAP	69	288	4
NMTAP	69	312	3
NMTAP	69	336	4
NMTAP	69	360	3
NMSTR	70	0	4
NMSI_	70	0	4	96	96	7
NMSTR	70	192	3
NMSI_	70	192	3	96	96	0
NMSTR	71	0	4
NMSI_	71	0	4	96	96	7
NMSTR	71	192	3
NMSI_	71	192	3	96	96	0
NMTAP	72	0	4
NMTAP	72	96	4
NMTAP	72	96	7
NMTAP	72	192	4
NMTAP	72	192	7
NMTAP	72	288	4
NMTAP	72	288	7
EXTAP	73	0	4
EXTAP	73	0	7
EXTAP	73	48	4
EXTAP	73	48	7
EXTAP	73	96	4
EXTAP	73	96	7
EXTAP	73	144	4
EXTAP	73	144	7
EXTAP	73	192	4
EXTAP	73	192	7
NMTAP	73	288	2
NMTAP	73	288	5
NMHLD	74	0	1	96
NMTAP	74	48	0
NMHLD	74	96	6	96
NMTAP	74	144	7
NMHLD	74	192	2	96
NMTAP	74	240	0
NMHLD	74	288	5	96
NMTAP	74	336	7
NMHLD	75	0	3	96
NMTAP	75	48	0
NMHLD	75	96	4	96
NMTAP	75	144	7
NMSTR	75	192	1
NMSCR	75	192	1	96	48	4
EXTAP	75	240	0
EXTAP	75	288	7
NMSTR	76	0	6
NMSI_	76	0	6	96	48	2
NMTAP	76	48	6
NMSTR	76	96	3
NMSI_	76	96	3	96	48	7
NMTAP	76	144	3
NMSTR	76	192	0
NMSI_	76	192	0	96	48	3
NMSI_	76	192	0	96	48	5
NMSTR	77	0	4
NMSI_	77	0	4	96	48	0
NMSTR	77	0	6
NMSI_	77	0	6	96	48	2
NMSTR	77	192	1
NMSI_	77	192	1	96	48	4
NMSTR	77	192	6
NMSI_	77	192	6	96	48	3
NMHLD	78	0	6	96
NMTAP	78	48	7
NMHLD	78	96	1	96
NMTAP	78	144	0
NMHLD	78	192	5	96
NMTAP	78	240	7
NMHLD	78	288	2	96
NMTAP	78	336	0
NMHLD	79	0	4	96
NMTAP	79	48	7
NMHLD	79	96	3	96
NMTAP	79	144	0
NMSTR	79	192	6
NMSCL	79	192	6	96	48	3
EXTAP	79	240	7
EXTAP	79	288	0
EXHLD	80	0	1	72
NMTAP	80	72	2
NMTAP	80	144	3
NMTAP	80	144	4
EXHLD	80	192	6	72
NMTAP	80	264	5
NMTAP	80	336	3
NMTAP	80	336	4
NMTTP	81	0	2	E	0	M1
NMTTP	81	48	3	E	0	M1
NMTTP	81	96	4	E	0	M1
NMTTP	81	144	5	E	0	M1
NMTTP	81	192	6	E	0	M1
NMTTP	81	288	3	B	0	M1
NMTTP	81	288	3	A	0	M1
NMTTP	81	288	4	B	0	M1
NMTTP	81	288	4	A	0	M1
NMTTP	81	288	4	D	0	M1
NMTAP	82	0	2
NMTAP	82	0	7
NMTAP	82	48	1
NMTAP	82	72	0
NMTAP	82	96	1
NMTAP	82	144	2
NMSTR	82	144	7
NMSUR	82	144	7	96	48	4
NMHLD	82	192	2	96
NMTAP	82	192	7
NMTAP	83	0	0
NMTAP	83	0	5
NMTAP	83	48	6
NMTAP	83	72	7
NMTAP	83	96	6
NMSTR	83	144	0
NMSUL	83	144	0	96	48	3
NMTAP	83	144	5
NMTAP	83	192	0
NMHLD	83	192	5	96
NMTAP	84	0	1
NMTAP	84	48	0
NMTAP	84	96	7
NMTAP	84	144	6
NMSTR	84	192	5
NMSI_	84	192	5	96	48	0
NMTAP	84	240	4
NMTAP	84	288	3
NMTTP	85	0	1	B	0	M1
NMTTP	85	0	2	B	0	M1
NMTTP	85	48	5	B	0	M1
NMTTP	85	48	6	B	0	M1
NMTTP	85	96	3	B	0	M1
NMTTP	85	96	4	B	0	M1
NMTAP	85	192	0
NMTAP	85	192	7
NMTAP	85	288	1
NMTAP	85	288	6
EXSTR	86	0	1
NMSI_	86	0	1	96	48	5
NMTAP	86	48	1
NMSTR	86	96	7
NMSI_	86	96	7	96	48	3
NMTAP	86	144	7
NMSTR	86	192	2
NMSI_	86	192	2	96	48	5
NMSI_	86	192	2	96	48	7
EXSTR	87	0	6
NMSI_	87	0	6	96	48	2
NMTAP	87	48	6
NMSTR	87	96	4
NMSI_	87	96	4	96	48	0
NMTAP	87	144	4
NMSTR	87	192	6
NMSI_	87	192	6	96	48	1
NMSI_	87	192	6	96	48	3
NMSTR	88	0	2
NMSI_	88	0	2	96	48	7
NMSTR	88	0	4
NMSI_	88	0	4	96	48	7
EXTAP	88	192	7
NMTAP	88	216	0
NMTAP	88	240	7
NMTAP	88	264	0
NMTAP	88	288	7
NMTAP	88	312	0
NMTAP	88	336	7
EXTAP	89	0	0
EXTAP	89	16	1
EXTAP	89	32	2
EXTAP	89	48	3
EXTAP	89	64	4
EXTAP	89	80	5
EXTAP	89	96	6
EXTAP	89	112	7
EXTAP	89	128	0
EXTAP	89	144	1
EXTAP	89	160	2
EXTAP	89	176	3
EXTAP	89	192	4
NMTTP	89	288	3	B	0	M1
NMTTP	89	288	3	A	0	M1
NMTTP	89	288	4	B	0	M1
NMTTP	89	288	4	A	0	M1
NMTTP	89	288	4	D	0	M1
EXTAP	90	0	0
EXTAP	90	0	5
NMTAP	90	96	6
NMTAP	90	96	7
EXTAP	90	144	0
EXTAP	90	144	5
NMTAP	90	240	0
NMTAP	90	240	7
EXTAP	90	288	1
EXTAP	90	288	6
NMTAP	91	0	0
NMTAP	91	0	1
EXTAP	91	48	2
EXTAP	91	48	7
NMTAP	91	144	1
NMTAP	91	144	2
EXHLD	91	192	0	96
EXSTR	91	192	3
NMSI_	91	192	3	96	48	7
EXTAP	92	0	2
EXTAP	92	0	7
NMTAP	92	96	0
NMTAP	92	96	1
EXTAP	92	144	2
EXTAP	92	144	7
NMTAP	92	240	0
NMTAP	92	240	7
EXTAP	92	288	1
EXTAP	92	288	6
NMTAP	93	0	6
NMTAP	93	0	7
EXTAP	93	48	0
EXTAP	93	48	5
NMTAP	93	144	5
NMTAP	93	144	6
EXSTR	93	192	4
NMSI_	93	192	4	96	48	0
EXHLD	93	192	7	96
EXTAP	94	0	1
EXHLD	94	0	6	672
NMTTP	94	96	5	E	0	M1
NMTTP	94	192	3	E	0	M1
NMTTP	94	288	6	E	0	M1
NMTTP	95	0	2	E	0	M1
NMTTP	95	96	7	E	0	M1
NMTTP	95	192	1	E	0	M1
NMTTP	95	288	4	E	0	M1
NMTAP	96	0	5
NMTAP	96	24	4
NMTAP	96	48	5
NMTAP	96	72	4
NMTAP	96	96	5
NMTAP	96	120	4
NMTAP	96	144	5
NMTAP	96	168	4
NMTAP	96	192	6
NMTAP	96	216	3
NMTAP	96	240	6
NMTAP	96	264	3
NMTAP	96	288	6
NMTAP	96	312	3
NMTAP	96	336	6
NMTAP	96	360	3
EXTAP	97	0	7
EXTAP	97	48	7
EXTAP	97	96	0
EXTAP	97	96	6
EXTAP	97	144	0
EXTAP	97	144	6
EXSTR	97	192	1
NMSSR	97	192	1	96	96	5
EXTAP	97	192	5

T_REC_TAP	310
T_REC_BRK	10
T_REC_XTP	151
T_REC_BXX	0
T_REC_HLD	103
T_REC_XHO	14
T_REC_BHO	0
T_REC_BXH	0
T_REC_STR	56
T_REC_BST	1
T_REC_XST	13
T_REC_XBS	0
T_REC_TTP	62
T_REC_THO	1
T_REC_SLD	83
T_REC_BSL	0
T_REC_ALL	804
T_NUM_TAP	592
T_NUM_BRK	11
T_NUM_HLD	118
T_NUM_SLD	83
T_NUM_ALL	804
T_JUDGE_TAP	603
T_JUDGE_HLD	218
T_JUDGE_SLD	83
T_JUDGE_ALL	904
TTM_EACHPAIRS	166
TTM_SCR_TAP	296000
TTM_SCR_BRK	28600
TTM_SCR_HLD	118000
TTM_SCR_SLD	124500
TTM_SCR_ALL	567100
TTM_SCR_S	549050
TTM_SCR_SS	566000
TTM_RAT_ACV	10019

