VERSION	0.00.00	1.04.00
FES_MODE	0
BPM_DEF	155.000	155.000	180.000	155.000
MET_DEF	4	4
RESOLUTION	384
CLK_DEF	384
COMPATIBLE_CODE	MA2

BPM	0	0	155.000
BPM	42	0	155.000
BPM	43	0	160.000
BPM	44	0	165.000
BPM	45	0	170.000
BPM	46	0	172.000
BPM	46	192	174.000
BPM	47	0	176.000
BPM	47	192	178.000
BPM	48	0	180.000
MET	0	0	4	4

EXHLD	2	0	2	144
EXHLD	2	288	2	144
EXTAP	3	192	2
EXTAP	3	288	2
EXTAP	3	288	3
EXHLD	4	0	5	144
EXHLD	4	288	5	144
EXTAP	5	192	5
EXTAP	5	288	4
EXTAP	5	288	5
NMTAP	6	0	6
NMTAP	6	96	6
NMTAP	6	192	6
NMTAP	7	0	7
NMTAP	7	96	7
NMTAP	7	192	7
NMTAP	8	0	0
NMTAP	8	96	0
NMTAP	8	192	0
BXTAP	9	0	1
BXTAP	9	96	1
BXTAP	9	192	1
NMTAP	10	0	2
NMTAP	10	96	2
NMTAP	10	192	3
NMTAP	10	288	3
NMTAP	11	0	4
NMTAP	11	96	4
NMTAP	11	192	4
NMTAP	11	192	5
NMTAP	12	0	5
NMTAP	12	96	5
NMTAP	12	192	4
NMTAP	12	288	4
NMTAP	13	0	3
NMTAP	13	96	3
NMTAP	13	192	2
NMTAP	13	192	3
NMTAP	14	0	2
NMTAP	14	96	2
NMTAP	14	192	3
NMTAP	14	288	3
NMTAP	15	0	4
NMTAP	15	96	4
NMTAP	15	192	4
NMTAP	15	192	5
NMTAP	16	0	5
NMTAP	16	96	5
NMTAP	16	192	4
NMTAP	16	288	4
NMTAP	17	0	3
NMTAP	17	96	3
NMTAP	17	192	2
NMTAP	17	192	3
EXTAP	18	0	1
EXTAP	18	96	1
EXTAP	18	192	1
EXTAP	18	288	1
EXTAP	19	0	0
EXTAP	19	0	1
EXTAP	19	96	0
EXTAP	19	96	1
EXTAP	19	192	0
EXTAP	19	192	1
NMHLD	20	0	2	192
NMTAP	20	192	3
NMTAP	21	0	4
NMTAP	21	0	5
NMTAP	21	96	4
NMTAP	21	96	5
NMTAP	21	192	3
NMTAP	21	192	6
EXTAP	22	0	6
EXTAP	22	96	6
EXTAP	22	192	6
EXTAP	22	288	6
EXTAP	23	0	6
EXTAP	23	0	7
EXTAP	23	96	6
EXTAP	23	96	7
EXTAP	23	192	6
EXTAP	23	192	7
NMHLD	24	0	5	192
NMTAP	24	192	4
NMTAP	25	0	2
NMTAP	25	0	3
NMTAP	25	96	2
NMTAP	25	96	3
BXTAP	25	192	2
BXTAP	25	192	3
NMTAP	26	0	2
NMTAP	26	96	2
NMTAP	26	192	1
NMTAP	26	288	1
NMTAP	27	0	0
NMTAP	27	96	0
NMTAP	27	192	6
NMTAP	27	192	7
NMTAP	28	0	5
NMTAP	28	96	5
NMTAP	28	192	6
NMTAP	28	288	6
NMTAP	29	0	7
NMTAP	29	96	7
NMTAP	29	192	0
NMTAP	29	192	1
NMTAP	30	0	2
NMTAP	30	96	2
NMTAP	30	192	1
NMTAP	30	288	1
NMTAP	31	0	0
NMTAP	31	96	0
NMTAP	31	192	6
NMTAP	31	192	7
NMSTR	32	0	5
NMSI_	32	0	5	96	192	0
NMTAP	33	0	1
NMTAP	33	96	1
BRTAP	33	192	1
NMTTP	34	0	0	B	0	L1
NMTTP	34	96	1	B	0	L1
NMTTP	34	192	2	B	0	L1
NMTTP	34	288	3	B	0	L1
NMTHO	35	0	0	192	C	0	L1
NMTTP	36	0	7	B	0	L1
NMTTP	36	96	6	B	0	L1
NMTTP	36	192	5	B	0	L1
NMTTP	36	288	4	B	0	L1
NMTHO	37	0	0	192	C	0	L1
NMTTP	38	0	0	B	0	L1
NMTTP	38	96	1	B	0	L1
NMTTP	38	192	2	B	0	L1
NMTTP	38	288	3	B	0	L1
NMTTP	38	288	4	B	0	L1
NMTHO	39	0	0	192	C	0	L1
NMTTP	40	0	7	B	0	L1
NMTTP	40	96	6	B	0	L1
NMTTP	40	192	5	B	0	L1
NMTTP	40	288	3	B	0	L1
NMTTP	40	288	4	B	0	L1
NMTTP	41	0	0	C	1	L1
EXTAP	42	0	0
NMTAP	42	96	0
NMTAP	42	192	0
NMTAP	42	192	1
EXTAP	43	0	2
NMTAP	43	96	2
NMTAP	43	192	2
NMTAP	43	192	3
EXTAP	44	0	5
NMTAP	44	96	5
NMTAP	44	192	4
NMTAP	44	192	5
EXTAP	45	0	6
NMTAP	45	96	6
NMTAP	45	192	6
NMTAP	45	192	7
EXTAP	46	0	6
NMTAP	46	96	6
EXTAP	46	192	5
NMTAP	46	288	5
EXTAP	47	0	4
NMTAP	47	96	4
EXTAP	47	192	3
NMTAP	47	288	3
EXTAP	48	0	2
NMTAP	48	96	2
EXTAP	48	192	1
NMTAP	48	288	1
BXTAP	49	0	0
BXTAP	49	96	0
BXTAP	49	192	0
BXTAP	49	288	0
NMTHO	50	0	0	1152	C	1	L1
NMTAP	54	0	1
NMTAP	54	96	1
NMTAP	54	192	0
NMTAP	54	192	1
NMTAP	54	288	0
NMTAP	54	288	1
NMTAP	55	0	7
NMTAP	55	96	7
NMTAP	55	192	6
NMTAP	55	192	7
NMTAP	55	288	6
NMTAP	55	288	7
NMTAP	56	0	5
NMTAP	56	96	5
NMTAP	56	192	4
NMTAP	56	192	5
NMTAP	56	288	4
NMTAP	56	288	5
NMTAP	57	0	2
NMTAP	57	0	3
NMTAP	57	96	2
NMTAP	57	96	3
NMTAP	57	192	2
NMTAP	57	192	3
NMTAP	58	0	5
NMTAP	58	96	5
NMTAP	58	192	6
NMTAP	58	192	7
NMTAP	58	288	6
NMTAP	58	288	7
NMTAP	59	0	0
NMTAP	59	96	0
NMTAP	59	192	0
NMTAP	59	192	1
NMTAP	59	288	0
NMTAP	59	288	1
NMTAP	60	0	2
NMTAP	60	96	2
NMTAP	60	192	2
NMTAP	60	192	3
NMTAP	60	288	2
NMTAP	60	288	3
BXTAP	61	0	4
BXTAP	61	0	5
BXTAP	61	96	4
BXTAP	61	96	5
BXTAP	61	192	4
BXTAP	61	192	5
EXTAP	62	0	6
EXTAP	62	96	6
EXTAP	62	192	6
EXTAP	62	288	6
EXTAP	63	0	6
EXTAP	63	0	7
EXTAP	63	96	6
EXTAP	63	96	7
EXTAP	63	192	6
EXTAP	63	192	7
NMHLD	64	0	5	192
NMTAP	64	192	4
NMTAP	65	0	2
NMTAP	65	0	3
NMTAP	65	96	2
NMTAP	65	96	3
NMTAP	65	192	1
NMTAP	65	192	4
EXTAP	66	0	1
EXTAP	66	96	1
EXTAP	66	192	1
EXTAP	66	288	1
EXTAP	67	0	0
EXTAP	67	0	1
EXTAP	67	96	0
EXTAP	67	96	1
EXTAP	67	192	0
EXTAP	67	192	1
NMTAP	68	0	2
NMTAP	68	96	2
NMTAP	68	192	3
NMTAP	68	288	3
NMTAP	69	0	4
NMTAP	69	96	4
NMTAP	69	192	5
NMTAP	69	288	5
NMHLD	70	0	6	192
NMHLD	70	192	7	192
NMHLD	71	0	0	192
NMTAP	71	192	1
NMTAP	72	0	0
NMTAP	72	0	7
NMTAP	72	96	0
NMTAP	72	96	7
NMTAP	72	192	1
NMTAP	72	192	6
NMTAP	72	288	1
NMTAP	72	288	6
NMTAP	73	0	2
NMTAP	73	0	5
NMTAP	73	96	2
NMTAP	73	96	5
BRTAP	73	192	3
BRTAP	73	192	4
NMTAP	74	0	5
NMTAP	74	48	5
NMTAP	74	96	5
NMTAP	74	192	6
NMTAP	74	192	7
NMTAP	74	288	6
NMTAP	74	288	7
NMTAP	75	0	5
NMTAP	75	48	5
NMTAP	75	96	5
NMTAP	75	192	3
NMTAP	75	192	4
NMTAP	75	288	3
NMTAP	75	288	4
NMTAP	76	0	2
NMTAP	76	48	2
NMTAP	76	96	2
NMTAP	76	192	0
NMTAP	76	192	1
NMTAP	76	288	0
NMTAP	76	288	1
NMTAP	77	0	2
NMTAP	77	0	3
NMTAP	77	96	2
NMTAP	77	96	3
NMTAP	77	192	2
NMTAP	77	192	3
NMTAP	78	0	2
NMTAP	78	48	2
NMTAP	78	96	2
NMTAP	78	192	0
NMTAP	78	192	1
NMTAP	78	288	0
NMTAP	78	288	1
NMTAP	79	0	2
NMTAP	79	48	2
NMTAP	79	96	2
NMTAP	79	192	3
NMTAP	79	192	4
NMTAP	79	288	3
NMTAP	79	288	4
NMTAP	80	0	5
NMTAP	80	48	5
NMTAP	80	96	5
NMTAP	80	192	6
NMTAP	80	192	7
NMTAP	80	288	6
NMTAP	80	288	7
NMSTR	81	0	6
NMSI_	81	0	6	96	192	3
NMSTR	81	0	7
NMSI_	81	0	7	96	192	2
NMTAP	82	0	1
NMTAP	82	48	1
NMTAP	82	96	1
NMTAP	82	192	2
NMTAP	82	240	2
NMTAP	82	288	2
NMTAP	83	0	3
NMTAP	83	48	3
NMTAP	83	96	3
NMTAP	83	192	4
NMTAP	83	192	5
NMTAP	83	288	4
NMTAP	83	288	5
NMTAP	84	0	5
NMTAP	84	48	5
NMTAP	84	96	5
NMTAP	84	192	6
NMTAP	84	240	6
NMTAP	84	288	6
EXTAP	85	0	6
EXTAP	85	0	7
EXTAP	85	96	6
EXTAP	85	96	7
EXTAP	85	192	6
EXTAP	85	192	7
NMTAP	86	0	6
NMTAP	86	48	6
NMTAP	86	96	6
NMTAP	86	192	5
NMTAP	86	240	5
NMTAP	86	288	5
NMTAP	87	0	4
NMTAP	87	48	4
NMTAP	87	96	4
NMTAP	87	192	2
NMTAP	87	192	3
NMTAP	87	288	2
NMTAP	87	288	3
NMTAP	88	0	2
NMTAP	88	48	2
NMTAP	88	96	2
NMTAP	88	192	1
NMTAP	88	240	1
NMTAP	88	288	1
BRTAP	89	0	0
BRTAP	89	0	1
EXHLD	90	0	1	144
EXHLD	90	288	1	144
EXTAP	91	192	1
EXTAP	91	288	0
EXTAP	91	288	1
EXHLD	92	0	6	144
EXHLD	92	288	6	144
EXTAP	93	192	6
EXTAP	93	288	6
EXTAP	93	288	7
NMTAP	94	0	6
NMTAP	94	96	6
NMTAP	94	192	5
NMTAP	94	288	5
NMTAP	95	0	4
NMTAP	95	96	4
NMTAP	95	192	3
NMTAP	95	288	3
NMTAP	96	0	2
NMTAP	96	96	2
NMTAP	96	192	1
NMTAP	96	288	1
BXTAP	97	0	0
BXTAP	97	0	7
BXTAP	97	96	0
BXTAP	97	96	7
BXTAP	97	192	0
BXTAP	97	192	7

T_REC_TAP	265
T_REC_BRK	5
T_REC_XTP	68
T_REC_BXX	21
T_REC_HLD	6
T_REC_XHO	8
T_REC_BHO	0
T_REC_BXH	0
T_REC_STR	3
T_REC_BST	0
T_REC_XST	0
T_REC_XBS	0
T_REC_TTP	19
T_REC_THO	4
T_REC_SLD	3
T_REC_BSL	0
T_REC_ALL	402
T_NUM_TAP	355
T_NUM_BRK	26
T_NUM_HLD	18
T_NUM_SLD	3
T_NUM_ALL	402
T_JUDGE_TAP	381
T_JUDGE_HLD	84
T_JUDGE_SLD	3
T_JUDGE_ALL	468
TTM_EACHPAIRS	88
TTM_SCR_TAP	177500
TTM_SCR_BRK	67600
TTM_SCR_HLD	18000
TTM_SCR_SLD	4500
TTM_SCR_ALL	267600
TTM_SCR_S	257050
TTM_SCR_SS	265000
TTM_RAT_ACV	10098

