VERSION	0.00.00	1.04.00
FES_MODE	0
BPM_DEF	170.000	170.000	170.000	170.000
MET_DEF	4	4
RESOLUTION	384
CLK_DEF	384
COMPATIBLE_CODE	MA2

BPM	0	0	170.000
MET	0	0	4	4

NMSTR	1	0	4
NMSF_	1	0	4	96	192	0
BXHLD	2	0	2	96
BXHLD	2	0	4	96
BXHLD	2	144	3	96
BXHLD	2	144	5	96
NMTAP	2	288	4
NMTAP	2	288	6
NMHLD	3	0	3	96
NMHLD	3	0	5	96
NMHLD	3	144	2	48
NMHLD	3	144	4	96
NMTAP	3	240	1
NMTAP	3	288	1
NMTAP	3	288	3
NMHLD	4	0	2	96
NMHLD	4	0	4	96
NMHLD	4	144	3	96
NMHLD	4	144	5	96
NMTAP	4	288	4
NMTAP	4	288	6
NMHLD	5	0	3	96
NMHLD	5	0	5	96
NMHLD	5	144	2	48
NMHLD	5	144	4	96
NMTAP	5	240	1
NMTAP	5	288	1
NMTAP	5	288	3
BXTAP	6	0	2
BXTAP	6	0	3
BXTAP	6	72	4
BXTAP	6	72	5
BXHLD	6	144	1	96
BXHLD	6	144	6	96
NMTAP	6	288	2
NMTAP	6	288	5
NMTAP	6	336	5
NMTAP	6	360	4
NMHLD	7	0	5	96
NMTAP	7	96	3
NMHLD	7	144	2	48
NMHLD	7	144	4	96
NMTAP	7	240	1
NMTAP	7	288	1
NMTAP	7	288	3
NMHLD	8	0	2	96
NMHLD	8	0	4	96
NMHLD	8	144	3	96
NMHLD	8	144	5	96
NMTAP	8	288	4
NMTAP	8	288	6
NMHLD	9	0	3	96
NMHLD	9	0	5	96
NMHLD	9	144	2	48
NMSTR	9	144	4
NMSSL	9	144	4	96	96	0
NMTAP	9	240	1
NMTAP	9	288	1
EXSTR	10	0	7
NMSCL	10	0	7	96	48	4
NMTAP	10	96	2
NMSTR	10	144	1
NMSCR	10	144	1	96	48	4
NMTAP	10	240	6
NMSTR	10	288	7
NMSI_	10	288	7	96	48	3
NMSTR	11	0	0
NMSCR	11	0	0	96	48	3
NMTAP	11	96	5
NMSTR	11	144	6
NMSCL	11	144	6	96	48	3
NMTAP	11	240	1
NMTAP	11	288	0
NMTAP	11	336	0
NMTAP	11	352	1
NMTAP	11	368	2
EXSTR	12	0	3
NMSCL	12	0	3	96	48	0
EXTAP	12	0	4
NMTAP	12	96	6
NMSTR	12	144	5
NMSCR	12	144	5	96	48	0
NMTAP	12	240	2
NMSTR	12	288	3
NMSI_	12	288	3	96	48	7
NMSTR	13	0	4
NMSCR	13	0	4	96	48	7
NMTAP	13	96	1
NMSTR	13	144	2
NMSCL	13	144	2	96	48	7
NMTAP	13	240	5
NMTAP	13	288	4
NMTAP	13	336	4
NMTAP	13	352	5
NMTAP	13	368	6
EXSTR	14	0	0
NMSI_	14	0	0	96	48	4
EXTAP	14	0	7
NMTAP	14	72	1
NMTAP	14	96	0
NMTAP	14	144	2
EXTAP	14	192	3
EXSTR	14	192	4
NMSI_	14	192	4	96	48	0
NMTAP	14	264	5
NMTAP	14	288	4
NMTAP	14	336	6
EXTAP	15	0	0
EXTAP	15	0	1
NMTAP	15	48	2
NMTAP	15	48	3
EXTAP	15	96	4
EXTAP	15	96	5
NMTAP	15	144	6
NMTAP	15	144	7
EXTAP	15	192	0
NMTAP	15	216	7
NMTAP	15	240	0
NMTAP	15	264	7
NMTAP	15	288	0
NMTAP	15	300	1
NMTAP	15	312	2
NMTAP	15	324	3
NMTAP	15	336	7
NMTAP	15	348	6
NMTAP	15	360	5
NMSTR	15	372	4
NMSI_	15	372	4	96	60	7
BXTAP	16	0	0
NMSTR	16	96	3
NMSI_	16	96	3	96	48	0
NMSTR	16	192	6
NMSI_	16	192	6	96	48	1
NMSTR	16	288	5
NMSI_	16	288	5	96	48	2
NMSTR	17	0	6
NMSCR	17	0	6	96	96	0
NMTAP	17	96	3
CNSI_	17	192	0	0	48	4
NMTAP	17	192	2
NMTAP	17	240	1
CNSI_	17	240	4	0	48	2
BRTAP	17	288	0
EXTAP	18	0	5
NMTAP	18	24	4
NMTAP	18	48	5
NMTAP	18	72	4
NMTAP	18	96	5
NMTAP	18	144	3
NMTAP	18	144	4
NMTAP	18	192	2
NMTAP	18	216	3
NMTAP	18	240	2
NMTAP	18	264	3
NMTAP	18	288	2
NMTAP	18	336	3
NMTAP	18	336	4
NMTAP	19	0	5
NMTAP	19	24	4
NMTAP	19	48	5
NMTAP	19	72	4
NMTAP	19	96	5
NMTAP	19	144	2
NMTAP	19	144	4
NMHLD	19	192	0	72
NMTAP	19	192	1
NMHLD	19	264	7	72
NMTAP	19	336	6
NMTAP	20	0	5
NMTAP	20	24	4
NMTAP	20	48	5
NMTAP	20	72	4
NMTAP	20	96	5
NMTAP	20	144	3
NMTAP	20	144	4
NMTAP	20	192	2
NMTAP	20	216	3
NMTAP	20	240	2
NMTAP	20	264	3
NMTAP	20	288	2
NMTAP	20	336	3
NMTAP	20	336	4
NMTAP	21	0	5
NMTAP	21	24	4
NMTAP	21	48	5
NMTAP	21	72	4
NMTAP	21	96	5
NMTAP	21	144	2
NMTAP	21	144	4
NMTAP	21	192	0
NMTAP	21	192	2
NMTAP	21	264	1
NMTAP	21	264	6
NMTAP	21	336	5
NMTAP	21	336	7
EXTAP	22	0	1
NMTAP	22	24	0
NMTAP	22	48	1
NMTAP	22	72	0
NMTAP	22	96	1
NMTAP	22	144	0
NMTAP	22	144	7
NMTAP	22	192	6
NMTAP	22	216	7
NMTAP	22	240	6
NMTAP	22	264	7
NMTAP	22	288	6
NMTAP	22	336	0
NMTAP	22	336	7
NMTAP	23	0	1
NMTAP	23	24	0
NMTAP	23	48	1
NMTAP	23	72	0
NMTAP	23	96	1
NMTAP	23	144	0
NMTAP	23	144	6
NMHLD	23	192	4	72
NMTAP	23	192	5
NMHLD	23	264	3	72
NMTAP	23	336	2
NMTAP	24	0	0
NMTAP	24	0	1
NMTAP	24	48	0
NMTAP	24	48	7
NMTAP	24	96	6
NMTAP	24	96	7
NMTAP	24	192	1
NMTAP	24	216	0
NMTAP	24	240	2
NMTAP	24	264	0
NMTAP	24	288	1
NMTAP	24	336	0
NMTAP	24	336	7
NMTAP	25	0	6
NMTAP	25	24	7
NMTAP	25	48	5
NMTAP	25	72	7
NMTAP	25	96	6
NMTAP	25	144	1
NMTAP	25	144	7
NMSTR	25	192	2
NMSUR	25	192	2	96	48	7
NMSTR	25	192	3
NMSCR	25	192	3	96	48	6
EXTAP	26	0	1
NMTAP	26	24	0
NMTAP	26	72	3
NMTAP	26	96	4
NMTAP	26	144	4
NMTAP	26	144	5
NMTAP	26	192	6
NMTAP	26	216	7
NMTAP	26	264	4
NMTAP	26	288	3
NMTAP	26	336	2
NMTAP	26	336	3
EXTAP	27	0	1
NMTAP	27	24	0
NMTAP	27	72	3
NMTAP	27	96	4
NMTAP	27	144	4
NMTAP	27	144	5
NMHLD	27	192	6	72
NMHLD	27	264	7	72
NMTAP	27	336	0
NMSTR	28	0	1
NMSI_	28	0	1	96	48	5
NMTAP	28	48	1
BRTAP	28	96	0
BRTAP	28	96	1
NMTAP	28	192	6
NMTAP	28	216	7
NMTAP	28	264	4
NMTAP	28	288	3
NMTAP	28	336	2
NMTAP	28	336	3
EXTAP	29	0	1
NMTAP	29	24	0
NMTAP	29	72	3
NMTAP	29	96	4
NMTAP	29	144	4
NMTAP	29	144	5
NMTAP	29	192	5
NMTAP	29	216	3
NMTAP	29	240	5
NMTAP	29	264	2
NMTAP	29	288	4
NMTAP	29	312	2
NMTAP	29	336	5
NMSTR	30	0	0
NMSI_	30	0	0	96	48	3
NMSTR	30	0	7
NMSI_	30	0	7	96	48	4
NMTAP	30	48	0
NMTAP	30	48	7
BRTAP	30	96	0
BRTAP	30	96	7
EXTAP	30	192	1
EXTAP	30	192	6
NMSTR	30	240	5
NMSI_	30	240	5	96	48	0
NMTAP	30	264	4
NMTAP	30	312	4
NMTAP	30	336	5
EXTAP	31	0	1
NMSTR	31	48	2
NMSI_	31	48	2	96	48	7
NMTAP	31	72	3
NMTAP	31	120	3
NMTAP	31	144	2
EXTAP	31	192	6
NMSTR	31	240	5
NMSI_	31	240	5	96	48	0
NMTAP	31	264	4
NMTAP	31	312	4
NMTAP	31	336	5
NMSTR	32	0	2
NMSI_	32	0	2	96	48	6
NMSTR	32	48	6
NMSI_	32	48	6	96	48	2
NMTAP	32	96	2
NMTAP	32	192	7
NMTAP	32	240	1
NMTAP	32	264	0
NMTAP	32	312	5
NMTAP	32	336	4
NMTAP	33	0	3
NMTAP	33	0	6
NMTAP	33	48	6
NMTAP	33	72	7
NMTAP	33	120	2
NMTAP	33	144	3
EXTAP	33	192	4
EXTAP	33	204	5
EXTAP	33	216	6
EXTAP	33	228	7
EXTAP	33	240	0
EXTAP	33	252	1
EXTAP	33	264	2
EXTAP	33	276	3
BXTAP	33	288	4
BRHLD	34	0	4	672
BRHLD	34	0	6	672
NMHLD	36	0	1	288
NMHLD	36	0	3	288
NMTAP	37	0	0
NMTAP	37	0	6
NMTAP	37	48	6
NMTAP	37	96	1
NMTAP	37	96	7
NMTAP	37	144	1
NMSTR	37	192	0
NMSI_	37	192	0	96	48	3
NMTAP	37	216	7
NMTAP	37	240	0
NMTAP	37	264	7
BRTAP	37	288	0
EXSTR	38	0	5
NMSCR	38	0	5	96	48	1
NMTAP	38	24	4
NMTAP	38	72	2
NMSTR	38	144	3
NMSLR	38	144	3	96	96	1
NMTAP	38	240	0
NMTAP	38	288	7
NMTAP	38	336	6
NMSTR	39	0	2
NMSCL	39	0	2	96	48	6
NMTAP	39	24	3
NMTAP	39	72	5
NMSTR	39	144	4
NMSLL	39	144	4	96	96	6
NMSTR	39	240	7
NMSI_	39	240	7	96	24	1
EXTAP	39	312	7
NMSTR	40	0	5
NMSCR	40	0	5	96	48	1
NMTAP	40	24	4
NMTAP	40	72	2
NMSTR	40	144	3
NMSLR	40	144	3	96	96	1
NMTAP	40	240	0
NMTAP	40	288	7
NMTAP	40	336	6
NMSTR	41	0	2
NMSCL	41	0	2	96	48	6
NMTAP	41	24	3
NMTAP	41	72	5
NMSTR	41	144	4
NMSLL	41	144	4	96	96	6
NMSTR	41	240	7
NMSI_	41	240	7	96	24	1
EXTAP	41	312	7
BRSTR	42	0	5
NMSUR	42	0	5	96	48	1
NMTAP	42	192	2
NMTAP	42	240	2
NMTAP	42	264	3
NMTAP	42	312	3
NMTAP	42	336	4
NMTAP	43	0	4
NMTAP	43	0	5
NMTAP	43	48	5
NMTAP	43	72	6
NMTAP	43	120	6
NMTAP	43	144	7
NMTAP	43	192	0
NMTAP	43	192	7
NMTAP	43	240	0
NMTAP	43	264	1
NMTAP	43	312	1
NMTAP	43	336	2
NMSTR	44	0	2
NMSI_	44	0	2	96	48	7
NMSTR	44	0	3
NMSI_	44	0	3	96	48	6
NMTAP	44	192	4
NMTAP	44	192	5
NMTAP	44	240	3
NMTAP	44	240	4
NMTAP	44	288	2
NMTAP	44	312	3
NMTAP	44	336	2
NMTAP	44	360	3
NMTAP	45	24	0
NMTAP	45	48	7
NMTAP	45	96	5
NMTAP	45	120	4
NMTAP	45	144	5
NMSTR	45	192	6
NMSV_	45	192	6	96	48	0
NMTAP	45	240	4
NMTAP	45	288	3
NMTAP	45	336	1
EXTAP	46	0	1
EXTAP	46	0	7
NMTAP	46	24	6
NMTAP	46	48	5
NMTAP	46	72	4
NMTAP	46	96	2
NMSTR	46	96	3
NMSI_	46	96	3	96	24	7
NMSTR	46	168	1
NMSI_	46	168	1	96	24	5
NMTAP	46	168	3
NMTAP	46	240	1
NMSTR	46	240	6
NMSI_	46	240	6	96	24	1
NMTAP	46	312	4
NMTAP	46	312	6
EXTAP	47	0	3
NMTAP	47	24	2
NMTAP	47	48	1
NMTAP	47	72	0
NMTAP	47	96	6
NMSTR	47	96	7
NMSI_	47	96	7	96	24	3
NMSTR	47	168	5
NMSI_	47	168	5	96	24	1
NMTAP	47	168	7
NMSTR	47	240	2
NMSI_	47	240	2	96	24	5
NMTAP	47	240	5
NMTAP	47	312	0
NMTAP	47	312	2
EXTAP	48	0	7
NMTAP	48	24	6
NMTAP	48	48	5
NMTAP	48	72	4
NMTAP	48	96	2
NMSTR	48	96	3
NMSI_	48	96	3	96	24	7
NMSTR	48	168	1
NMSI_	48	168	1	96	24	5
NMTAP	48	168	3
NMTAP	48	240	1
NMSTR	48	240	6
NMSI_	48	240	6	96	24	1
NMTAP	48	312	4
NMTAP	48	312	6
EXTAP	49	0	3
NMTAP	49	24	2
NMTAP	49	48	1
NMTAP	49	72	0
NMTAP	49	96	6
NMSTR	49	96	7
NMSI_	49	96	7	96	24	3
NMSTR	49	168	5
NMSI_	49	168	5	96	24	1
NMTAP	49	168	7
NMSTR	49	240	2
NMSI_	49	240	2	96	24	5
NMTAP	49	240	5
NMTAP	49	312	0
NMTAP	49	312	2
EXTAP	50	0	4
EXTAP	50	0	6
NMTAP	50	48	5
EXTAP	50	96	1
EXTAP	50	96	3
NMTAP	50	144	2
BRTAP	50	192	0
BRTAP	50	192	7
EXTAP	50	288	5
NMTAP	50	312	3
NMTAP	50	336	4
NMTAP	50	360	2
NMTAP	51	0	3
NMTAP	51	24	1
NMHLD	51	48	2	48
EXTAP	51	96	1
NMTAP	51	120	3
NMTAP	51	144	2
NMTAP	51	168	4
NMTAP	51	192	3
NMTAP	51	216	5
NMHLD	51	240	4	48
NMHLD	51	288	6	48
NMTAP	51	336	2
NMSTR	52	0	3
NMSI_	52	0	3	96	48	0
NMSTR	52	0	5
NMSI_	52	0	5	96	48	0
EXTAP	52	192	2
EXTAP	52	192	6
NMTAP	52	240	5
NMTAP	52	264	4
NMTAP	52	264	5
NMTAP	52	312	2
NMTAP	52	336	2
NMTAP	52	336	3
NMTAP	53	0	6
NMTAP	53	24	4
NMTAP	53	24	6
NMTAP	53	72	1
NMTAP	53	96	1
NMTAP	53	96	3
NMTAP	53	144	0
NMTAP	53	144	7
EXTAP	53	192	6
NMTAP	53	204	5
NMTAP	53	216	4
NMTAP	53	228	3
NMTAP	53	240	2
NMTAP	53	252	1
NMTAP	53	264	0
NMTAP	53	276	7
EXTAP	53	288	6
NMTAP	53	300	5
NMTAP	53	312	4
NMTAP	53	324	3
NMTAP	53	336	2
NMTAP	53	348	1
NMTAP	53	360	0
NMTAP	53	372	7
BXTAP	54	0	2
BXTAP	54	0	6
NMTAP	57	0	4
NMTAP	57	0	5
NMTTP	57	48	4	E	0	M1
NMTTP	57	72	6	E	0	M1
NMTTP	57	96	3	B	0	M1
NMTTP	57	120	6	B	0	M1
NMTTP	57	144	2	B	0	M1
NMTTP	57	168	7	B	0	M1
NMTHO	57	192	0	96	C	0	M1
NMTTP	58	0	4	B	0	M1
NMTTP	58	0	4	A	0	M1
NMTTP	58	96	5	B	0	M1
NMTTP	58	96	5	A	0	M1
NMTTP	58	192	6	B	0	M1
NMTTP	58	192	6	A	0	M1
NMTTP	58	288	7	B	0	M1
NMTTP	58	288	7	A	0	M1
NMTTP	59	0	0	B	0	M1
NMTTP	59	0	0	A	0	M1
NMTTP	59	96	1	B	0	M1
NMTTP	59	96	1	A	0	M1
NMTTP	59	192	2	B	0	M1
NMTTP	59	192	2	A	0	M1
NMTTP	59	288	3	B	0	M1
NMTTP	59	288	3	A	0	M1
NMTAP	60	0	4
NMTAP	60	0	5
NMTAP	60	48	4
NMTAP	60	48	5
NMTAP	60	96	6
NMTAP	60	96	7
NMTAP	60	144	6
NMTAP	60	144	7
NMTAP	60	192	0
NMTAP	60	216	7
NMTAP	60	240	0
NMTAP	60	264	7
NMTAP	60	288	0
NMTAP	60	312	7
NMTAP	60	336	0
NMTAP	60	360	7
NMTAP	61	0	0
NMTAP	61	12	1
NMTAP	61	24	2
NMTAP	61	36	3
NMTAP	61	48	4
NMTAP	61	60	5
NMTAP	61	72	6
NMTAP	61	84	7
NMTAP	61	96	0
NMTAP	61	108	1
NMTAP	61	120	2
NMTAP	61	132	3
NMTAP	61	144	4
NMTAP	61	156	5
NMTAP	61	168	6
NMTAP	61	180	7
NMTAP	61	192	0
NMTAP	61	204	1
NMTAP	61	216	2
NMTAP	61	228	3
NMTAP	61	240	4
NMTAP	61	252	5
NMTAP	61	264	6
NMTAP	61	276	7
BXSTR	61	288	0
NMSI_	61	288	0	96	336	4
BXTAP	61	288	4
NMTAP	62	0	6
NMTAP	62	96	1
NMSTR	62	192	5
NMSI_	62	192	5	96	48	7
NMTAP	62	240	6
BRTAP	62	288	5
EXSTR	63	0	1
NMSI_	63	0	1	96	48	5
EXTAP	63	0	7
NMTAP	63	96	1
NMSTR	63	96	7
NMSI_	63	96	7	96	48	3
NMSTR	63	192	4
NMSCL	63	192	4	96	48	1
NMTAP	63	192	7
NMSTR	63	264	4
NMSCR	63	264	4	96	48	7
NMTAP	63	336	4
NMSTR	64	0	0
NMSI_	64	0	0	96	48	4
NMTAP	64	96	0
NMSTR	64	96	6
NMSI_	64	96	6	96	48	2
NMSTR	64	192	3
NMSCL	64	192	3	96	48	0
NMSCR	64	192	3	96	48	6
NMTAP	64	192	6
NMTAP	64	288	3
EXTAP	65	0	2
EXSTR	65	0	6
NMSI_	65	0	6	96	48	2
NMTAP	65	96	0
NMTAP	65	96	6
NMTAP	65	192	1
NMTAP	65	192	3
NMTAP	65	216	1
NMTAP	65	216	3
NMSTR	65	264	3
NMSCL	65	264	3	96	48	0
NMTAP	65	264	4
NMTAP	65	336	7
NMTAP	65	352	6
NMTAP	65	368	5
NMTAP	66	0	4
NMTAP	66	48	4
BRSTR	66	96	3
NMSI_	66	96	3	96	48	6
BRTAP	66	96	5
NMTAP	66	192	2
NMSTR	66	192	3
NMSI_	66	192	3	96	48	0
NMTAP	66	288	3
NMSTR	66	288	7
NMSI_	66	288	7	96	48	4
NMTAP	67	0	6
NMSTR	67	0	7
NMSI_	67	0	7	96	48	2
NMTAP	67	96	1
NMTAP	67	96	7
NMTAP	67	192	3
NMTAP	67	192	4
NMTAP	67	240	6
NMTAP	67	264	6
NMTAP	67	264	7
NMTAP	67	312	1
NMTAP	67	336	0
NMTAP	67	336	1
NMSTR	68	0	2
NMSI_	68	0	2	96	48	6
NMSTR	68	0	7
NMSI_	68	0	7	96	48	3
NMTAP	68	32	2
NMTAP	68	32	7
NMTAP	68	64	2
NMTAP	68	64	7
NMTAP	68	96	2
NMTAP	68	96	7
NMHLD	68	192	4	32
NMHLD	68	192	5	32
NMHLD	68	256	3	32
NMHLD	68	256	4	32
NMHLD	68	320	2	32
NMHLD	68	320	3	32
NMSTR	69	0	1
NMSF_	69	0	1	96	144	5
BRTAP	69	288	3
BRTAP	69	288	7
EXTAP	70	0	0
EXTAP	70	0	1
NMSTR	70	48	2
NMSI_	70	48	2	96	48	6
NMTAP	70	72	3
NMTAP	70	120	5
NMTAP	70	144	6
NMTAP	70	168	7
NMTAP	70	192	0
NMSTR	70	240	5
NMSI_	70	240	5	96	48	1
NMTAP	70	264	4
NMTAP	70	312	2
NMTAP	70	336	1
NMTAP	70	360	0
NMTAP	71	0	7
NMTAP	71	48	2
NMTAP	71	72	4
NMSTR	71	96	3
NMSCL	71	96	3	96	48	0
NMTAP	71	144	2
NMTAP	71	144	5
NMTAP	71	192	3
NMTAP	71	192	4
NMTAP	71	208	5
NMTAP	71	224	6
NMTAP	71	240	7
EXTAP	71	288	1
EXTAP	71	288	7
NMTAP	71	336	2
NMTAP	71	336	6
NMTAP	72	0	3
NMTAP	72	0	5
NMSTR	72	48	5
NMSI_	72	48	5	96	48	1
NMTAP	72	72	4
NMTAP	72	120	2
NMTAP	72	144	1
NMTAP	72	168	0
NMTAP	72	192	7
NMSTR	72	240	2
NMSI_	72	240	2	96	48	6
NMTAP	72	264	3
NMTAP	72	312	5
NMTAP	72	336	6
NMTAP	72	360	7
NMTAP	73	0	0
NMTAP	73	48	5
NMTAP	73	72	3
NMSTR	73	96	4
NMSCR	73	96	4	96	48	7
NMTAP	73	144	2
NMTAP	73	144	5
NMTAP	73	192	3
NMTAP	73	192	4
NMTAP	73	208	2
NMTAP	73	224	1
NMTAP	73	240	0
EXTAP	73	288	6
NMTAP	73	312	7
NMTAP	73	336	6
NMTAP	73	360	7
BRTAP	74	0	6
BRTAP	74	48	4
BRTAP	74	48	5
BRTAP	74	96	3
BRTAP	74	96	6
NMTAP	74	192	0
NMTAP	74	192	1
NMSTR	74	240	2
NMSI_	74	240	2	96	48	6
NMTAP	74	264	3
NMTAP	74	312	5
NMTAP	74	336	6
NMTAP	74	360	7
NMTAP	75	0	0
NMTAP	75	48	5
NMTAP	75	72	3
NMSTR	75	96	4
NMSCR	75	96	4	96	48	7
NMTAP	75	144	2
NMTAP	75	144	5
NMTAP	75	192	3
NMTAP	75	192	4
NMTAP	75	208	2
NMTAP	75	224	1
NMTAP	75	240	0
EXTAP	75	288	0
EXTAP	75	288	6
NMTAP	75	336	1
NMTAP	75	336	5
NMTAP	76	0	2
NMTAP	76	0	4
NMTAP	76	48	2
NMTAP	76	72	3
NMTAP	76	120	3
BRTAP	76	144	0
NMTAP	76	192	6
NMTAP	76	192	7
NMTAP	76	240	5
NMTAP	76	264	4
NMTAP	76	312	4
BRTAP	76	336	7
NMTAP	77	0	0
NMTAP	77	0	1
NMTAP	77	48	2
NMTAP	77	72	1
NMTAP	77	72	3
NMTAP	77	120	5
NMTAP	77	144	4
NMTAP	77	144	6
EXTAP	77	192	0
EXTAP	77	192	7
NMTAP	77	204	1
NMTAP	77	216	2
NMTAP	77	228	3
NMTAP	77	240	4
NMTAP	77	252	5
NMTAP	77	264	6
NMTAP	77	276	7
EXTAP	77	288	0
EXTAP	77	288	4
NMTAP	78	0	2
NMTAP	78	0	7
BRTAP	78	48	0
BRTAP	78	48	1
NMTAP	78	64	2
NMTAP	78	64	7
NMTAP	78	80	3
NMTAP	78	80	6
NMTAP	78	96	4
NMTAP	78	96	5
NMSTR	78	192	6
BRSCL	78	192	6	96	48	3
NMSTR	78	192	7
BRSCR	78	192	7	96	48	2
BRTAP	79	0	4
BRTAP	79	0	5
BRTAP	79	48	0
BRTAP	79	48	7
BRTAP	79	96	2
BRTAP	79	96	3
NMTAP	79	192	3
NMTAP	79	192	6
NMTAP	79	264	1
NMTAP	79	288	1
NMTAP	79	288	4
NMTAP	79	336	0
NMTAP	79	336	5
NMTAP	80	0	6
NMSTR	80	0	7
NMSI_	80	0	7	96	48	3
NMTAP	80	24	6
NMTAP	80	24	7
NMTAP	80	72	0
NMTAP	80	72	7
NMTAP	80	96	0
NMTAP	80	96	7
NMTAP	80	192	1
NMTAP	80	240	0
NMTAP	80	240	7
NMTAP	80	288	5
NMTAP	80	288	6
NMTAP	80	336	3
NMTAP	80	336	4
NMTAP	81	0	2
NMTAP	81	0	5
NMSTR	81	48	1
NMSI_	81	48	1	96	48	4
NMTAP	81	72	0
NMTAP	81	120	0
NMTAP	81	144	1
NMTAP	81	160	7
NMTAP	81	176	6
NMTAP	81	192	5
NMTAP	81	240	2
NMTAP	81	264	3
NMTAP	81	288	1
NMTAP	81	312	4
NMTAP	81	336	0
EXTAP	82	0	1
EXTAP	82	0	6
NMSTR	82	48	5
NMSI_	82	48	5	96	48	1
NMTAP	82	72	4
NMTAP	82	120	2
NMTAP	82	144	1
NMTAP	82	168	0
NMSTR	82	192	7
NMSI_	82	192	7	96	48	3
NMTAP	82	240	4
NMTAP	82	256	5
NMTAP	82	272	6
NMTAP	82	288	0
NMTAP	82	288	7
EXTAP	83	0	1
EXTAP	83	0	4
NMSTR	83	48	2
NMSI_	83	48	2	96	48	6
NMTAP	83	72	3
NMTAP	83	120	5
NMTAP	83	144	6
NMTAP	83	168	7
NMSTR	83	192	0
NMSI_	83	192	0	96	48	4
NMTAP	83	240	3
NMTAP	83	256	2
NMTAP	83	272	1
NMTAP	83	288	0
NMTAP	83	288	7
EXTAP	84	0	3
EXTAP	84	0	6
NMSTR	84	48	5
NMSI_	84	48	5	96	48	1
NMTAP	84	72	4
NMTAP	84	120	2
NMTAP	84	144	1
NMTAP	84	168	0
EXTAP	84	192	7
NMSTR	84	240	7
NMSI_	84	240	7	96	48	3
NMTAP	84	264	6
NMTAP	84	312	3
NMTAP	84	336	4
NMTAP	84	360	5
EXSTR	85	0	6
NMSI_	85	0	6	96	48	2
NMTAP	85	48	2
NMTAP	85	72	2
NMTAP	85	120	1
NMTAP	85	144	1
EXTAP	85	192	0
EXTAP	85	192	4
NMTAP	85	216	1
NMTAP	85	216	5
NMTAP	85	240	2
NMTAP	85	240	6
NMTAP	85	264	3
NMTAP	85	264	7
NMSTR	85	288	0
NMSI_	85	288	0	96	48	4
NMSTR	85	288	4
NMSI_	85	288	4	96	48	0
NMTAP	85	336	2
NMTAP	85	336	6
BRTAP	86	0	0
BRTAP	86	0	4
NMTAP	86	96	3
NMTAP	86	96	7
BRSTR	86	144	1
NMSI_	86	144	1	96	48	6
BRSTR	86	144	5
NMSI_	86	144	5	96	48	2
CNSCR	86	288	2	0	864	5
CNSCR	86	288	6	0	864	1

T_REC_TAP	592
T_REC_BRK	29
T_REC_XTP	64
T_REC_BXX	9
T_REC_HLD	39
T_REC_XHO	0
T_REC_BHO	2
T_REC_BXH	6
T_REC_STR	86
T_REC_BST	4
T_REC_XST	8
T_REC_XBS	1
T_REC_TTP	22
T_REC_THO	1
T_REC_SLD	98
T_REC_BSL	2
T_REC_ALL	963
T_NUM_TAP	772
T_NUM_BRK	53
T_NUM_HLD	40
T_NUM_SLD	98
T_NUM_ALL	963
T_JUDGE_TAP	815
T_JUDGE_HLD	115
T_JUDGE_SLD	100
T_JUDGE_ALL	1030
TTM_EACHPAIRS	186
TTM_SCR_TAP	386000
TTM_SCR_BRK	137800
TTM_SCR_HLD	40000
TTM_SCR_SLD	147000
TTM_SCR_ALL	710800
TTM_SCR_S	684350
TTM_SCR_SS	705500
TTM_RAT_ACV	10075

