VERSION	0.00.00	1.04.00
FES_MODE	0
BPM_DEF	170.000	170.000	170.000	170.000
MET_DEF	4	4
RESOLUTION	384
CLK_DEF	384
COMPATIBLE_CODE	MA2

BPM	0	0	170.000
MET	0	0	4	4

NMTHO	1	0	0	384	C	1	M1
BXTAP	2	0	7
BXHLD	2	144	0	240
BXHLD	2	144	7	384
NMHLD	4	0	5	384
NMHLD	4	144	4	384
BXTAP	6	0	2
BXTAP	6	0	4
BXTAP	6	72	2
BXTAP	6	72	4
BXHLD	6	144	1	384
BXHLD	6	144	5	240
NMHLD	8	0	2	384
NMHLD	8	144	4	528
NMHLD	9	144	3	144
NMHLD	10	0	5	384
NMTAP	10	144	4
NMTAP	10	288	4
NMHLD	11	0	4	384
NMTAP	11	144	3
NMTAP	11	288	3
NMHLD	12	0	3	384
NMTAP	12	144	2
NMTAP	12	288	2
NMHLD	13	0	2	288
NMTAP	13	144	3
NMTAP	13	288	3
NMTAP	14	0	2
NMTAP	14	0	3
NMTAP	14	96	2
NMTAP	14	96	3
NMTAP	14	192	1
NMTAP	14	192	4
NMTAP	14	288	1
NMTAP	14	288	4
NMTAP	15	0	0
NMTAP	15	48	0
NMTAP	15	96	0
NMTAP	15	144	0
NMTAP	15	192	7
NMTAP	15	240	7
NMTAP	15	288	7
NMTAP	15	336	7
EXHLD	16	0	0	576
EXHLD	16	0	6	384
NMSTR	17	192	7
NMSI_	17	192	7	96	48	3
BXTAP	18	0	2
BXTAP	18	0	4
NMTAP	18	96	0
EXTAP	18	96	1
EXTAP	18	192	2
NMTAP	18	192	4
NMTAP	18	288	0
EXTAP	18	288	7
EXTAP	19	0	3
NMTAP	19	0	5
EXTAP	19	96	6
NMTAP	19	96	7
NMHLD	19	192	5	72
NMHLD	19	264	3	72
NMTAP	19	336	4
BXTAP	20	0	4
EXTAP	20	96	2
NMTAP	20	96	6
NMTAP	20	192	4
EXTAP	20	192	5
EXTAP	20	288	1
NMTAP	20	288	6
NMTAP	21	0	2
EXTAP	21	0	3
NMTAP	21	96	1
EXTAP	21	96	6
NMHLD	21	192	5	72
NMTAP	21	264	4
NMTAP	21	336	3
NMTAP	21	336	6
BXTAP	22	0	3
BXTAP	22	0	6
EXTAP	22	96	2
NMTAP	22	96	4
NMTAP	22	192	3
EXTAP	22	192	6
EXTAP	22	288	1
NMTAP	22	288	4
NMTAP	23	0	6
EXTAP	23	0	7
NMTAP	23	96	3
EXTAP	23	96	4
NMHLD	23	192	1	72
NMHLD	23	264	7	72
NMTAP	23	336	0
EXTAP	24	0	0
EXTAP	24	0	6
EXTAP	24	48	0
EXTAP	24	48	6
BXTAP	24	96	0
BXTAP	24	96	6
EXTAP	24	192	1
NMTAP	24	192	3
NMTAP	24	288	4
EXTAP	24	288	5
EXTAP	25	0	0
NMTAP	25	0	7
NMHLD	25	96	1	72
EXHLD	25	96	6	72
EXTAP	25	240	2
EXTAP	25	240	5
EXTAP	25	288	2
EXTAP	25	288	5
BXTAP	26	0	1
BXTAP	26	0	4
EXTAP	26	96	0
NMTAP	26	96	7
EXTAP	26	192	3
NMTAP	26	192	6
NMTAP	26	288	0
EXTAP	26	288	7
NMTAP	27	0	2
EXTAP	27	0	4
EXTAP	27	96	6
NMTAP	27	96	7
NMHLD	27	192	5	72
NMTAP	27	264	4
NMTAP	27	336	3
BXTAP	28	0	2
NMTAP	28	0	4
NMTAP	28	48	2
BXTAP	28	48	4
BXTAP	28	96	2
NMTAP	28	96	4
NMTAP	28	192	6
EXTAP	28	192	7
EXTAP	28	288	3
NMTAP	28	288	5
NMTAP	29	0	0
EXTAP	29	0	1
NMTAP	29	96	2
EXTAP	29	96	4
BXTAP	29	192	4
BXTAP	29	264	3
BXTAP	29	264	5
BXTAP	29	336	2
BXTAP	29	336	6
BXHLD	30	0	2	96
BXHLD	30	0	6	96
NMSTR	30	192	7
NMSCL	30	192	7	96	192	2
NMHLD	30	288	1	192
EXTAP	31	192	1
NMSTR	31	288	0
NMSCR	31	288	0	96	192	5
NMHLD	32	0	6	192
EXTAP	32	288	6
NMTAP	33	0	0
NMHLD	33	0	7	384
NMTHO	33	192	0	192	C	1	M1
NMTAP	36	0	0
NMHLD	36	0	7	384
NMTHO	37	0	0	192	C	0	M1
EXTAP	37	288	1
EXTAP	37	288	6
NMHLD	38	0	0	96
NMHLD	38	0	1	96
BXTAP	38	144	0
BXTAP	38	144	1
NMTAP	38	288	2
NMHLD	39	0	1	96
NMHLD	39	0	3	96
BXHLD	39	144	1	96
BXHLD	39	144	3	168
BXHLD	40	0	2	96
BXHLD	40	0	3	96
BXTAP	40	144	2
BXTAP	40	144	3
NMTAP	40	288	3
NMTAP	40	288	4
BXHLD	41	0	4	96
BXHLD	41	0	6	96
BXHLD	41	144	4	96
BXHLD	41	144	6	168
BXTAP	42	0	4
BXTAP	42	0	6
NMTAP	42	96	7
NMSTR	42	192	0
NMSCR	42	192	0	96	192	5
NMTAP	42	192	7
NMHLD	42	288	6	192
EXTAP	43	192	6
NMTAP	43	288	6
NMTAP	43	288	7
NMTAP	44	0	5
NMTAP	44	96	4
NMTAP	44	96	5
NMSTR	44	192	3
NMSCL	44	192	3	96	192	6
NMHLD	44	288	4	192
EXTAP	45	192	4
EXTAP	45	192	5
BXHLD	46	0	6	96
BXTAP	46	96	7
BXTAP	46	168	6
BXTAP	46	168	7
BXTAP	46	240	6
BXTAP	46	240	7
BXTAP	46	312	0
BXTAP	46	312	1
BXHLD	47	0	2	96
BXTAP	47	96	3
BXTAP	47	168	2
BXTAP	47	168	3
BXTAP	47	240	2
BXTAP	47	240	3
BXTAP	47	312	4
BXTAP	47	312	5
BXHLD	48	0	6	96
BRTAP	48	96	4
BRTAP	48	168	4
BRTAP	48	168	6
BRTAP	48	240	3
BRTAP	48	240	4
BRTAP	48	312	1
BRTAP	48	312	3
BXHLD	49	0	0	96
BRTAP	49	96	4
BRTAP	49	168	1
BRTAP	49	168	3
BRTAP	49	240	3
BRTAP	49	240	4
BRTAP	49	312	4
BRTAP	49	312	6
BXHLD	50	0	7	96
BXTAP	50	96	0
NMTAP	50	192	1
NMSTR	50	192	6
NMSCL	50	192	6	96	192	0
NMHLD	50	288	2	192
EXTAP	51	192	0
NMSTR	51	288	1
NMSCR	51	288	1	96	96	4
NMSTR	51	288	7
NMSCL	51	288	7	96	96	4
NMHLD	52	192	6	72
NMHLD	52	264	5	72
NMHLD	52	336	4	72
NMHLD	53	24	3	72
NMTAP	53	96	2
NMTHO	53	168	0	216	C	1	M1
NMTTP	54	0	1	B	0	M1
NMTTP	54	0	2	B	0	M1
NMTTP	54	0	5	B	0	M1
NMTTP	54	0	6	B	0	M1
NMSTR	56	0	7
NMSCL	56	0	7	96	288	4
NMSTR	57	0	0
NMSCR	57	0	0	96	288	3
NMHLD	58	0	4	144
NMTAP	58	288	4
NMHLD	59	0	3	144
NMHLD	59	0	4	144
NMTAP	59	288	3
NMTAP	59	288	4
NMTAP	60	0	5
NMTAP	60	48	5
NMTAP	60	96	3
NMTAP	60	144	3
NMTAP	60	192	4
NMTAP	60	240	4
NMTAP	60	288	2
NMTAP	60	336	2
NMTTP	61	0	0	C	1	M1
NMSTR	61	288	0
NMSF_	61	288	0	96	192	4
NMTAP	61	288	7
BRTAP	62	288	2
BRTAP	62	288	6
BXTAP	63	0	2
BXTAP	63	0	6
EXTAP	63	96	0
NMTAP	63	96	1
BXTAP	63	192	2
NMTAP	63	192	4
NMTAP	63	264	4
BXTAP	63	264	5
BXTAP	63	336	3
NMTAP	63	336	6
NMTAP	64	0	3
BXTAP	64	0	6
NMTAP	64	96	6
EXTAP	64	96	7
NMTAP	64	192	1
EXTAP	64	192	2
NMTAP	64	288	4
EXTAP	64	288	5
NMTAP	65	0	0
BXTAP	65	0	1
EXTAP	65	96	6
NMTAP	65	96	7
NMTAP	65	192	3
BXTAP	65	192	5
BXTAP	65	264	2
NMTAP	65	264	3
NMTAP	65	336	1
BXTAP	65	336	4
BXTAP	66	0	1
NMTAP	66	0	4
BRTAP	66	96	6
BRTAP	66	96	7
BRTAP	66	192	4
BRTAP	66	192	5
BRTAP	66	288	0
BRTAP	66	288	1
BRTAP	67	0	5
BRTAP	67	0	6
BRTAP	67	96	2
BRTAP	67	96	3
NMHLD	67	192	1	72
EXHLD	67	192	7	72
EXTAP	67	336	1
NMTAP	67	336	7
BXTAP	68	0	0
BXTAP	68	32	0
BXTAP	68	64	7
BXTAP	68	96	7
BXTAP	68	192	1
BXTAP	68	192	6
BXTAP	68	256	2
BXTAP	68	256	5
BXTAP	68	320	3
BXTAP	68	320	4
EXHLD	69	0	3	144
EXHLD	69	0	4	144
NMTAP	69	192	3
NMTAP	69	192	4
NMTAP	69	288	1
NMSTR	69	288	6
NMSI_	69	288	6	96	48	3
BRSTR	70	0	2
BRSI_	70	0	2	96	48	7
BRSTR	70	96	4
BRSI_	70	96	4	96	48	1
BRSTR	70	192	3
BRSI_	70	192	3	96	48	6
BRSTR	70	288	5
BRSI_	70	288	5	96	48	0
BRSTR	71	0	2
BRSI_	71	0	2	96	48	7
BRSTR	71	96	6
BRSI_	71	96	6	96	48	3
BRTAP	71	192	0
BRSTR	71	288	0
BRSI_	71	288	0	96	48	5
BRTAP	71	288	1
BRSTR	72	0	4
BRSI_	72	0	4	96	48	1
BRSTR	72	96	3
BRSI_	72	96	3	96	48	6
BRSTR	72	192	7
BRSI_	72	192	7	96	48	2
BRSTR	72	288	0
BRSI_	72	288	0	96	48	5
BRSTR	73	0	4
BRSI_	73	0	4	96	48	1
BRSTR	73	96	3
BRSI_	73	96	3	96	48	6
BRTAP	73	192	0
BRTAP	73	288	1
BRTAP	73	288	7
BXTAP	74	0	2
BRTAP	74	0	6
BRTAP	74	48	2
BXTAP	74	48	6
BXSTR	74	96	2
BRSI_	74	96	2	96	48	7
BRTAP	74	96	6
BRSTR	74	192	4
BRSI_	74	192	4	96	48	1
BRSTR	74	288	0
BRSI_	74	288	0	96	48	5
BRSTR	75	0	6
BRSI_	75	0	6	96	48	3
BRSTR	75	96	2
BRSI_	75	96	2	96	48	7
BRTAP	75	192	4
BRTAP	75	288	0
BRTAP	75	288	5
BXTAP	76	0	2
BXHLD	76	0	6	336
BXTAP	76	144	4
EXHLD	76	192	4	144
BXTAP	77	0	4
BXTAP	77	0	6
BXTAP	77	72	2
BXTAP	77	72	3
BXTAP	77	144	0
BXTAP	77	144	1
BXSTR	77	192	0
BRSI_	77	192	0	96	48	4
BXSTR	77	192	1
BRSI_	77	192	1	96	48	5
BRTAP	78	0	3
BRTAP	78	0	6
BRTAP	78	48	3
BRTAP	78	48	6
BRTAP	78	96	2
BRTAP	78	96	7
BRTAP	79	0	2
BRTAP	79	0	3
BRTAP	79	48	2
BRTAP	79	48	3
BRTAP	79	96	2
BRTAP	79	96	3
BXTAP	79	192	1
BRTAP	79	192	4
BRTAP	79	264	3
BXTAP	79	264	6
BXTAP	79	336	2
BRTAP	79	336	5
BXTAP	80	0	0
BXTAP	80	24	7
BXTAP	80	72	7
BXTAP	80	96	0
BXTAP	80	192	1
BRTAP	80	192	6
BRTAP	80	240	1
BXTAP	80	240	6
BXTAP	80	288	0
BRTAP	80	288	5
BRTAP	80	336	0
BXTAP	80	336	5
BRTAP	81	0	6
BXTAP	81	0	7
BRTAP	81	72	3
BXTAP	81	72	5
BRTAP	81	144	0
BXTAP	81	144	1
BXTAP	81	192	0
BRTAP	81	192	1
BXTAP	81	264	2
BRTAP	81	264	4
BRTAP	81	312	2
BXTAP	81	312	4
BXHLD	82	0	6	48
BRHLD	82	0	7	48
BXHLD	82	72	0	48
BRHLD	82	72	5	48
BRTAP	82	144	1
BXTAP	82	144	4
BXTAP	82	192	1
BRSTR	82	192	4
BRSI_	82	192	4	96	48	7
BRHLD	83	0	0	48
BXHLD	83	0	1	48
BRHLD	83	72	2	48
BXHLD	83	72	7	48
BXTAP	83	144	3
BRTAP	83	144	6
BRTAP	83	192	3
BXTAP	83	192	6
BRHLD	84	0	6	48
BRHLD	84	0	7	48
BRHLD	84	72	4	48
BRHLD	84	72	6	48
BRTAP	84	144	3
BRTAP	84	144	4
BRHLD	84	192	1	48
BRHLD	84	192	3	48
BRHLD	84	264	0	48
BRHLD	84	264	1	48
BRTAP	84	336	2
BRTAP	84	336	7
BRSTR	85	0	3
BRSI_	85	0	3	96	48	0
BRSTR	85	0	6
BRSI_	85	0	6	96	48	3
BRSTR	85	192	7
BRSF_	85	192	7	96	48	3
BRTAP	86	0	1
BRTAP	86	0	6
NMTTP	86	144	0	B	0	M1
NMTTP	86	144	0	C	1	M1
NMTTP	86	144	0	E	0	M1
NMTTP	86	144	0	A	0	M1
NMTTP	86	144	0	D	0	M1
NMTTP	86	144	1	B	0	M1
NMTTP	86	144	1	E	0	M1
NMTTP	86	144	1	A	0	M1
NMTTP	86	144	1	D	0	M1
NMTTP	86	144	2	B	0	M1
NMTTP	86	144	2	E	0	M1
NMTTP	86	144	2	D	0	M1
NMTTP	86	144	3	B	0	M1
NMTTP	86	144	4	B	0	M1
NMTTP	86	144	5	B	0	M1
NMTTP	86	144	6	B	0	M1
NMTTP	86	144	6	E	0	M1
NMTTP	86	144	6	A	0	M1
NMTTP	86	144	6	D	0	M1
NMTTP	86	144	7	B	0	M1
NMTTP	86	144	7	E	0	M1
NMTTP	86	144	7	A	0	M1
NMTTP	86	144	7	D	0	M1

T_REC_TAP	105
T_REC_BRK	71
T_REC_XTP	49
T_REC_BXX	95
T_REC_HLD	35
T_REC_XHO	7
T_REC_BHO	12
T_REC_BXH	24
T_REC_STR	12
T_REC_BST	21
T_REC_XST	0
T_REC_XBS	3
T_REC_TTP	28
T_REC_THO	4
T_REC_SLD	12
T_REC_BSL	24
T_REC_ALL	502
T_NUM_TAP	194
T_NUM_BRK	250
T_NUM_HLD	46
T_NUM_SLD	12
T_NUM_ALL	502
T_JUDGE_TAP	384
T_JUDGE_HLD	282
T_JUDGE_SLD	36
T_JUDGE_ALL	702
TTM_EACHPAIRS	161
TTM_SCR_TAP	97000
TTM_SCR_BRK	650000
TTM_SCR_HLD	46000
TTM_SCR_SLD	18000
TTM_SCR_ALL	811000
TTM_SCR_S	762450
TTM_SCR_SS	786000
TTM_RAT_ACV	10318

