VERSION	0.00.00	1.04.00
FES_MODE	0
BPM_DEF	130.000	130.000	130.000	130.000
MET_DEF	4	4
RESOLUTION	384
CLK_DEF	384
COMPATIBLE_CODE	MA2

BPM	0	0	130.000
MET	0	0	4	4

NMSTR	1	0	3
NMSI_	1	0	3	96	192	7
NMHLD	2	0	5	144
NMTAP	2	144	4
NMTAP	2	240	3
NMTAP	2	288	3
NMHLD	3	0	2	144
NMHLD	3	144	4	96
NMTAP	3	240	3
NMTAP	3	288	3
NMHLD	4	0	5	144
NMHLD	4	144	4	144
NMTAP	4	288	3
NMTAP	5	0	2
NMTAP	5	0	3
NMTAP	5	96	4
NMTAP	5	144	3
NMTAP	5	144	5
NMTAP	5	240	3
NMTAP	5	288	2
NMTAP	5	288	4
NMHLD	6	0	2	144
NMTAP	6	144	3
NMTAP	6	240	4
NMTAP	6	288	4
NMHLD	7	0	5	144
NMHLD	7	144	3	96
NMTAP	7	240	4
NMTAP	7	288	4
NMHLD	8	0	2	144
NMHLD	8	144	3	144
NMTAP	8	288	4
NMTAP	9	0	4
NMTAP	9	0	5
NMTAP	9	96	3
NMTAP	9	96	4
NMTAP	9	144	3
NMTAP	9	160	4
NMTAP	9	176	3
NMTAP	9	192	5
NMTAP	9	216	5
NMTAP	9	240	4
BRTAP	9	288	3
BRTAP	9	288	6
NMTAP	10	0	4
NMTAP	10	0	5
NMTAP	10	72	4
NMTAP	10	96	5
NMTAP	10	144	4
NMTAP	10	192	5
NMTAP	10	216	4
NMTAP	10	240	4
NMTAP	10	288	4
NMTAP	10	288	5
NMTAP	10	336	4
NMTAP	10	352	5
NMTAP	10	368	4
NMTAP	11	0	6
NMTAP	11	72	4
NMTAP	11	96	6
NMTAP	11	144	4
NMTAP	11	192	6
NMTAP	11	216	4
NMTAP	11	240	4
NMTAP	11	288	3
NMTAP	11	288	5
NMTAP	12	0	2
NMTAP	12	0	3
NMTAP	12	72	3
NMTAP	12	96	2
NMTAP	12	144	3
NMTAP	12	192	2
NMTAP	12	216	3
NMTAP	12	240	3
NMTAP	12	288	2
NMTAP	12	288	3
NMTAP	12	336	3
NMTAP	12	352	2
NMTAP	12	368	3
NMTAP	13	0	1
NMTAP	13	72	3
NMTAP	13	96	1
NMTAP	13	144	3
NMTAP	13	192	1
NMTAP	13	216	3
NMTAP	13	240	3
BRTAP	13	288	0
BRTAP	13	288	4
EXTAP	14	0	1
EXHLD	14	0	3	48
NMTAP	14	48	1
NMTAP	14	96	2
NMHLD	14	96	4	48
NMTAP	14	144	2
NMTAP	14	192	3
NMHLD	14	192	5	48
NMTAP	14	240	3
NMTAP	14	288	4
NMHLD	14	288	6	48
NMTAP	14	336	4
NMTAP	15	0	5
NMHLD	15	0	7	48
NMTAP	15	48	5
NMHLD	15	96	0	48
NMTAP	15	96	6
NMTAP	15	144	6
NMHLD	15	192	1	48
NMTAP	15	192	7
NMTAP	15	240	7
NMTAP	15	288	0
NMHLD	15	288	2	48
NMTAP	15	336	0
NMTAP	16	0	1
NMTAP	16	24	1
NMTAP	16	48	2
NMTAP	16	72	2
NMTAP	16	96	3
NMTAP	16	120	3
NMTAP	16	144	4
NMTAP	16	168	4
NMTAP	16	192	5
NMTAP	16	216	5
NMTAP	16	240	6
NMTAP	16	264	6
NMTAP	16	288	7
NMTAP	16	312	7
NMTAP	16	336	0
NMHLD	17	0	1	48
NMHLD	17	0	2	48
NMHLD	17	72	4	48
NMHLD	17	72	5	48
NMHLD	17	144	6	48
NMHLD	17	144	7	48
NMHLD	17	216	0	48
NMHLD	17	216	3	48
BRTAP	17	288	1
BRTAP	17	288	5
NMTAP	18	0	2
NMTAP	18	0	3
NMTAP	18	96	1
NMTAP	18	112	0
NMTAP	18	128	1
NMTAP	18	144	0
NMTAP	18	160	1
NMTAP	18	176	0
NMHLD	18	192	2	72
NMHLD	18	264	3	72
NMTAP	18	336	4
NMTAP	19	0	4
NMHLD	19	0	5	96
NMTAP	19	48	7
NMHLD	19	96	4	96
NMTAP	19	144	7
NMHLD	19	192	5	48
NMTAP	19	240	7
NMTAP	19	288	0
NMTAP	19	288	4
NMTAP	20	0	3
NMTAP	20	0	6
NMTAP	20	96	5
NMTAP	20	112	4
NMTAP	20	128	5
NMTAP	20	144	3
NMTAP	20	168	3
NMTAP	20	192	4
NMTAP	20	240	2
NMTAP	20	264	2
NMTAP	20	288	3
NMTAP	20	336	1
NMTAP	20	336	3
NMHLD	21	0	2	96
NMTAP	21	48	0
NMHLD	21	96	3	96
NMTAP	21	144	0
NMTAP	21	192	2
NMTAP	21	216	2
NMTAP	21	240	3
BRTAP	21	288	1
BRTAP	21	288	4
NMTAP	22	0	2
NMTAP	22	0	3
NMTAP	22	96	1
NMTAP	22	112	0
NMTAP	22	128	1
NMTAP	22	144	0
NMTAP	22	160	1
NMTAP	22	176	0
NMHLD	22	192	2	72
NMHLD	22	264	3	72
NMTAP	22	336	4
NMTAP	23	0	4
NMHLD	23	0	5	96
NMTAP	23	48	7
NMHLD	23	96	4	96
NMTAP	23	144	7
NMHLD	23	192	5	48
NMTAP	23	240	7
NMTAP	23	288	0
NMTAP	23	288	4
NMTAP	24	0	2
NMTAP	24	24	3
NMTAP	24	48	1
NMHLD	24	72	1	48
NMTAP	24	120	3
NMTAP	24	144	2
NMHLD	24	168	5	48
NMTAP	24	216	3
NMTAP	24	240	4
NMHLD	24	264	1	48
NMTAP	24	312	3
NMTAP	24	336	3
NMTAP	25	0	5
NMTAP	25	24	4
NMTAP	25	48	6
NMHLD	25	72	6	48
NMTAP	25	120	4
NMTAP	25	144	5
NMHLD	25	168	2	48
NMTAP	25	216	3
NMTAP	25	240	3
NMTAP	25	288	4
NMTAP	25	312	4
NMTAP	25	336	4
NMTAP	25	360	4
BRTAP	26	0	3
BRTAP	26	0	5
NMTAP	26	96	6
NMTAP	26	112	7
NMTAP	26	128	6
NMTAP	26	144	7
NMTAP	26	160	6
NMTAP	26	176	7
NMHLD	26	192	5	72
NMHLD	26	264	4	72
NMTAP	26	336	3
NMHLD	27	0	2	96
NMTAP	27	0	3
NMTAP	27	48	0
NMHLD	27	96	3	96
NMTAP	27	144	0
NMHLD	27	192	2	48
NMTAP	27	240	0
NMTAP	27	288	3
NMTAP	27	288	7
NMTAP	28	0	1
NMTAP	28	0	4
NMTAP	28	96	2
NMTAP	28	112	3
NMTAP	28	128	2
NMTAP	28	144	4
NMTAP	28	168	4
NMTAP	28	192	3
NMTAP	28	240	5
NMTAP	28	264	5
NMTAP	28	288	4
NMTAP	28	336	4
NMTAP	28	336	6
NMHLD	29	0	5	96
NMTAP	29	48	7
NMHLD	29	96	4	96
NMTAP	29	144	7
NMTAP	29	192	5
NMTAP	29	216	5
NMTAP	29	240	4
BRTAP	29	288	3
BRTAP	29	288	6
NMTAP	30	0	4
NMTAP	30	0	5
NMTAP	30	96	6
NMTAP	30	112	7
NMTAP	30	128	6
NMTAP	30	144	7
NMTAP	30	160	6
NMTAP	30	176	7
NMHLD	30	192	5	72
NMHLD	30	264	4	72
NMTAP	30	336	3
NMHLD	31	0	2	96
NMTAP	31	0	3
NMTAP	31	48	0
NMHLD	31	96	3	96
NMTAP	31	144	0
NMHLD	31	192	2	48
NMTAP	31	240	0
NMTAP	31	288	3
NMTAP	31	288	7
NMTAP	32	0	5
NMTAP	32	24	4
NMTAP	32	48	6
NMHLD	32	72	6	48
NMTAP	32	120	4
NMTAP	32	144	5
NMHLD	32	168	2	48
NMTAP	32	216	4
NMTAP	32	240	3
NMHLD	32	264	6	48
NMTAP	32	312	4
NMTAP	32	336	4
NMTAP	33	0	2
NMTAP	33	24	3
NMTAP	33	48	1
NMHLD	33	72	1	48
NMTAP	33	120	3
NMTAP	33	144	2
NMHLD	33	168	5	48
NMTAP	33	216	4
NMTAP	33	240	4
BRTAP	33	288	2
BRTAP	33	288	6
NMSTR	34	0	0
NMSI_	34	0	0	96	48	4
NMTAP	34	0	7
BRSTR	34	96	0
NMSCL	34	96	0	96	48	6
BRTAP	34	96	5
NMSTR	34	192	0
NMSCR	34	192	0	96	48	2
NMTAP	34	192	4
NMTAP	34	240	4
NMSTR	34	288	0
NMSCL	34	288	0	96	48	6
NMTAP	34	288	5
NMHLD	34	336	5	144
NMSTR	35	0	0
NMSCR	35	0	0	96	48	2
NMSTR	35	96	0
NMSCL	35	96	0	96	48	6
NMTAP	35	144	5
NMTAP	35	168	4
NMTAP	35	192	0
NMTAP	35	192	3
NMTAP	35	240	3
NMTAP	35	288	0
NMTAP	35	288	4
NMTAP	35	336	4
NMTAP	36	0	5
NMTAP	36	16	4
NMTAP	36	32	5
NMTAP	36	48	4
BRTAP	36	96	3
BRTAP	36	96	6
NMHLD	36	168	1	48
NMHLD	36	216	0	48
NMHLD	36	264	7	48
NMTAP	36	312	6
NMTAP	36	336	6
NMTAP	37	0	5
NMTAP	37	24	3
NMTAP	37	48	4
NMHLD	37	72	2	48
NMHLD	37	120	1	48
NMTAP	37	168	0
NMTAP	37	192	6
NMTAP	37	216	6
NMTAP	37	240	4
NMTAP	37	264	5
NMTAP	37	288	1
NMTAP	37	312	1
NMTAP	37	336	3
NMTAP	37	360	2
EXSTR	38	0	3
NMSF_	38	0	3	96	48	7
BRTAP	38	96	3
NMTAP	38	192	3
NMSTR	38	192	7
NMSCL	38	192	7	96	48	5
NMTAP	38	240	3
NMTAP	38	288	2
NMSTR	38	288	7
NMSCR	38	288	7	96	48	1
NMHLD	38	336	2	144
NMSTR	39	0	7
NMSCL	39	0	7	96	48	5
NMSTR	39	96	7
NMSCR	39	96	7	96	48	1
NMTAP	39	144	2
NMTAP	39	168	3
NMTAP	39	192	4
NMTAP	39	192	7
NMTAP	39	240	4
NMTAP	39	288	2
NMTAP	39	288	7
NMTAP	39	336	2
EXHLD	40	0	1	48
EXHLD	40	0	4	48
NMHLD	40	72	2	48
NMHLD	40	72	3	48
EXHLD	40	144	3	48
EXHLD	40	144	6	48
NMHLD	40	216	4	48
NMHLD	40	216	5	48
EXTAP	40	288	3
EXTAP	40	288	4
BRTAP	40	336	0
BRSTR	40	336	7
NMSI_	40	336	7	96	48	1
NMTTP	41	48	1	A	0	M1
CNSI_	41	96	1	0	48	6
NMTTP	41	96	6	A	0	M1
NMTTP	41	144	2	A	0	M1
CNSI_	41	144	6	0	48	2
CNSI_	41	192	2	0	48	5
NMTTP	41	192	5	A	0	M1
CNSI_	41	240	5	0	48	3
NMTTP	41	288	0	C	1	M1
NMTTP	41	288	1	B	0	M1
NMTTP	41	288	2	B	0	M1
NMHLD	42	0	5	288
NMTAP	42	288	3
NMHLD	43	0	2	288
NMSTR	43	288	3
NMSUR	43	288	3	96	288	5
NMTAP	44	0	1
NMHLD	45	0	5	96
NMHLD	45	96	4	96
NMHLD	45	192	3	96
NMTAP	45	288	2
NMSTR	46	0	1
NMSXL	46	0	1	96	480	4
NMTAP	46	0	3
NMTAP	46	288	5
NMHLD	47	0	5	192
NMTAP	47	288	6
NMHLD	48	0	7	144
NMSTR	48	144	4
NMSCL	48	144	4	96	144	0
NMTTP	48	288	0	C	0	M1
NMTTP	49	0	7	B	0	M1
NMHLD	49	144	0	48
NMTAP	49	192	7
NMTAP	49	216	0
NMTAP	49	240	7
BRTAP	49	288	2
BRTAP	49	288	5
EXTAP	50	0	0
EXTAP	50	0	6
NMTAP	50	96	2
NMTAP	50	120	2
NMTAP	50	144	3
EXHLD	50	192	1	48
EXHLD	50	192	4	48
EXHLD	50	264	3	48
EXHLD	50	264	6	48
EXTAP	50	336	0
EXHLD	50	336	5	96
NMTAP	51	48	4
NMTAP	51	96	6
NMTAP	51	120	6
NMTAP	51	144	7
NMTAP	51	168	7
NMTAP	51	192	5
EXHLD	51	240	3	48
EXHLD	51	240	6	48
EXHLD	51	312	1	48
EXHLD	51	312	4	48
EXHLD	52	0	2	96
EXTAP	52	0	7
NMTAP	52	96	3
NMTAP	52	120	3
NMTAP	52	144	1
NMTAP	52	168	1
EXHLD	52	192	0	48
EXHLD	52	192	4	48
EXHLD	52	264	3	48
EXHLD	52	264	6	48
EXTAP	52	336	1
EXHLD	52	336	5	96
NMTAP	53	48	4
NMTAP	53	72	4
NMTAP	53	96	5
NMTAP	53	120	5
NMTAP	53	144	6
NMTAP	53	168	6
BRTAP	53	192	7
EXHLD	53	240	0	48
EXHLD	53	240	1	48
EXHLD	53	312	4	48
EXHLD	53	312	5	48
NMHLD	54	0	3	48
NMTAP	54	0	6
NMTAP	54	48	6
NMHLD	54	96	2	48
NMTAP	54	96	5
NMTAP	54	144	5
NMHLD	54	192	1	48
NMTAP	54	192	4
NMTAP	54	240	4
NMHLD	54	288	0	48
NMTAP	54	288	3
NMTAP	54	336	3
NMTAP	55	0	2
NMHLD	55	0	7	48
NMTAP	55	48	2
NMTAP	55	96	1
NMHLD	55	96	6	48
NMTAP	55	144	1
NMTAP	55	192	0
NMHLD	55	192	5	48
NMTAP	55	240	0
NMHLD	55	288	4	48
NMTAP	55	288	7
NMTAP	55	336	7
BRTAP	56	0	3
BRSTR	56	0	6
NMSI_	56	0	6	96	192	2
NMTAP	57	0	3
NMTAP	57	72	4
NMTAP	57	144	3
NMTAP	57	192	3
NMTAP	57	192	4
NMTAP	57	240	3
NMTAP	57	240	4
BRTAP	57	288	2
BRTAP	57	288	5
NMTAP	58	0	1
NMTAP	58	0	4
NMTAP	58	12	0
NMTAP	58	24	7
NMTAP	58	36	6
NMTAP	58	48	5
NMTAP	58	60	4
NMTAP	58	72	3
NMTAP	58	84	2
BRTAP	58	96	1
BRTAP	58	96	6
NMSTR	58	192	0
NMSCR	58	192	0	96	48	2
NMTAP	58	192	4
NMTAP	58	240	4
NMSTR	58	288	0
NMSCL	58	288	0	96	48	6
NMTAP	58	288	5
NMHLD	58	336	5	144
NMSTR	59	0	0
NMSCR	59	0	0	96	48	2
NMSTR	59	96	0
NMSCL	59	96	0	96	48	6
NMTAP	59	144	5
NMTAP	59	168	4
NMSTR	59	192	0
NMSCR	59	192	0	96	48	2
NMTAP	59	192	3
NMTAP	59	240	3
NMTAP	59	288	0
NMTAP	59	288	4
NMTAP	59	336	4
NMTAP	60	0	5
NMTAP	60	16	4
NMTAP	60	32	5
NMTAP	60	48	4
BRTAP	60	96	3
BRTAP	60	96	6
NMHLD	60	168	1	48
NMHLD	60	216	0	48
NMHLD	60	264	7	48
NMTAP	60	312	6
NMTAP	60	336	6
NMTAP	61	0	5
NMTAP	61	24	3
NMTAP	61	48	4
NMHLD	61	72	2	48
NMHLD	61	120	1	48
NMTAP	61	168	0
NMTAP	61	192	7
NMTAP	61	216	7
NMTAP	61	240	4
NMTAP	61	264	5
NMTAP	61	288	0
NMTAP	61	312	0
NMTAP	61	336	3
NMTAP	61	360	2
NMSTR	62	0	3
NMSF_	62	0	3	96	48	7
BRTAP	62	96	3
NMSTR	62	192	3
NMSCR	62	192	3	96	48	5
NMTAP	62	192	6
NMTAP	62	240	6
NMSTR	62	288	3
NMSCL	62	288	3	96	48	1
NMTAP	62	288	7
NMTAP	62	336	7
NMSTR	63	0	3
NMSCR	63	0	3	96	48	5
NMHLD	63	48	0	24
NMSTR	63	96	3
NMSCL	63	96	3	96	48	1
NMHLD	63	96	7	24
NMHLD	63	144	6	24
NMSTR	63	192	3
NMSCR	63	192	3	96	48	5
NMHLD	63	192	7	24
NMHLD	63	240	0	24
NMHLD	63	288	7	24
NMHLD	63	336	6	24
EXHLD	64	0	4	72
EXHLD	64	0	7	72
NMTAP	64	96	5
NMTAP	64	120	4
NMTAP	64	144	3
NMTAP	64	168	2
EXHLD	64	192	1	48
EXHLD	64	192	3	48
EXHLD	64	264	4	48
EXHLD	64	264	6	48
BRSTR	64	336	0
NMSI_	64	336	0	96	48	6
BRTAP	64	336	5
NMTTP	65	48	6	A	0	M1
NMTTP	65	96	1	A	0	M1
CNSI_	65	96	6	0	48	1
CNSI_	65	144	1	0	48	5
NMTTP	65	144	5	A	0	M1
NMTTP	65	192	2	A	0	M1
CNSI_	65	192	5	0	48	2
CNSI_	65	240	2	0	48	4
NMTTP	65	288	0	C	1	M1
NMTAP	66	0	2
NMTAP	66	0	6
NMTAP	66	12	7
NMTAP	66	24	0
NMTAP	66	36	1
NMTAP	66	48	2
NMTAP	66	60	3
NMTAP	66	72	4
NMTAP	66	84	5
BRTAP	66	96	1
BRTAP	66	96	6
NMTAP	66	192	3
NMSTR	66	192	7
NMSCL	66	192	7	96	48	5
NMTAP	66	240	3
NMTAP	66	288	2
NMSTR	66	288	7
NMSCR	66	288	7	96	48	1
NMHLD	66	336	2	144
NMSTR	67	0	7
NMSCL	67	0	7	96	48	5
NMSTR	67	96	7
NMSCR	67	96	7	96	48	1
NMTAP	67	144	2
NMTAP	67	168	3
NMTAP	67	192	4
NMSTR	67	192	7
NMSCL	67	192	7	96	48	5
NMTAP	67	240	4
NMTAP	67	288	3
NMTAP	67	288	7
NMTAP	67	336	3
NMTAP	68	0	2
NMTAP	68	16	3
NMTAP	68	32	2
NMTAP	68	48	3
BRTAP	68	96	1
BRTAP	68	96	4
NMHLD	68	168	6	48
NMHLD	68	216	7	48
NMHLD	68	264	0	48
NMTAP	68	312	1
NMTAP	68	336	1
NMTAP	69	0	2
NMTAP	69	24	4
NMTAP	69	48	3
NMHLD	69	72	5	48
NMHLD	69	120	6	48
NMTAP	69	168	7
NMTAP	69	192	0
NMTAP	69	216	0
NMTAP	69	240	3
NMTAP	69	264	2
NMTAP	69	288	7
NMTAP	69	312	7
NMTAP	69	336	4
NMTAP	69	360	5
NMSTR	70	0	4
NMSF_	70	0	4	96	48	0
BRTAP	70	96	4
NMTAP	70	192	1
NMSTR	70	192	4
NMSCL	70	192	4	96	48	2
NMTAP	70	240	1
NMTAP	70	288	0
NMSTR	70	288	4
NMSCR	70	288	4	96	48	6
NMTAP	70	336	0
NMSTR	71	0	4
NMSCL	71	0	4	96	48	2
NMHLD	71	48	7	24
NMHLD	71	96	0	24
NMSTR	71	96	4
NMSCR	71	96	4	96	48	6
NMHLD	71	144	1	24
NMHLD	71	192	0	24
NMSTR	71	192	4
NMSCL	71	192	4	96	48	2
NMHLD	71	240	7	24
NMHLD	71	288	0	24
NMHLD	71	336	1	24
EXHLD	72	0	0	72
EXHLD	72	0	3	72
NMTAP	72	96	1
NMTAP	72	96	2
EXHLD	72	144	4	72
EXHLD	72	144	7	72
NMTAP	72	240	5
NMTAP	72	240	6
NMTAP	72	288	3
NMTAP	72	288	4
BRTAP	72	336	0
BRSTR	72	336	7
NMSI_	72	336	7	96	48	1
NMTTP	73	48	1	A	0	M1
CNSI_	73	96	1	0	48	6
NMTTP	73	96	6	A	0	M1
NMTTP	73	144	2	A	0	M1
CNSI_	73	144	6	0	48	2
CNSI_	73	192	2	0	48	5
NMTTP	73	192	5	A	0	M1
CNSI_	73	240	5	0	48	3
NMTAP	73	288	0
NMTAP	73	300	7
NMTAP	73	312	6
NMTAP	73	324	5
NMTAP	73	336	4
NMTAP	73	348	3
NMTAP	73	360	2
NMTAP	73	372	1
BRTAP	74	0	0
NMTTP	74	0	0	C	1	M1

T_REC_TAP	424
T_REC_BRK	38
T_REC_XTP	8
T_REC_BXX	0
T_REC_HLD	112
T_REC_XHO	34
T_REC_BHO	0
T_REC_BXH	0
T_REC_STR	35
T_REC_BST	5
T_REC_XST	1
T_REC_XBS	0
T_REC_TTP	19
T_REC_THO	0
T_REC_SLD	41
T_REC_BSL	0
T_REC_ALL	717
T_NUM_TAP	487
T_NUM_BRK	43
T_NUM_HLD	146
T_NUM_SLD	41
T_NUM_ALL	717
T_JUDGE_TAP	530
T_JUDGE_HLD	219
T_JUDGE_SLD	41
T_JUDGE_ALL	790
TTM_EACHPAIRS	119
TTM_SCR_TAP	243500
TTM_SCR_BRK	111800
TTM_SCR_HLD	146000
TTM_SCR_SLD	61500
TTM_SCR_ALL	562800
TTM_SCR_S	541750
TTM_SCR_SS	558500
TTM_RAT_ACV	10076

