VERSION	0.00.00	1.04.00
FES_MODE	0
BPM_DEF	130.000	130.000	130.000	130.000
MET_DEF	4	4
RESOLUTION	384
CLK_DEF	384
COMPATIBLE_CODE	MA2

BPM	0	0	130.000
MET	0	0	4	4

NMTAP	2	0	2
NMTAP	2	48	2
NMTAP	2	96	4
NMTAP	2	144	3
NMTAP	2	240	5
NMTAP	2	288	5
NMHLD	3	0	6	96
NMTAP	3	96	4
NMTAP	3	144	4
NMTAP	3	240	3
NMTAP	3	288	3
NMTAP	4	0	5
NMTAP	4	48	5
NMTAP	4	96	3
NMTAP	4	144	4
NMTAP	4	240	2
NMTAP	4	288	2
NMTAP	4	336	3
NMHLD	5	0	1	96
NMTAP	5	96	3
NMTAP	5	144	3
NMTAP	5	240	2
NMTAP	5	240	4
NMTAP	5	288	2
NMTAP	5	288	4
NMTAP	6	0	5
NMTAP	6	48	5
NMTAP	6	96	3
NMTAP	6	144	4
NMTAP	6	240	2
NMTAP	6	288	2
NMHLD	7	0	1	96
NMTAP	7	96	3
NMTAP	7	144	3
NMTAP	7	240	4
NMTAP	7	288	4
NMTAP	8	0	2
NMTAP	8	48	2
NMTAP	8	96	4
NMTAP	8	144	3
NMTAP	8	240	5
NMTAP	8	288	5
NMTAP	8	336	4
NMHLD	9	0	6	96
NMTAP	9	96	4
NMTAP	9	144	4
NMTAP	9	240	3
NMTAP	9	240	5
BRTAP	9	288	2
BRTAP	9	288	6
NMHLD	10	0	0	96
NMTAP	10	96	7
NMHLD	10	144	1	96
NMTAP	10	240	3
NMHLD	10	288	2	96
NMTAP	11	0	4
NMHLD	11	48	3	96
NMTAP	11	144	5
NMTAP	11	192	4
NMTAP	11	288	3
NMTAP	11	288	5
NMHLD	12	0	6	96
NMTAP	12	96	4
NMHLD	12	144	5	96
NMTAP	12	240	3
NMHLD	12	288	4	96
NMTAP	13	0	2
NMHLD	13	48	1	96
NMTAP	13	144	3
NMTAP	13	192	2
NMTAP	13	288	1
NMTAP	13	288	3
NMTAP	14	0	4
NMTAP	14	48	4
NMTAP	14	96	4
NMTAP	14	144	2
NMTAP	14	192	2
NMTAP	14	240	2
NMTAP	14	288	3
NMTAP	14	336	3
NMTAP	15	0	3
NMTAP	15	48	1
NMTAP	15	96	1
NMTAP	15	144	1
NMTAP	15	192	7
NMTAP	15	240	7
NMTAP	15	288	0
NMTAP	15	336	0
NMTAP	16	0	6
NMTAP	16	48	6
NMTAP	16	96	6
NMTAP	16	144	4
NMTAP	16	192	4
NMTAP	16	240	4
NMTAP	16	288	5
NMTAP	16	336	5
NMHLD	17	0	4	48
NMHLD	17	0	6	48
NMHLD	17	72	1	48
NMHLD	17	72	3	48
NMHLD	17	144	4	48
NMHLD	17	144	5	48
NMHLD	17	216	2	48
NMHLD	17	216	3	48
BXSTR	17	288	0
NMSI_	17	288	0	96	48	3
BXSTR	17	288	7
NMSI_	17	288	7	96	48	4
EXTAP	18	96	2
EXTAP	18	96	5
NMHLD	18	192	1	72
NMHLD	18	264	2	72
NMTAP	18	336	3
NMSTR	19	0	3
NMSCL	19	0	3	96	48	0
NMTAP	19	96	7
NMSTR	19	192	6
NMSCL	19	192	6	96	48	3
NMTAP	19	288	7
EXTAP	20	0	1
EXTAP	20	0	5
NMTAP	20	96	2
NMTAP	20	96	4
NMHLD	20	192	1	48
NMHLD	20	192	3	72
NMTAP	20	288	2
NMTAP	20	336	2
NMTAP	21	0	3
NMTAP	21	0	4
NMSTR	21	96	0
NMSCR	21	96	0	96	48	3
NMTAP	21	96	3
NMSTR	21	288	0
NMSI_	21	288	0	96	48	3
NMSTR	21	288	7
NMSI_	21	288	7	96	48	4
EXTAP	22	96	2
EXTAP	22	96	5
NMHLD	22	192	6	72
NMHLD	22	264	5	72
NMTAP	22	336	4
NMTAP	23	0	3
NMTAP	23	0	4
NMSTR	23	96	2
NMSCR	23	96	2	96	48	5
NMSTR	23	96	6
NMSCR	23	96	6	96	48	1
NMTAP	23	288	0
NMTAP	23	288	7
NMHLD	24	0	1	72
NMHLD	24	72	2	72
NMTAP	24	144	3
NMSTR	24	192	3
NMSI_	24	192	3	96	48	0
NMSTR	24	288	6
NMSI_	24	288	6	96	48	1
NMSTR	25	0	2
NMSI_	25	0	2	96	48	5
NMSTR	25	96	7
NMSI_	25	96	7	96	48	4
NMTAP	25	192	0
NMTAP	25	288	2
NMTAP	25	312	3
NMTAP	25	336	2
NMTAP	25	360	3
BRSTR	26	0	1
NMSI_	26	0	1	96	48	5
NMHLD	26	192	7	72
NMHLD	26	264	6	72
NMTAP	26	336	4
NMSTR	27	0	4
NMSCR	27	0	4	96	48	7
NMTAP	27	96	0
NMSTR	27	192	1
NMSCR	27	192	1	96	48	4
NMTAP	27	288	0
EXTAP	28	0	2
EXTAP	28	0	6
NMTAP	28	96	3
NMTAP	28	96	5
NMHLD	28	192	4	72
NMHLD	28	192	6	48
NMTAP	28	288	5
NMTAP	28	336	5
NMTAP	29	0	3
NMTAP	29	0	4
NMTAP	29	96	4
NMSTR	29	96	7
NMSCL	29	96	7	96	48	4
NMSTR	29	288	0
NMSI_	29	288	0	96	48	3
NMSTR	29	288	7
NMSI_	29	288	7	96	48	4
EXTAP	30	96	2
EXTAP	30	96	5
NMHLD	30	192	0	72
NMHLD	30	264	1	72
NMTAP	30	336	3
NMTAP	31	0	3
NMSTR	31	96	4
NMSI_	31	96	4	96	48	0
NMSTR	31	96	6
NMSI_	31	96	6	96	48	4
NMTAP	31	288	7
NMHLD	32	0	6	72
NMHLD	32	72	5	72
NMTAP	32	144	4
NMSTR	32	192	4
NMSI_	32	192	4	96	48	0
NMSTR	32	288	3
NMSCL	32	288	3	96	144	4
NMTAP	33	0	7
NMTAP	33	192	1
NMTAP	33	192	6
EXTAP	33	240	1
EXTAP	33	240	6
EXSTR	33	288	0
NMSCR	33	288	0	96	48	3
EXSTR	33	288	7
NMSCL	33	288	7	96	48	4
BRTAP	34	96	1
BRTAP	34	96	6
NMTAP	34	192	7
NMSTR	34	240	7
NMSCL	34	240	7	96	144	1
NMTAP	34	288	0
NMTAP	34	336	0
NMTAP	35	144	0
NMTAP	35	192	1
NMTAP	35	192	7
NMTAP	35	240	3
NMTAP	35	288	5
NMTAP	35	336	7
NMSTR	36	0	0
NMSI_	36	0	0	96	48	4
NMSTR	36	0	6
NMSI_	36	0	6	96	48	2
NMTAP	36	192	1
NMTAP	36	240	0
NMTAP	36	240	7
NMTAP	36	288	6
NMTAP	36	336	4
NMTAP	36	336	5
NMTAP	37	0	6
NMTAP	37	48	0
NMTAP	37	48	7
NMTAP	37	96	1
NMTAP	37	144	2
NMTAP	37	144	3
NMTAP	37	192	1
NMTAP	37	240	0
NMTAP	37	240	7
NMTAP	37	288	6
NMTAP	37	336	4
NMTAP	37	336	5
NMSTR	38	0	3
NMSI_	38	0	3	96	48	7
NMSTR	38	0	6
NMSI_	38	0	6	96	48	4
NMTAP	38	192	0
NMSTR	38	240	0
NMSCR	38	240	0	96	144	6
NMTAP	38	288	7
NMTAP	38	336	7
NMTAP	39	144	7
NMTAP	39	192	0
NMTAP	39	192	6
NMTAP	39	240	5
NMTAP	39	288	3
NMTAP	39	288	4
NMTAP	39	336	2
NMHLD	40	0	1	72
NMTAP	40	0	7
NMHLD	40	72	3	72
NMHLD	40	144	4	72
NMHLD	40	216	6	72
NMSTR	40	288	0
NMSI_	40	288	0	96	48	6
NMTAP	40	336	0
CNSI_	41	48	6	0	48	1
CNSI_	41	96	1	0	48	5
CNSI_	41	144	5	0	48	2
CNSI_	41	192	2	0	144	4
NMTTP	42	0	0	C	1	M1
NMHLD	43	0	2	144
NMHLD	43	144	3	144
NMTAP	43	288	4
NMHLD	44	0	5	144
NMHLD	44	144	4	144
NMTAP	44	288	3
NMTTP	45	0	2	E	0	M1
NMTTP	45	0	2	D	0	M1
NMTTP	45	96	3	E	0	M1
NMTTP	45	96	3	D	0	M1
NMTTP	45	192	5	E	0	M1
NMTTP	45	192	5	D	0	M1
NMTTP	45	288	6	E	0	M1
NMTTP	45	288	6	D	0	M1
NMHLD	46	0	0	144
NMHLD	46	144	1	144
NMTAP	46	288	2
NMHLD	47	0	6	144
NMHLD	47	144	5	144
NMTAP	47	288	4
NMHLD	48	0	2	144
NMHLD	48	144	3	144
NMSTR	48	288	4
NMSCR	48	288	4	96	216	3
EXTAP	49	240	7
EXTAP	49	288	1
EXTAP	49	288	5
BRHLD	50	0	3	96
BRHLD	50	0	7	96
NMHLD	50	192	0	48
NMHLD	50	192	1	48
NMHLD	50	264	2	48
NMHLD	50	264	3	48
NMHLD	50	336	1	96
NMSTR	50	336	4
NMSLR	50	336	4	96	96	3
NMTAP	51	192	2
NMHLD	51	240	2	48
NMHLD	51	312	1	48
NMHLD	51	312	3	48
EXHLD	52	0	0	96
EXHLD	52	0	4	96
NMHLD	52	192	6	48
NMHLD	52	192	7	48
NMHLD	52	264	4	48
NMHLD	52	264	5	48
NMSTR	52	336	3
NMSLL	52	336	3	96	96	4
NMHLD	52	336	6	96
NMTAP	53	192	5
NMHLD	53	240	5	48
NMHLD	53	312	4	48
NMHLD	53	312	6	48
NMTAP	54	0	3
NMTAP	54	0	7
NMTAP	54	48	7
NMTAP	54	96	6
NMTAP	54	144	6
NMTAP	54	192	5
NMTAP	54	240	5
NMTAP	54	288	4
NMTAP	54	336	4
NMTAP	55	0	3
NMTAP	55	48	3
NMTAP	55	96	2
NMTAP	55	144	2
NMTAP	55	192	1
NMTAP	55	240	1
NMSTR	55	288	0
NMSI_	55	288	0	96	288	4
NMTAP	55	336	0
NMTAP	57	0	4
NMTAP	57	72	4
NMTAP	57	144	4
NMTAP	57	192	3
NMTAP	57	192	5
EXTAP	57	240	3
EXTAP	57	240	5
EXSTR	57	288	1
NMSV_	57	288	1	96	48	3
EXSTR	57	288	7
NMSV_	57	288	7	96	48	5
BRTAP	58	96	0
NMTAP	58	192	1
NMSTR	58	240	0
NMSCR	58	240	0	96	144	6
NMTAP	58	288	7
NMTAP	58	336	6
NMTAP	59	144	7
NMTAP	59	192	0
NMTAP	59	192	6
NMTAP	59	240	4
NMTAP	59	288	2
NMTAP	59	336	0
NMSTR	60	0	1
NMSI_	60	0	1	96	48	5
NMSTR	60	0	7
NMSCR	60	0	7	96	48	2
NMTAP	60	192	6
NMTAP	60	240	0
NMTAP	60	240	7
NMTAP	60	288	1
NMTAP	60	336	2
NMTAP	60	336	3
NMTAP	61	0	1
NMTAP	61	48	0
NMTAP	61	48	7
NMTAP	61	96	6
NMTAP	61	144	4
NMTAP	61	144	5
NMTAP	61	192	6
NMTAP	61	240	0
NMTAP	61	240	7
NMTAP	61	288	1
NMTAP	61	336	2
NMTAP	61	336	3
NMSTR	62	0	1
NMSCR	62	0	1	96	48	4
NMSTR	62	0	4
NMSI_	62	0	4	96	48	0
NMTAP	62	192	6
NMSTR	62	240	7
NMSCL	62	240	7	96	144	1
NMTAP	62	288	0
NMTAP	62	336	1
NMTAP	63	144	0
NMTAP	63	192	1
NMTAP	63	192	7
NMTAP	63	240	2
NMTAP	63	288	3
NMTAP	63	288	4
NMTAP	63	336	5
EXHLD	64	0	0	72
NMHLD	64	0	6	72
NMTAP	64	144	1
NMTAP	64	144	7
NMHLD	64	192	1	48
EXHLD	64	192	7	48
NMHLD	64	264	2	48
EXHLD	64	264	6	48
NMTAP	64	336	3
EXSTR	64	336	5
NMSCR	64	336	5	96	144	3
EXTAP	65	240	0
EXSTR	65	288	2
NMSI_	65	288	2	96	48	7
EXSTR	65	288	6
NMSI_	65	288	6	96	48	3
BRTAP	66	96	1
BRTAP	66	96	5
NMTAP	66	192	2
NMSTR	66	240	3
NMSCL	66	240	3	96	144	5
NMSXR	66	240	3	96	144	4
NMTAP	66	288	4
NMTAP	67	192	1
NMTAP	67	192	7
NMTAP	67	240	2
NMTAP	67	288	3
NMTAP	67	288	4
NMTAP	67	336	5
NMTAP	68	0	0
NMSTR	68	0	6
NMSI_	68	0	6	96	48	2
EXTAP	68	96	0
NMTAP	68	192	1
NMTAP	68	192	7
NMHLD	68	240	2	96
NMTAP	68	288	3
NMHLD	68	336	5	96
NMTAP	69	0	4
NMHLD	69	48	1	96
NMTAP	69	96	0
NMHLD	69	144	6	96
NMTAP	69	192	7
NMHLD	69	240	0	96
NMTAP	69	288	7
NMTAP	69	336	6
NMSTR	70	0	1
NMSI_	70	0	1	96	48	4
NMSTR	70	0	5
NMSI_	70	0	5	96	48	0
NMTAP	70	192	6
NMSTR	70	240	4
NMSCR	70	240	4	96	144	2
NMSXL	70	240	4	96	144	3
NMTAP	70	288	2
NMTAP	71	192	0
NMTAP	71	192	6
NMTAP	71	240	1
NMTAP	71	240	5
NMTAP	71	288	2
NMTAP	71	288	4
NMTAP	71	336	3
EXHLD	72	0	1	96
NMHLD	72	0	2	96
NMHLD	72	144	5	96
EXHLD	72	144	6	96
EXTAP	72	288	3
EXTAP	72	288	4
EXTAP	72	336	3
EXTAP	72	336	4
NMTTP	73	48	1	E	0	M1
NMTTP	73	48	1	D	0	M1
NMTTP	73	48	7	E	0	M1
NMTTP	73	48	7	D	0	M1
NMTTP	73	96	2	E	0	M1
NMTTP	73	96	2	D	0	M1
NMTTP	73	96	6	E	0	M1
NMTTP	73	96	6	D	0	M1
NMTTP	73	144	3	E	0	M1
NMTTP	73	144	3	D	0	M1
NMTTP	73	144	5	E	0	M1
NMTTP	73	144	5	D	0	M1
NMTTP	73	192	4	E	0	M1
NMTTP	73	192	4	D	0	M1
EXTAP	73	240	0
EXTAP	73	240	7
BRTAP	73	288	1
BRTAP	73	288	6

T_REC_TAP	252
T_REC_BRK	9
T_REC_XTP	25
T_REC_HLD	78
T_REC_XHO	7
T_REC_STR	42
T_REC_BST	3
T_REC_XST	7
T_REC_TTP	23
T_REC_THO	0
T_REC_SLD	54
T_REC_ALL	500
T_NUM_TAP	349
T_NUM_BRK	12
T_NUM_HLD	85
T_NUM_SLD	54
T_NUM_ALL	500
T_JUDGE_TAP	361
T_JUDGE_HLD	152
T_JUDGE_SLD	54
T_JUDGE_ALL	567
TTM_EACHPAIRS	93
TTM_SCR_TAP	174500
TTM_SCR_BRK	31200
TTM_SCR_HLD	85000
TTM_SCR_SLD	81000
TTM_SCR_ALL	371700
TTM_SCR_S	359400
TTM_SCR_SS	370500
TTM_RAT_ACV	10032

