VERSION	0.00.00	1.04.00
FES_MODE	0
BPM_DEF	180.000	180.000	180.000	180.000
MET_DEF	4	4
RESOLUTION	384
CLK_DEF	384
COMPATIBLE_CODE	MA2

BPM	0	0	180.000
MET	0	0	4	4

NMTAP	1	0	1
NMTAP	1	0	3
NMTAP	1	96	4
NMTAP	1	144	3
NMTAP	1	240	4
NMTAP	1	240	6
NMTAP	1	288	4
NMTAP	1	288	6
NMTAP	2	0	4
NMHLD	2	0	5	72
NMTAP	2	72	3
NMTAP	2	144	1
NMHLD	2	144	3	144
NMTAP	2	240	2
NMTAP	2	288	2
NMTAP	3	0	3
NMTAP	3	0	4
NMTAP	3	48	3
NMTAP	3	48	4
NMTAP	3	96	6
NMTAP	3	120	7
NMTAP	3	144	0
NMTAP	3	168	1
NMTAP	3	192	2
NMTAP	3	216	3
NMTAP	3	240	4
NMTAP	3	264	5
NMTAP	3	288	0
NMTAP	3	288	6
EXTAP	4	0	1
EXTAP	4	0	3
EXTAP	4	72	4
EXTAP	4	72	6
EXHLD	4	144	1	96
EXHLD	4	144	4	96
EXTAP	4	288	3
EXTAP	4	288	4
BXSTR	5	0	0
NMSCR	5	0	0	96	384	7
BXHLD	5	0	7	96
NMHLD	5	144	5	96
NMHLD	5	288	0	192
NMTAP	6	144	0
NMSTR	6	192	0
NMSI_	6	192	0	96	48	3
NMSI_	6	192	0	96	48	5
NMHLD	7	0	4	96
NMHLD	7	0	6	96
NMHLD	7	144	2	96
NMHLD	7	144	3	96
NMHLD	7	288	3	96
NMHLD	7	288	7	96
NMTAP	8	48	0
NMTAP	8	48	2
NMTAP	8	144	4
NMTAP	8	144	5
NMTAP	8	192	3
NMTAP	8	216	4
NMTAP	8	240	3
NMTAP	8	264	4
NMTAP	8	288	2
BXHLD	9	0	0	96
BXSTR	9	0	7
NMSCL	9	0	7	96	384	0
NMHLD	9	144	2	96
NMHLD	9	288	7	192
NMTAP	10	144	7
NMSTR	10	192	7
NMSI_	10	192	7	96	48	2
NMSI_	10	192	7	96	48	4
NMHLD	11	0	1	96
NMHLD	11	0	3	96
NMHLD	11	144	4	96
NMHLD	11	144	5	96
NMHLD	11	288	0	96
NMHLD	11	288	4	96
NMTAP	12	48	5
NMTAP	12	48	7
NMTAP	12	96	4
NMTAP	12	144	3
NMSTR	12	192	0
NMSF_	12	192	0	96	48	4
NMTAP	12	192	2
EXTAP	13	0	2
EXTAP	13	0	6
NMTAP	13	96	3
NMTAP	13	96	6
NMTAP	13	168	4
NMTAP	13	192	6
NMTAP	13	240	4
NMTAP	13	288	4
NMTAP	13	288	6
NMHLD	13	336	4	336
NMTAP	13	336	6
NMTAP	14	48	3
NMTAP	14	96	3
NMTAP	14	144	3
NMTAP	14	240	1
NMTAP	14	288	1
NMSTR	15	0	0
NMSI_	15	0	0	96	48	4
NMHLD	15	0	7	672
EXTAP	15	96	0
NMTAP	15	192	3
NMTAP	15	240	3
NMTAP	15	288	3
NMTAP	15	336	3
NMTAP	16	48	5
NMTAP	16	96	5
NMTAP	16	144	5
NMTAP	16	240	0
NMTAP	16	288	0
EXTAP	17	0	1
EXTAP	17	0	5
NMTAP	17	96	1
NMTAP	17	96	4
NMTAP	17	168	3
NMTAP	17	192	1
NMTAP	17	240	3
NMTAP	17	288	1
NMTAP	17	288	3
NMTAP	17	336	1
NMHLD	17	336	3	192
NMTAP	18	48	4
NMTAP	18	96	4
NMTAP	18	144	4
NMTAP	18	240	3
NMTAP	18	240	4
NMTAP	18	288	1
NMTAP	18	288	6
EXTAP	19	0	2
NMTAP	19	48	3
NMTAP	19	96	4
NMHLD	19	144	5	144
NMTAP	19	240	7
BRSTR	19	288	7
NMSCL	19	288	7	96	192	0
NMSTR	20	192	7
NMSF_	20	192	7	96	48	3
EXHLD	21	0	1	624
EXTAP	21	0	4
NMTTP	21	336	1	B	0	M1
NMTTP	22	48	0	C	0	M1
NMTTP	22	144	0	E	0	M1
NMTAP	22	288	1
NMTAP	23	0	2
NMHLD	23	0	3	192
NMTAP	23	96	7
NMTAP	23	192	2
NMTAP	23	240	3
NMTAP	23	288	4
NMHLD	23	336	5	96
NMHLD	24	48	4	96
NMHLD	24	144	6	96
NMTAP	24	240	5
EXTAP	24	288	7
NMHLD	25	0	4	192
NMTAP	25	0	5
NMTAP	25	96	0
NMTAP	25	192	5
NMTAP	25	240	4
NMTAP	25	288	3
NMTAP	25	336	2
NMTAP	26	48	1
NMTAP	26	48	4
NMTAP	26	144	0
NMHLD	26	144	3	144
NMTAP	26	240	4
NMTAP	26	288	4
NMHLD	27	0	1	192
NMTAP	27	0	5
NMTAP	27	96	3
NMTAP	27	192	5
NMTAP	27	240	5
NMTAP	27	288	4
NMTAP	27	336	2
NMTAP	27	336	3
NMSTR	28	48	4
NMSCL	28	48	4	96	144	6
NMTAP	28	48	6
NMHLD	28	144	0	144
EXTAP	29	0	4
EXTAP	29	0	5
NMTAP	29	48	3
NMTAP	29	96	2
NMTAP	29	144	1
NMHLD	29	192	0	240
NMTAP	29	288	2
NMTAP	29	336	2
NMSTR	30	48	7
NMSI_	30	48	7	96	48	3
NMTAP	30	144	4
NMTAP	30	240	2
NMTAP	30	288	2
NMTAP	30	288	4
NMTAP	31	0	7
NMTAP	31	48	6
NMTAP	31	96	5
NMTAP	31	144	3
NMHLD	31	144	4	192
NMTTP	31	240	5	B	0	M1
NMTTP	31	336	2	B	0	M1
NMSTR	32	48	6
NMSUL	32	48	6	96	144	3
NMSTR	32	48	7
NMSXL	32	48	7	96	144	2
NMTAP	33	0	0
NMTAP	33	48	0
NMTAP	33	96	1
NMTAP	33	144	1
NMTAP	33	192	2
NMTAP	33	192	3
NMTAP	33	288	4
NMTAP	33	288	5
NMHLD	33	336	3	96
NMTAP	33	336	6
NMSTR	34	48	2
NMSI_	34	48	2	96	48	6
NMTAP	34	144	0
NMTAP	34	240	7
NMTAP	34	288	7
NMHLD	35	0	6	96
NMHLD	35	96	5	96
NMHLD	35	192	4	96
NMTAP	35	288	3
NMSTR	35	336	3
NMSCR	35	336	3	96	24	7
NMHLD	36	48	7	240
CNSUR	36	72	7	0	216	2
NMTTP	37	0	2	B	0	M1
NMTAP	37	0	6
NMTTP	37	96	1	B	0	M1
NMTAP	37	96	5
NMTTP	37	192	0	B	0	M1
NMTAP	37	192	4
NMTAP	37	288	3
NMTTP	37	288	7	B	0	M1
NMTAP	38	0	2
NMTTP	38	0	6	B	0	M1
NMTAP	38	96	1
NMTTP	38	96	5	B	0	M1
NMHLD	38	192	0	672
NMTTP	38	192	4	B	0	M1
NMTTP	38	288	4	E	0	M1
NMTTP	38	336	0	C	0	M1
NMTTP	39	0	0	E	0	M1
NMTTP	39	96	7	E	0	M1
NMTTP	39	192	6	E	0	M1
NMTTP	39	288	5	E	0	M1
NMTTP	40	0	4	E	0	M1
NMTTP	40	96	3	E	0	M1
NMTAP	40	192	0
NMTAP	40	240	7
NMTAP	40	288	6
NMTAP	40	336	5
NMTTP	41	0	0	B	0	M1
NMTAP	41	0	4
NMTTP	41	96	1	B	0	M1
NMTAP	41	96	5
NMTTP	41	192	2	B	0	M1
NMTAP	41	192	6
NMTTP	41	288	3	B	0	M1
NMTAP	41	288	7
NMTAP	42	0	0
NMTTP	42	0	4	B	0	M1
NMTAP	42	96	1
NMTTP	42	96	5	B	0	M1
NMHLD	42	192	2	576
NMTTP	42	192	6	B	0	M1
NMTTP	42	288	7	B	0	M1
NMTTP	42	336	0	C	0	M1
NMTTP	43	0	3	B	0	M1
NMTTP	43	96	4	B	0	M1
NMTTP	43	192	5	B	0	M1
NMTTP	43	288	6	B	0	M1
NMTTP	44	0	7	B	0	M1
NMTAP	44	96	2
NMTAP	44	144	3
NMTAP	44	192	4
NMTAP	44	240	5
NMTAP	44	288	2
NMTAP	44	288	6
EXTAP	45	0	0
EXSTR	45	0	7
NMSI_	45	0	7	96	48	3
NMTAP	45	96	6
NMTAP	45	96	7
NMTAP	45	168	4
NMTAP	45	192	4
NMTAP	45	240	5
NMTAP	45	288	6
NMHLD	45	336	7	96
NMTAP	46	48	6
NMTAP	46	96	7
NMHLD	46	144	0	96
NMTAP	46	240	3
NMTAP	46	288	4
NMSTR	46	336	3
NMSI_	46	336	3	96	48	7
NMTAP	46	336	5
NMTAP	47	48	4
NMTAP	47	96	5
NMSTR	47	144	3
NMSI_	47	144	3	96	48	0
NMTAP	47	144	6
NMTAP	47	240	5
NMTAP	47	288	6
EXTAP	47	336	3
EXHLD	47	336	7	192
NMTAP	48	48	6
NMTAP	48	96	5
NMSTR	48	144	4
NMSI_	48	144	4	96	48	6
NMTAP	48	240	0
CNSI_	48	288	6	0	48	2
NMTAP	48	288	7
EXTAP	49	0	3
EXHLD	49	0	6	96
NMTAP	49	96	5
NMTAP	49	120	4
NMTAP	49	144	3
NMTAP	49	168	2
NMTAP	49	192	0
NMTAP	49	192	1
NMTAP	49	240	7
NMTAP	49	288	7
NMTAP	49	336	4
NMTAP	49	336	6
NMTAP	50	48	2
NMTAP	50	48	4
NMTAP	50	96	3
NMTAP	50	120	4
NMHLD	50	144	3	96
NMTAP	50	240	2
NMTAP	50	264	1
NMTAP	50	288	0
NMTAP	50	312	7
NMTAP	50	336	6
NMTAP	50	360	5
EXSTR	51	0	2
NMSI_	51	0	2	96	48	6
EXTAP	51	0	4
EXTAP	51	96	2
EXSTR	51	144	7
NMSI_	51	144	7	96	48	3
EXSTR	51	240	0
NMSCR	51	240	0	96	240	7
EXTAP	51	240	7
EXTAP	51	336	0
NMTTP	51	336	0	C	1	M1
NMSTR	52	288	0
NMSI_	52	288	0	96	48	4
BXTAP	53	0	0
NMTAP	54	240	3
NMTAP	54	264	4
EXTAP	54	288	0
EXSTR	55	0	5
NMSI_	55	0	5	96	48	0
EXTAP	55	0	7
NMTAP	55	96	3
NMTAP	55	144	3
NMTAP	55	192	3
NMSTR	55	192	5
NMSI_	55	192	5	96	48	0
NMTAP	55	264	2
NMHLD	55	336	1	336
NMTAP	56	48	7
NMTAP	56	96	7
NMTAP	56	144	7
NMTAP	56	240	0
NMTAP	56	288	0
EXTAP	57	0	0
EXSTR	57	0	2
NMSI_	57	0	2	96	48	7
NMTAP	57	96	4
NMTAP	57	144	4
NMSTR	57	192	2
NMSI_	57	192	2	96	48	7
NMTAP	57	192	4
NMTAP	57	264	5
NMHLD	57	336	6	96
NMHLD	58	48	4	96
NMHLD	58	144	3	96
NMTAP	58	240	1
NMTAP	58	288	0
NMTAP	58	336	7
NMSTR	59	0	6
NMSI_	59	0	6	96	48	3
NMTAP	59	96	0
NMTAP	59	96	6
NMTAP	59	192	1
NMTAP	59	264	2
NMTAP	59	264	5
NMTAP	59	336	3
NMHLD	59	336	4	144
NMTAP	60	48	5
NMSTR	60	96	5
NMSI_	60	96	5	96	48	1
EXTAP	60	192	5
NMSTR	60	192	7
NMSI_	60	192	7	96	48	2
NMSI_	60	192	7	96	48	4
EXTAP	60	288	7
NMTAP	61	0	3
NMTAP	61	0	5
NMTAP	61	48	2
NMTAP	61	72	3
NMTAP	61	96	2
NMTAP	61	144	5
NMTAP	61	168	4
NMTAP	61	192	5
NMTAP	61	240	6
NMTAP	61	288	7
NMSTR	61	336	0
NMSCR	61	336	0	96	48	3
NMTAP	62	48	2
NMSTR	62	144	7
NMSCL	62	144	7	96	48	4
NMTAP	62	240	5
NMTAP	62	336	2
NMTAP	62	336	3
NMHLD	63	0	0	48
NMHLD	63	0	4	48
NMHLD	63	96	2	48
NMHLD	63	96	7	48
NMTAP	63	192	1
NMHLD	63	192	4	144
NMTAP	63	264	3
NMSTR	63	336	5
NMSCR	63	336	5	96	144	2
NMTAP	64	48	3
NMTAP	64	96	4
NMTAP	64	144	5
NMSTR	64	192	6
NMSI_	64	192	6	96	48	2
NMSTR	64	288	0
NMSI_	64	288	0	96	48	3
NMSI_	64	288	0	96	48	5
EXTAP	65	0	0
NMTAP	65	96	4
NMTAP	65	120	3
NMTAP	65	144	2
NMTAP	65	168	1
NMTAP	65	192	0
NMTAP	65	192	7
NMTAP	65	264	1
NMTAP	65	264	6
NMSTR	65	336	6
NMSI_	65	336	6	96	48	2
NMSTR	66	48	7
NMSI_	66	48	7	96	48	3
NMTAP	66	144	4
NMSTR	66	192	4
NMSI_	66	192	4	96	48	0
EXTAP	66	288	0
EXTAP	67	0	1
EXTAP	67	0	3
NMTAP	67	96	4
NMTAP	67	96	6
NMTAP	67	192	1
NMTAP	67	192	5
NMTAP	67	240	2
NMTAP	67	240	6
NMTAP	67	288	3
NMTAP	67	288	7
EXSTR	67	336	0
NMSXR	67	336	0	96	144	5
EXSTR	67	336	4
NMSXR	67	336	4	96	144	1
BRTAP	68	288	3
BRTAP	68	288	7
EXTAP	69	0	1
NMTAP	69	24	0
NMTAP	69	48	2
NMTAP	69	96	6
NMTAP	69	120	7
NMTAP	69	144	5
NMTAP	69	192	2
NMTAP	69	216	3
NMTAP	69	240	1
NMTAP	69	288	4
NMTAP	69	312	3
NMTAP	69	336	4
NMTAP	69	360	3
NMTAP	70	0	6
NMTAP	70	24	7
NMTAP	70	48	5
NMTAP	70	96	1
NMTAP	70	120	0
NMTAP	70	144	1
NMTAP	70	168	0
NMSTR	70	192	1
NMSI_	70	192	1	96	48	5
NMTAP	70	240	2
NMTAP	70	288	0
NMTAP	71	0	6
NMTAP	71	24	7
NMTAP	71	48	6
NMTAP	71	72	7
NMTAP	71	96	5
NMTAP	71	144	2
NMTAP	71	168	3
NMTAP	71	192	2
NMTAP	71	216	3
NMTAP	71	240	1
NMTAP	71	288	5
NMTAP	71	312	4
NMTAP	71	336	5
NMTAP	71	360	4
NMSTR	72	0	6
NMSI_	72	0	6	96	48	4
NMSTR	72	48	7
NMSI_	72	48	7	96	48	3
NMSTR	72	96	6
NMSCR	72	96	6	96	144	5
NMTAP	72	144	7
EXTAP	72	192	6
EXTAP	72	288	0
EXTAP	73	0	6
NMTAP	73	24	7
NMTAP	73	48	5
NMTAP	73	96	1
NMTAP	73	120	0
NMTAP	73	144	2
NMTAP	73	192	5
NMTAP	73	216	4
NMTAP	73	240	6
NMTAP	73	288	3
NMTAP	73	312	4
NMTAP	73	336	3
NMTAP	73	360	4
NMTAP	74	0	1
NMTAP	74	24	0
NMTAP	74	48	2
NMTAP	74	96	6
NMTAP	74	120	7
NMTAP	74	144	6
NMTAP	74	168	7
NMSTR	74	192	6
NMSI_	74	192	6	96	48	2
NMTAP	74	240	5
NMTAP	74	288	7
NMSTR	75	0	1
NMSI_	75	0	1	96	48	5
NMSTR	75	48	5
NMSI_	75	48	5	96	48	2
NMTAP	75	96	6
NMTAP	75	144	7
NMSTR	75	192	0
NMSI_	75	192	0	96	48	4
NMTAP	75	288	2
NMHLD	75	336	2	96
CNSI_	75	336	4	0	48	6
NMTAP	76	48	4
NMTAP	76	96	3
NMTAP	76	96	4
NMTAP	76	144	2
NMTAP	76	168	3
NMTAP	76	192	2
NMTAP	76	240	5
NMTAP	76	264	4
NMTAP	76	288	5
NMTAP	76	312	4
NMTAP	76	336	5
EXTAP	77	0	1
EXTAP	77	0	3
NMTAP	77	48	2
NMTAP	77	96	4
NMTAP	77	96	6
NMTAP	77	144	5
NMTAP	77	192	2
NMTAP	77	192	3
NMTAP	77	240	1
NMTAP	77	288	2
NMTAP	77	288	3
NMTAP	77	336	0
NMSTR	78	0	1
NMSI_	78	0	1	96	48	4
NMTAP	78	48	7
NMTAP	78	96	6
CNSI_	78	144	4	0	48	0
NMTAP	78	144	5
NMTAP	78	240	7
NMTAP	78	288	0
NMTAP	78	336	1
NMSTR	78	336	3
NMSI_	78	336	3	96	48	6
NMTAP	79	48	7
NMTAP	79	96	0
NMTAP	79	144	1
NMSTR	79	144	3
NMSI_	79	144	3	96	48	7
NMTAP	79	240	7
NMTAP	79	288	0
NMTAP	79	336	1
NMSTR	79	336	3
NMSCR	79	336	3	96	144	0
NMTAP	80	48	1
NMTAP	80	96	2
NMTAP	80	144	3
NMSTR	80	192	4
NMSI_	80	192	4	96	48	0
EXTAP	80	288	0
EXTAP	80	288	4
EXTAP	81	0	2
EXHLD	81	0	7	96
NMTAP	81	96	0
NMTAP	81	120	1
NMTAP	81	144	2
NMTAP	81	168	3
NMTAP	81	192	4
NMTAP	81	192	5
NMTAP	81	240	6
NMTAP	81	288	6
NMSTR	81	336	1
NMSUL	81	336	1	96	96	3
NMTAP	81	336	7
NMTAP	82	48	7
NMTAP	82	96	6
NMHLD	82	144	5	96
NMTAP	82	240	3
NMTAP	82	264	4
NMTAP	82	288	5
NMTAP	82	312	6
NMTAP	82	336	7
NMTAP	82	360	0
NMTAP	83	0	1
NMTAP	83	0	6
NMTAP	83	48	7
NMTAP	83	96	2
NMTAP	83	96	5
NMTAP	83	144	1
NMTAP	83	192	3
NMTAP	83	192	4
NMTAP	83	240	5
NMTAP	83	288	7
NMTAP	83	312	6
EXSTR	83	336	7
NMSI_	83	336	7	96	48	2
EXSTR	84	48	6
NMSI_	84	48	6	96	48	3
EXTAP	84	48	7
EXTAP	84	144	6
EXTAP	84	144	7
NMTAP	84	240	6
NMTAP	84	240	7
NMTAP	84	288	4
NMTAP	84	288	5
NMTAP	84	336	2
NMTAP	84	336	3
BRHLD	85	0	0	576
BRSTR	85	0	1
NMSXR	85	0	1	96	480	5
NMTTP	86	240	7	E	0	M1
NMTTP	86	288	6	E	0	M1
NMTTP	86	336	5	E	0	M1
NMTTP	87	0	4	E	0	M1
NMTTP	87	96	0	C	0	M1
NMTTP	87	192	3	E	0	M1
NMTTP	87	240	2	E	0	M1
NMTTP	87	288	1	E	0	M1
NMTTP	87	336	0	E	0	M1
NMTTP	88	48	3	B	0	M1
NMTTP	88	48	4	B	0	M1
NMTTP	88	144	0	B	0	M1
NMTTP	88	144	7	B	0	M1
NMTTP	88	240	6	B	0	M1
NMTTP	88	288	1	B	0	M1
EXTAP	89	0	3
EXSTR	89	0	7
NMSSR	89	0	7	96	192	3
NMTAP	89	240	0
NMTAP	89	288	1
NMHLD	89	336	2	96
NMHLD	90	48	3	96
NMHLD	90	144	4	144
NMTTP	90	288	0	C	0	M1
NMTAP	91	0	1
NMTTP	91	0	5	B	0	M1
NMTTP	91	144	2	B	0	M1
NMTAP	91	144	6
EXTAP	91	288	0
NMTHO	91	288	0	1248	C	0	M1
NMTTP	92	192	3	E	0	M1
NMTTP	92	240	2	E	0	M1
NMTTP	92	288	1	E	0	M1
NMTTP	92	336	0	E	0	M1
NMTTP	92	344	0	D	1	M1

T_REC_TAP	392
T_REC_BRK	2
T_REC_XTP	46
T_REC_BXX	1
T_REC_HLD	57
T_REC_XHO	6
T_REC_BHO	1
T_REC_BXH	2
T_REC_STR	42
T_REC_BST	2
T_REC_XST	11
T_REC_XBS	2
T_REC_TTP	58
T_REC_THO	1
T_REC_SLD	61
T_REC_BSL	0
T_REC_ALL	684
T_NUM_TAP	549
T_NUM_BRK	10
T_NUM_HLD	64
T_NUM_SLD	61
T_NUM_ALL	684
T_JUDGE_TAP	556
T_JUDGE_HLD	248
T_JUDGE_SLD	61
T_JUDGE_ALL	865
TTM_EACHPAIRS	106
TTM_SCR_TAP	274500
TTM_SCR_BRK	26000
TTM_SCR_HLD	64000
TTM_SCR_SLD	91500
TTM_SCR_ALL	456000
TTM_SCR_S	441350
TTM_SCR_SS	455000
TTM_RAT_ACV	10021

