VERSION	0.00.00	1.04.00
FES_MODE	0
BPM_DEF	180.000	180.000	180.000	180.000
MET_DEF	4	4
RESOLUTION	384
CLK_DEF	384
COMPATIBLE_CODE	MA2

BPM	0	0	180.000
MET	0	0	4	4

NMHLD	1	0	2	672
NMTTP	1	96	1	E	0	M1
NMTTP	1	288	7	E	0	M1
NMTTP	2	96	3	E	0	M1
NMTTP	2	288	5	E	0	M1
NMHLD	3	0	5	288
NMTTP	3	96	7	E	0	M1
NMTTP	3	288	3	E	0	M1
EXTAP	4	0	4
EXTAP	4	0	6
EXTAP	4	72	3
EXTAP	4	72	5
EXHLD	4	144	2	96
EXHLD	4	144	4	96
BXTAP	4	288	1
BXTAP	4	288	6
NMHLD	5	0	0	96
NMHLD	5	0	4	96
NMHLD	5	144	1	96
NMHLD	5	144	5	96
NMSTR	5	288	2
NMSCL	5	288	2	96	288	3
NMHLD	5	288	6	384
NMHLD	7	0	1	96
NMHLD	7	0	5	96
NMHLD	7	144	2	96
NMHLD	7	144	6	96
NMHLD	7	288	3	96
NMHLD	7	288	7	96
NMHLD	8	48	2	96
NMHLD	8	48	6	96
NMSTR	8	192	1
NMSI_	8	192	1	96	48	4
NMHLD	8	192	5	96
NMHLD	9	0	3	96
NMHLD	9	0	7	96
NMHLD	9	144	2	96
NMHLD	9	144	6	96
NMHLD	9	288	1	384
NMSTR	9	288	5
NMSCR	9	288	5	96	288	4
NMHLD	11	0	2	96
NMHLD	11	0	6	96
NMHLD	11	144	1	96
NMHLD	11	144	5	96
NMHLD	11	288	0	96
NMHLD	11	288	4	96
NMHLD	12	48	1	96
NMHLD	12	48	5	96
NMSTR	12	192	2
NMSI_	12	192	2	96	48	4
NMSTR	12	192	6
NMSI_	12	192	6	96	48	4
NMTAP	13	0	3
NMTAP	13	96	3
NMTAP	13	192	5
NMTAP	13	240	4
NMTAP	13	288	3
NMHLD	13	336	2	192
NMTAP	14	48	3
NMTAP	14	144	3
NMTAP	14	240	2
NMTAP	14	240	3
NMTAP	14	288	2
NMTAP	14	288	3
NMHLD	15	0	2	96
NMHLD	15	96	5	96
NMTAP	15	192	4
NMTAP	15	240	4
NMTAP	15	288	5
NMHLD	15	336	6	336
NMTAP	16	48	4
NMTAP	16	96	4
NMHLD	16	144	4	144
NMTAP	17	0	3
NMTAP	17	96	3
NMTAP	17	192	5
NMTAP	17	240	4
NMTAP	17	288	3
NMHLD	17	336	2	192
NMTAP	18	48	4
NMTAP	18	96	4
NMHLD	18	144	4	144
NMTAP	18	240	3
BRTAP	18	288	3
BXHLD	19	0	1	96
BXHLD	19	0	3	96
BXHLD	19	144	4	96
BXHLD	19	144	6	96
BXSTR	19	288	0
NMSSL	19	288	0	96	192	4
BXSTR	19	288	7
NMSSR	19	288	7	96	192	3
EXTAP	20	288	2
EXTAP	20	288	4
NMTHO	21	0	0	576	C	0	M1
NMTTP	21	0	1	B	0	M1
NMTTP	21	0	2	B	0	M1
NMTTP	21	0	2	E	0	M1
NMTTP	21	0	4	B	0	M1
NMTTP	21	0	5	B	0	M1
NMTTP	21	0	5	E	0	M1
EXTAP	22	288	7
NMTAP	23	0	0
NMTAP	23	0	6
NMTAP	23	192	3
NMHLD	23	192	4	384
NMTAP	23	336	5
NMTAP	24	48	5
NMTAP	24	144	3
NMSTR	24	192	3
NMSI_	24	192	3	96	48	7
BRTAP	24	288	6
NMTAP	25	0	5
NMTAP	25	144	4
NMTAP	25	144	5
NMHLD	25	192	4	480
NMTAP	25	192	5
NMTAP	25	336	3
NMTAP	26	48	3
NMTAP	26	144	5
NMHLD	26	192	5	96
NMTAP	27	0	2
NMTAP	27	0	4
NMTAP	27	144	2
NMTAP	27	144	3
NMTAP	27	192	2
NMHLD	27	192	3	240
NMTAP	27	336	4
NMSTR	28	48	4
NMSXL	28	48	4	96	192	1
NMTAP	29	0	5
NMTAP	29	96	3
NMTAP	29	96	5
NMHLD	29	192	2	432
NMTAP	29	288	1
NMTAP	29	336	1
NMTAP	30	48	3
NMHLD	30	144	4	96
NMTAP	30	288	2
NMTAP	30	288	4
NMTAP	31	0	3
NMTAP	31	96	6
NMSTR	31	144	6
NMSI_	31	144	6	96	48	4
NMTAP	31	336	3
NMSTR	32	48	2
NMSLL	32	48	2	96	240	3
NMSTR	32	48	4
NMSLR	32	48	4	96	240	3
NMTAP	33	96	2
NMTAP	33	96	4
NMHLD	33	192	5	432
NMTAP	33	288	6
NMTAP	33	336	6
NMTAP	34	48	4
NMHLD	34	144	3	96
NMTAP	34	288	3
NMTAP	34	288	5
NMHLD	35	0	6	96
NMHLD	35	96	4	96
NMHLD	35	192	3	96
NMTAP	35	288	1
NMSTR	35	336	1
NMSUR	35	336	1	96	144	5
BRTAP	36	288	1
BRTAP	36	288	6
NMTTP	37	0	0	C	0	M1
NMTTP	37	96	0	B	0	M1
NMTTP	37	192	1	B	0	M1
NMTTP	37	288	2	B	0	M1
NMTTP	38	0	3	B	0	M1
NMTTP	38	0	4	E	0	M1
NMTTP	38	96	4	B	0	M1
NMTTP	38	96	5	E	0	M1
NMTTP	38	192	5	B	0	M1
NMTTP	38	192	6	E	0	M1
NMTTP	38	288	6	B	0	M1
NMTTP	38	288	7	E	0	M1
NMTTP	39	0	0	E	0	M1
NMTTP	39	0	0	A	0	M1
NMTTP	39	96	1	E	0	M1
NMTTP	39	96	1	A	0	M1
NMTTP	39	192	2	E	0	M1
NMTTP	39	192	2	A	0	M1
NMTTP	39	288	3	E	0	M1
NMTTP	39	288	3	A	0	M1
NMTTP	40	0	4	E	0	M1
NMTTP	40	0	4	A	0	M1
NMTTP	40	96	5	E	0	M1
NMTTP	40	96	5	A	0	M1
NMTTP	40	192	6	E	0	M1
NMTTP	40	192	6	A	0	M1
NMSTR	41	0	0
NMSUR	41	0	0	96	192	4
NMTTP	41	96	0	E	0	M1
NMTTP	41	192	7	E	0	M1
NMTTP	41	288	6	E	0	M1
NMSTR	42	0	7
NMSUL	42	0	7	96	192	3
NMTTP	42	96	0	E	0	M1
NMTTP	42	192	1	E	0	M1
NMTTP	42	288	2	E	0	M1
NMTAP	43	0	1
NMTAP	43	96	4
NMTAP	43	144	4
NMTAP	43	240	3
NMSTR	43	336	4
NMSCL	43	336	4	96	144	1
NMSTR	43	336	5
NMSCR	43	336	5	96	144	0
NMTAP	44	288	2
NMTAP	44	288	7
NMTAP	45	0	3
NMTAP	45	96	3
NMTAP	45	192	5
NMTAP	45	240	4
NMTAP	45	288	3
NMHLD	45	336	2	96
NMTAP	46	48	1
NMTAP	46	96	1
NMHLD	46	144	1	96
NMTAP	46	240	0
NMTAP	46	288	0
NMHLD	46	336	0	96
NMTAP	47	48	7
NMTAP	47	96	7
NMHLD	47	144	7	96
NMTAP	47	240	6
NMTAP	47	288	6
NMHLD	47	336	6	96
NMTAP	48	48	5
NMTAP	48	96	5
NMHLD	48	144	5	96
NMTAP	48	240	4
EXTAP	48	288	4
EXTAP	48	288	5
NMSTR	49	0	0
NMSSL	49	0	0	96	96	4
NMTAP	49	0	4
NMTAP	49	288	5
NMHLD	49	336	5	96
NMTAP	50	48	6
NMTAP	50	96	6
NMHLD	50	144	6	96
NMTAP	50	240	7
EXTAP	50	288	0
EXTAP	50	288	7
BXHLD	51	0	0	96
BXHLD	51	0	2	96
BXHLD	51	144	5	96
BXHLD	51	144	7	96
BXSTR	51	288	1
NMSXL	51	288	1	96	288	0
BXSTR	51	288	6
NMSXR	51	288	6	96	288	7
NMTTP	53	0	0	C	1	M1
NMTTP	53	0	1	B	0	M1
NMTTP	53	0	2	B	0	M1
NMTTP	53	0	2	E	0	M1
NMTTP	53	0	3	B	0	M1
NMTTP	53	0	3	E	0	M1
NMTTP	53	0	4	B	0	M1
NMTTP	53	0	5	B	0	M1
NMTTP	53	0	5	E	0	M1
NMTTP	53	0	6	B	0	M1
NMTTP	53	0	6	E	0	M1
BRSTR	54	192	1
BRSI_	54	192	1	96	48	4
BRSTR	54	192	5
BRSI_	54	192	5	96	48	0
EXTAP	55	0	3
EXTAP	55	0	7
NMTAP	55	96	1
NMTAP	55	96	5
NMTAP	55	192	2
NMTAP	55	192	4
NMTAP	55	264	2
NMTAP	55	264	4
NMSTR	55	336	2
NMSCL	55	336	2	96	96	7
NMTAP	55	336	4
NMTAP	56	48	5
NMSTR	56	144	6
NMSCL	56	144	6	96	96	3
NMTAP	56	240	0
NMTAP	56	336	2
EXTAP	57	0	2
NMTAP	57	96	3
NMTAP	57	96	4
NMTAP	57	192	4
NMTAP	57	192	6
NMTAP	57	264	4
NMTAP	57	264	6
NMTAP	57	336	4
NMSTR	57	336	6
NMSI_	57	336	6	96	48	4
NMSTR	58	144	1
NMSI_	58	144	1	96	48	3
NMTAP	58	144	3
NMTAP	58	336	4
NMTAP	58	336	5
NMTAP	59	0	4
NMTAP	59	0	5
NMTAP	59	96	6
NMTAP	59	96	7
NMTAP	59	192	1
NMTAP	59	192	7
NMTAP	59	264	1
NMTAP	59	264	7
NMTAP	59	336	1
NMTAP	59	336	7
NMTAP	60	48	2
NMTAP	60	48	3
NMTAP	60	96	2
NMTAP	60	96	3
NMTAP	60	192	4
NMTAP	60	192	5
BRTAP	60	288	2
BRTAP	60	288	7
NMTAP	61	48	5
NMTAP	61	96	4
NMTAP	61	144	3
NMTAP	61	192	2
NMTAP	61	288	2
NMTAP	61	288	3
NMSTR	61	336	2
NMSI_	61	336	2	96	48	7
NMSTR	61	336	3
NMSI_	61	336	3	96	48	7
NMSTR	62	144	4
NMSI_	62	144	4	96	48	0
NMSTR	62	144	5
NMSI_	62	144	5	96	48	0
NMTAP	62	336	1
NMTAP	62	336	2
NMTAP	63	0	1
NMTAP	63	0	2
NMTAP	63	96	0
NMTAP	63	96	7
EXTAP	63	192	4
EXTAP	63	192	6
EXTAP	63	264	4
EXTAP	63	264	6
EXTAP	63	336	4
EXHLD	63	336	6	96
NMTAP	64	48	3
NMTAP	64	96	2
NMHLD	64	144	1	144
NMTAP	64	240	3
NMTAP	64	288	3
EXSTR	65	0	0
NMSSL	65	0	0	96	96	4
EXTAP	65	0	4
NMTAP	65	288	5
NMTAP	65	336	5
NMTAP	66	48	1
NMTAP	66	48	7
NMTAP	66	144	2
NMTAP	66	144	3
NMTAP	66	192	2
NMTAP	66	192	3
NMTAP	66	288	0
NMTAP	66	288	4
BXHLD	67	0	5	96
BXHLD	67	0	7	96
BXTAP	67	192	1
BXTAP	67	192	3
NMTAP	67	288	2
NMTAP	67	288	5
BXSTR	67	336	2
NMSXR	67	336	2	96	192	4
BXSTR	67	336	5
NMSXL	67	336	5	96	192	3
BXTAP	68	288	0
BXTAP	68	288	7
NMSTR	69	0	1
NMSI_	69	0	1	96	48	5
NMSTR	69	96	7
NMSI_	69	96	7	96	48	3
NMSTR	69	192	0
NMSI_	69	192	0	96	48	4
NMSTR	69	288	6
NMSI_	69	288	6	96	48	2
NMSTR	70	0	1
NMSI_	70	0	1	96	48	5
NMSTR	70	96	7
NMSI_	70	96	7	96	48	3
NMTAP	70	192	2
EXTAP	70	288	1
EXTAP	70	288	4
NMHLD	71	0	0	96
NMTAP	71	96	6
NMHLD	71	144	6	96
NMTAP	71	240	4
NMHLD	71	288	4	96
NMTAP	72	0	2
NMHLD	72	48	2	96
NMTAP	72	144	0
NMTAP	72	192	0
BRTAP	72	288	1
BRTAP	72	288	7
NMSTR	73	0	6
NMSI_	73	0	6	96	48	2
NMSTR	73	96	0
NMSI_	73	96	0	96	48	4
NMSTR	73	192	7
NMSI_	73	192	7	96	48	3
NMSTR	73	288	1
NMSI_	73	288	1	96	48	5
NMSTR	74	0	6
NMSI_	74	0	6	96	48	2
NMSTR	74	96	0
NMSI_	74	96	0	96	48	4
NMTAP	74	192	5
EXTAP	74	288	3
EXTAP	74	288	6
NMTAP	75	0	1
NMTAP	75	0	3
NMTAP	75	96	4
NMTAP	75	96	5
NMHLD	75	144	4	96
NMHLD	75	144	5	96
NMTAP	75	288	1
NMTAP	75	288	3
EXSTR	75	336	1
NMSI_	75	336	1	96	48	5
EXTAP	75	336	3
EXSTR	76	48	6
NMSI_	76	48	6	96	48	2
EXSTR	76	144	0
NMSI_	76	144	0	96	48	4
EXSTR	76	240	7
NMSI_	76	240	7	96	48	3
EXTAP	76	336	2
EXTAP	77	0	2
NMTAP	77	96	2
NMTAP	77	96	6
NMTAP	77	192	4
NMTAP	77	240	4
NMTAP	77	288	3
NMSTR	77	336	3
NMSXR	77	336	3	96	96	1
NMTAP	78	48	4
NMTAP	78	96	4
NMSTR	78	144	4
NMSXL	78	144	4	96	96	6
NMTAP	78	240	2
NMTAP	78	288	2
NMSTR	78	336	2
NMSXR	78	336	2	96	96	0
NMTAP	79	48	3
NMTAP	79	96	3
NMSTR	79	144	3
NMSXL	79	144	3	96	96	5
NMTAP	79	240	1
NMTAP	79	288	1
NMSTR	79	336	1
NMSXR	79	336	1	96	96	7
NMTAP	80	48	2
NMTAP	80	96	2
NMTAP	80	144	2
NMTAP	80	240	1
NMTAP	80	240	2
EXTAP	80	288	1
EXTAP	80	288	2
NMSTR	81	0	0
NMSSL	81	0	0	96	96	4
NMTAP	81	0	4
NMTAP	81	288	5
NMSTR	81	336	5
NMSCR	81	336	5	96	96	0
NMTAP	82	48	4
NMTAP	82	144	2
NMTAP	82	240	0
NMTAP	82	240	1
EXTAP	82	288	0
EXTAP	82	288	1
NMTAP	83	0	2
NMTAP	83	0	3
NMTAP	83	96	4
NMTAP	83	96	5
NMTAP	83	144	4
NMTAP	83	144	5
NMTAP	83	240	3
NMTAP	83	240	6
EXTAP	83	336	2
EXSTR	83	336	7
NMSI_	83	336	7	96	48	3
EXSTR	84	48	0
NMSI_	84	48	0	96	48	4
EXTAP	84	144	7
EXTAP	84	240	3
EXTAP	84	240	6
EXTAP	84	288	3
EXTAP	84	288	6
EXTAP	84	336	2
EXTAP	84	336	5
BXSTR	85	0	1
NMSCR	85	0	1	96	1248	1
BXTAP	85	0	4
NMTTP	87	192	4	B	0	M1
NMTTP	87	192	5	B	0	M1
NMTTP	88	192	2	B	0	M1
NMTTP	88	192	3	B	0	M1
NMHLD	89	0	5	192
NMTTP	89	192	4	B	0	M1
NMTTP	89	192	5	B	0	M1
NMTTP	89	192	5	E	0	M1
NMHLD	90	0	2	192
NMTTP	90	192	2	B	0	M1
NMTTP	90	192	3	B	0	M1
NMTTP	90	192	3	E	0	M1
NMTAP	91	0	4
NMTAP	91	0	5
NMTAP	91	144	3
NMTAP	91	144	4
NMTAP	91	288	2
NMHLD	91	288	3	1728
NMTTP	92	192	2	B	0	M1
NMTTP	92	240	3	B	0	M1
NMTTP	92	288	4	B	0	M1
NMTTP	92	336	5	B	0	M1

T_REC_TAP	203
T_REC_BRK	8
T_REC_XTP	39
T_REC_BXX	7
T_REC_HLD	65
T_REC_XHO	3
T_REC_BHO	0
T_REC_BXH	10
T_REC_STR	43
T_REC_BST	2
T_REC_XST	7
T_REC_XBS	7
T_REC_TTP	69
T_REC_THO	1
T_REC_SLD	57
T_REC_BSL	2
T_REC_ALL	523
T_NUM_TAP	361
T_NUM_BRK	36
T_NUM_HLD	69
T_NUM_SLD	57
T_NUM_ALL	523
T_JUDGE_TAP	385
T_JUDGE_HLD	277
T_JUDGE_SLD	59
T_JUDGE_ALL	721
TTM_EACHPAIRS	113
TTM_SCR_TAP	180500
TTM_SCR_BRK	93600
TTM_SCR_HLD	69000
TTM_SCR_SLD	85500
TTM_SCR_ALL	428600
TTM_SCR_S	412250
TTM_SCR_SS	425000
TTM_RAT_ACV	10084

