VERSION	0.00.00	1.04.00
FES_MODE	0
BPM_DEF	200.000	200.000	200.000	200.000
MET_DEF	4	4
RESOLUTION	384
CLK_DEF	384
COMPATIBLE_CODE	MA2

BPM	0	0	200.000
MET	0	0	4	4

NMTAP	1	0	4
NMHLD	1	0	5	576
NMTAP	1	144	4
NMTAP	1	192	4
NMTAP	1	288	3
NMTAP	2	0	3
NMTAP	2	48	3
NMTAP	2	144	4
NMTAP	2	192	4
NMTAP	2	288	3
NMTAP	2	288	4
NMHLD	3	0	2	576
NMTAP	3	0	3
NMTAP	3	144	3
NMTAP	3	192	3
NMTAP	3	288	4
NMTAP	4	0	4
NMTAP	4	48	4
NMTAP	4	144	3
NMTAP	4	192	3
NMTAP	4	288	3
NMTAP	4	288	4
NMTAP	5	0	4
NMHLD	5	0	5	576
NMTAP	5	144	4
NMTAP	5	192	4
NMTAP	5	288	3
NMTAP	6	0	3
NMTAP	6	48	3
NMTAP	6	144	4
NMTAP	6	192	4
NMTAP	6	288	3
NMTAP	6	288	4
NMHLD	7	0	2	384
NMTAP	7	0	3
NMTAP	7	144	3
NMTAP	7	192	3
NMTAP	7	288	4
NMSTR	8	0	4
NMSF_	8	0	4	96	192	0
BRTAP	9	0	2
BRTAP	9	0	6
NMTAP	9	96	4
NMTAP	9	96	5
NMTAP	9	144	4
NMSTR	9	192	4
NMSI_	9	192	4	96	48	0
NMTAP	9	192	5
NMTAP	9	240	4
NMTAP	9	288	4
NMTAP	9	288	5
NMTAP	10	0	1
NMTAP	10	0	5
NMTAP	10	48	1
NMTAP	10	96	1
NMTAP	10	96	5
NMTAP	10	144	1
NMTAP	10	192	1
NMTAP	10	192	5
NMTAP	10	288	2
NMTAP	10	288	5
NMTAP	10	336	3
NMTAP	11	0	4
NMTAP	11	0	5
NMTAP	11	96	3
NMTAP	11	96	5
NMTAP	11	144	3
NMSTR	11	192	3
NMSI_	11	192	3	96	48	0
NMTAP	11	192	5
NMTAP	11	240	3
NMTAP	11	288	3
NMTAP	11	288	5
NMTAP	12	0	5
NMTAP	12	0	7
NMTAP	12	48	7
NMTAP	12	96	5
NMTAP	12	96	7
NMTAP	12	144	7
NMTAP	12	192	5
NMTAP	12	192	7
NMHLD	12	240	0	0
NMHLD	12	264	4	0
NMHLD	12	288	0	0
NMHLD	12	312	4	0
NMHLD	12	336	0	0
NMHLD	12	360	4	0
NMTAP	13	0	1
NMTAP	13	96	2
NMTAP	13	96	3
NMTAP	13	144	3
NMTAP	13	192	2
NMSTR	13	192	3
NMSI_	13	192	3	96	48	7
NMTAP	13	240	3
NMTAP	13	288	2
NMTAP	13	288	3
NMTAP	14	0	0
NMTAP	14	0	2
NMTAP	14	48	0
NMTAP	14	96	0
NMTAP	14	96	2
NMTAP	14	144	0
NMTAP	14	192	0
NMTAP	14	192	2
NMTAP	14	240	3
NMTAP	14	288	4
NMTAP	14	336	5
EXTAP	15	0	4
EXTAP	15	0	6
NMTAP	15	48	4
NMTAP	15	48	7
EXTAP	15	144	1
EXTAP	15	144	3
NMTAP	15	192	0
NMTAP	15	192	3
EXTAP	15	288	4
EXTAP	15	288	6
NMTAP	15	336	4
NMTAP	15	336	7
NMHLD	16	0	0	180
NMHLD	16	0	4	180
NMTTP	16	192	3	A	0	M1
NMTTP	16	192	7	A	0	M1
NMTTP	16	204	3	D	0	M1
NMTTP	16	204	7	D	0	M1
NMTTP	16	216	2	A	0	M1
NMTTP	16	216	6	A	0	M1
NMTTP	16	228	2	D	0	M1
NMTTP	16	228	6	D	0	M1
NMTTP	16	240	1	A	0	M1
NMTTP	16	240	5	A	0	M1
BXTAP	16	288	0
BXTAP	16	288	4
EXTAP	17	0	2
EXTAP	17	0	6
NMHLD	18	0	3	384
NMHLD	19	0	4	192
NMHLD	19	192	5	192
NMHLD	20	0	6	192
NMHLD	20	192	5	192
NMHLD	21	0	4	192
NMHLD	21	192	3	192
NMHLD	22	0	2	192
NMHLD	22	192	1	192
NMSTR	23	0	0
NMSCL	23	0	0	96	192	5
NMSCR	23	0	0	96	192	3
NMSTR	24	0	4
NMSXL	24	0	4	96	192	6
NMSXR	24	0	4	96	192	2
NMTTP	25	0	3	E	0	M1
NMHLD	25	0	5	288
NMTTP	25	96	2	B	0	M1
NMTTP	25	192	1	B	0	M1
NMTTP	25	288	1	E	0	M1
NMTTP	26	0	3	E	0	M1
NMHLD	26	0	4	288
NMTTP	26	96	2	B	0	M1
NMTTP	26	192	1	B	0	M1
NMTTP	26	288	1	E	0	M1
NMHLD	27	0	3	288
NMTTP	27	0	5	E	0	M1
NMTTP	27	96	5	B	0	M1
NMTTP	27	192	6	B	0	M1
NMTTP	27	288	7	E	0	M1
NMHLD	28	0	2	288
NMTTP	28	0	5	E	0	M1
NMTTP	28	96	5	B	0	M1
NMTTP	28	192	6	B	0	M1
NMTTP	28	288	7	E	0	M1
NMTTP	29	0	3	E	0	M1
NMTAP	29	0	4
NMTTP	29	96	2	B	0	M1
NMTAP	29	96	4
NMTTP	29	192	1	B	0	M1
NMTAP	29	192	5
NMTTP	29	288	1	E	0	M1
NMTAP	29	288	5
NMTAP	30	0	3
NMTTP	30	0	5	E	0	M1
NMTAP	30	96	3
NMTTP	30	96	5	B	0	M1
NMTAP	30	192	2
NMTTP	30	192	6	B	0	M1
NMTAP	30	288	2
NMTTP	30	288	7	E	0	M1
NMTTP	31	0	3	E	0	M1
NMTAP	31	0	4
NMTTP	31	96	1	E	0	M1
NMTAP	31	96	5
NMTAP	31	192	3
NMTTP	31	192	5	E	0	M1
NMTAP	31	288	2
NMTTP	31	288	7	E	0	M1
EXTAP	32	0	3
EXTAP	32	0	5
EXTAP	32	72	2
EXTAP	32	72	3
EXTAP	32	144	4
EXTAP	32	144	5
NMTTP	32	192	0	C	0	M1
NMTTP	32	192	1	B	0	M1
NMTTP	32	192	2	B	0	M1
BRTAP	32	192	6
NMTAP	33	0	4
NMTAP	33	0	5
NMTAP	33	48	5
NMTAP	33	96	4
NMTAP	33	96	5
NMTAP	33	192	6
NMTAP	33	192	7
NMTAP	33	240	6
NMTAP	33	288	6
NMTAP	33	288	7
NMTAP	34	0	2
NMTAP	34	0	3
NMTAP	34	48	2
NMTAP	34	96	2
NMTAP	34	96	3
NMTAP	34	192	0
NMTAP	34	192	1
NMTAP	34	240	1
NMTAP	34	288	0
NMTAP	34	288	1
EXTAP	35	0	6
NMTAP	35	24	7
NMTAP	35	48	5
NMTAP	35	72	0
NMTAP	35	96	4
NMTAP	35	120	1
NMTAP	35	144	3
NMTAP	35	168	2
EXTAP	35	192	5
NMTAP	35	216	4
NMTAP	35	240	6
NMTAP	35	264	3
NMTAP	35	288	7
NMTAP	35	312	2
NMTAP	35	336	0
NMSTR	35	360	1
NMSCR	35	360	1	96	120	4
BRHLD	36	0	0	240
NMTAP	36	240	5
NMTAP	36	264	6
NMTAP	36	288	7
NMTAP	36	312	0
NMTAP	36	336	1
NMTAP	36	360	2
BRTAP	37	0	3
BRTAP	37	0	4
NMTAP	37	48	6
NMTAP	37	72	7
NMTAP	37	96	5
NMTAP	37	120	7
NMTAP	37	144	6
NMTAP	37	192	0
NMTAP	37	192	4
NMTAP	37	264	1
NMTAP	37	288	1
NMTAP	37	336	3
NMTAP	38	0	2
NMTAP	38	0	4
NMTAP	38	72	5
NMSTR	38	96	4
NMSI_	38	96	4	96	48	1
NMTAP	38	144	6
NMTAP	38	192	4
NMTAP	38	192	7
BRTAP	38	288	0
BRTAP	38	288	5
NMTAP	38	336	6
NMTAP	38	360	7
NMSTR	39	0	6
NMSI_	39	0	6	96	48	3
NMTAP	39	96	0
NMTAP	39	96	6
NMTAP	39	144	1
NMSTR	39	192	2
NMSI_	39	192	2	96	48	7
NMTAP	39	264	3
NMTAP	39	288	2
NMTAP	39	336	4
EXTAP	40	0	7
NMTAP	40	24	5
NMTAP	40	48	0
NMTAP	40	72	6
NMTAP	40	96	1
NMTAP	40	120	7
NMTAP	40	144	2
NMTAP	40	168	0
NMTAP	40	192	1
NMTAP	40	216	3
NMTAP	40	240	2
NMTAP	40	264	4
NMTAP	40	288	3
NMTAP	40	312	5
NMTAP	40	336	4
NMTAP	40	360	6
EXSTR	41	0	5
NMSI_	41	0	5	96	48	1
EXTAP	41	0	7
NMTAP	41	72	7
NMTAP	41	96	5
NMTAP	41	144	7
EXSTR	41	192	0
NMSI_	41	192	0	96	48	4
EXTAP	41	192	6
NMTAP	41	264	6
NMTAP	41	288	0
NMTAP	41	336	6
EXTAP	42	0	2
EXSTR	42	0	3
NMSI_	42	0	3	96	48	7
NMTAP	42	72	2
NMTAP	42	96	3
NMTAP	42	144	2
EXTAP	42	192	0
EXSTR	42	192	6
NMSI_	42	192	6	96	48	2
NMTAP	42	264	0
NMTAP	42	288	6
NMTAP	42	336	0
NMTAP	43	0	1
NMTAP	43	0	3
NMTAP	43	48	2
NMTAP	43	48	4
NMTAP	43	96	3
NMTAP	43	96	5
NMTAP	43	144	6
NMTAP	43	168	7
NMTAP	43	192	6
NMTAP	43	264	0
NMTAP	43	264	1
NMTAP	43	336	3
NMTAP	43	336	4
BRTAP	44	0	2
EXTAP	44	0	5
BRTAP	44	48	1
EXTAP	44	48	4
BRTAP	44	96	0
EXTAP	44	96	3
EXTAP	44	144	2
BRHLD	44	144	7	96
NMTAP	44	240	1
NMTAP	44	264	0
NMTAP	44	288	7
NMTAP	44	312	6
NMTAP	44	336	5
NMTAP	44	360	4
BRTAP	45	0	2
BRTAP	45	0	3
NMSTR	45	48	1
NMSI_	45	48	1	96	48	5
NMTAP	45	72	0
NMTAP	45	96	1
NMTAP	45	120	0
NMTAP	45	144	1
NMHLD	45	192	6	96
NMTTP	45	240	5	D	0	M1
NMTTP	45	248	4	A	0	M1
NMTTP	45	256	4	D	0	M1
NMTTP	45	264	3	A	0	M1
NMTTP	45	272	3	D	0	M1
NMTTP	45	280	2	A	0	M1
NMTTP	45	288	2	D	0	M1
NMTAP	46	0	0
NMTAP	46	0	7
NMTAP	46	48	6
NMTAP	46	72	4
NMSTR	46	96	5
NMSCL	46	96	5	96	48	2
NMTAP	46	120	4
NMTAP	46	144	6
NMTAP	46	192	1
NMTAP	46	192	5
BRTAP	46	288	0
BRTAP	46	288	7
NMTAP	47	0	0
NMTAP	47	0	1
NMTAP	47	48	2
NMTAP	47	72	3
NMTAP	47	96	1
NMTAP	47	120	3
NMTAP	47	144	2
NMTAP	47	192	5
NMTAP	47	216	4
NMTAP	47	240	5
NMTAP	47	264	4
NMTAP	47	288	6
NMTAP	47	312	7
NMTAP	47	336	6
NMTAP	48	0	0
NMTAP	48	0	5
NMTAP	48	72	3
NMTAP	48	72	4
NMTAP	48	144	1
NMTAP	48	144	7
BRTAP	48	192	0
BRTAP	48	216	0
BRTAP	48	240	0
BRTAP	48	264	0
BRTAP	48	288	0
EXTAP	49	0	1
EXSTR	49	0	7
NMSI_	49	0	7	96	48	3
NMTAP	49	72	1
NMTAP	49	96	7
NMTAP	49	144	1
NMTAP	49	192	2
NMTAP	49	192	4
NMTAP	49	240	3
NMTAP	49	288	4
NMTAP	49	288	5
NMTAP	49	336	6
EXSTR	50	0	0
NMSI_	50	0	0	96	48	4
EXTAP	50	0	7
NMTAP	50	72	7
NMTAP	50	96	0
NMTAP	50	144	7
NMTAP	50	192	3
NMTAP	50	192	5
NMTAP	50	240	2
BRTAP	50	288	0
BRTAP	50	288	1
EXTAP	51	0	7
EXTAP	51	48	7
BRTAP	51	96	0
NMTAP	51	108	1
NMTAP	51	120	2
NMTAP	51	132	3
BRTAP	51	144	6
NMTAP	51	156	5
NMTAP	51	168	4
NMTAP	51	180	3
EXTAP	51	192	0
EXTAP	51	240	0
BRTAP	51	288	1
NMTAP	51	300	2
NMTAP	51	312	3
NMTAP	51	324	4
BRTAP	51	336	7
NMTAP	51	348	6
NMTAP	51	360	5
NMTAP	51	372	4
EXTAP	52	0	1
EXTAP	52	0	3
EXTAP	52	72	0
EXTAP	52	72	7
EXTAP	52	144	4
EXTAP	52	144	6
NMTAP	52	216	2
NMTAP	52	240	3
EXTAP	52	288	0
EXTAP	52	288	7
EXTAP	52	336	0
EXTAP	52	336	7
BRSTR	53	0	1
NMSUR	53	0	1	96	672	7
BRSTR	53	0	6
NMSUL	53	0	6	96	672	0
CNSCL	55	0	0	0	576	4
CNSCR	55	0	7	0	576	3
NMHLD	57	0	2	192
NMTAP	57	96	3
NMTAP	57	192	4
NMHLD	57	288	5	192
NMTAP	58	0	4
NMTAP	58	96	3
NMTAP	58	192	2
NMTAP	58	192	4
NMTAP	58	288	3
NMTAP	58	288	5
NMHLD	59	0	2	288
NMTAP	59	96	3
NMTAP	59	192	4
NMTAP	59	288	5
NMTAP	60	0	4
NMTAP	60	0	6
NMTAP	60	96	1
NMTAP	60	96	3
BRTAP	60	192	2
BRTAP	60	192	5
NMTAP	61	0	2
NMTAP	61	24	3
NMTAP	61	48	2
NMTAP	61	96	2
NMTAP	61	120	3
NMTAP	61	144	2
NMTAP	61	192	2
NMTAP	61	216	3
NMTAP	61	240	2
NMTAP	61	288	2
NMTAP	61	312	3
NMTAP	61	336	2
NMTAP	62	0	2
NMTAP	62	24	0
NMTAP	62	48	2
NMTAP	62	96	2
NMTAP	62	120	0
NMTAP	62	144	2
NMTAP	62	192	2
NMTAP	62	216	0
NMTAP	62	240	2
BRTAP	62	288	1
BRTAP	62	288	7
NMTAP	63	0	5
NMTAP	63	24	4
NMTAP	63	48	5
NMTAP	63	96	5
NMTAP	63	120	4
NMTAP	63	144	5
NMTAP	63	192	5
NMTAP	63	216	4
NMTAP	63	240	5
NMTAP	63	288	5
NMTAP	63	312	4
NMTAP	63	336	5
NMTAP	64	0	5
NMTAP	64	24	7
NMTAP	64	48	5
NMTAP	64	96	5
NMTAP	64	120	7
NMTAP	64	144	5
NMTAP	64	192	5
NMTAP	64	216	7
NMTAP	64	240	5
BRTAP	64	288	0
BRTAP	64	288	6
NMTAP	65	0	1
NMTAP	65	24	3
NMTAP	65	48	1
NMTAP	65	96	1
NMTAP	65	120	3
NMTAP	65	144	1
NMTAP	65	192	1
NMTAP	65	216	0
NMTAP	65	240	1
NMTAP	65	288	1
NMTAP	65	312	0
NMTAP	65	336	1
NMTAP	66	0	1
NMTAP	66	24	2
NMTAP	66	48	1
NMTAP	66	96	1
NMTAP	66	120	2
NMTAP	66	144	1
NMTAP	66	192	1
NMTAP	66	216	0
NMTAP	66	240	1
BRTAP	66	288	2
BRTAP	66	288	7
EXTAP	67	0	3
EXTAP	67	0	6
EXTAP	67	48	3
EXTAP	67	48	6
NMTAP	67	96	5
EXTAP	67	144	1
EXTAP	67	144	4
EXTAP	67	192	1
EXTAP	67	192	4
NMTAP	67	240	2
EXSTR	67	288	3
NMSXL	67	288	3	96	192	7
NMSXR	67	288	3	96	192	7
NMTAP	67	312	4
EXTAP	67	336	3
NMTAP	67	360	4
EXTAP	68	0	3
BRTAP	68	288	1
BRTAP	68	288	5
NMTHO	69	0	0	288	C	0	M1
NMTTP	70	0	0	B	0	M1
NMTTP	70	0	0	E	0	M1
NMTTP	70	0	0	A	0	M1
NMTTP	70	0	0	D	0	M1
NMHLD	70	0	6	96
NMTTP	70	0	7	B	0	M1
NMTTP	70	0	7	A	0	M1
NMHLD	70	192	2	96
NMTTP	70	192	3	B	0	M1
NMTTP	70	192	3	A	0	M1
NMTTP	70	192	4	B	0	M1
NMTTP	70	192	4	E	0	M1
NMTTP	70	192	4	A	0	M1
NMTTP	70	192	4	D	0	M1
NMSTR	70	288	7
NMSF_	70	288	7	96	48	3
BRTAP	71	0	7
NMTTP	71	2	0	C	1	M1
EXTAP	72	336	3
NMTAP	72	360	4
EXTAP	73	0	3
EXTAP	73	144	5
NMTAP	73	168	4
EXTAP	73	192	5
EXTAP	73	336	2
NMTAP	73	360	3
EXTAP	74	0	2
NMTAP	74	96	1
NMTAP	74	96	4
NMTAP	74	192	0
NMTAP	74	204	1
NMTAP	74	216	2
NMTAP	74	228	3
NMTAP	74	240	4
NMTAP	74	252	5
NMTAP	74	264	6
NMTAP	74	276	7
BRTAP	74	288	0
BRTAP	74	288	4
EXSTR	75	0	1
NMSI_	75	0	1	96	48	4
NMTAP	75	72	0
NMTAP	75	96	1
NMTAP	75	144	7
EXSTR	75	192	6
NMSI_	75	192	6	96	48	3
NMTAP	75	264	7
NMTAP	75	288	6
NMTAP	75	336	0
EXSTR	76	0	1
NMSCR	76	0	1	96	48	4
NMTAP	76	72	0
NMTAP	76	96	1
NMTAP	76	144	7
EXSTR	76	192	6
NMSCL	76	192	6	96	48	3
NMTAP	76	264	7
NMTAP	76	288	6
NMTAP	76	336	0
EXTAP	77	0	1
NMTAP	77	48	2
NMTAP	77	96	3
NMTAP	77	144	5
NMTAP	77	168	4
NMHLD	77	192	5	72
NMHLD	77	264	6	72
NMTAP	77	336	7
EXTAP	78	0	0
EXTAP	78	0	1
NMTAP	78	48	2
NMSTR	78	48	7
NMSI_	78	48	7	96	48	2
NMSTR	78	144	3
NMSI_	78	144	3	96	48	7
BRTAP	78	144	7
BRTAP	78	240	3
NMTAP	78	240	4
NMTAP	78	288	5
NMTAP	78	336	6
EXTAP	79	0	6
EXTAP	79	0	7
NMSTR	79	48	0
NMSI_	79	48	0	96	48	5
NMTAP	79	48	5
BRTAP	79	144	0
NMSTR	79	144	4
NMSI_	79	144	4	96	48	0
NMTAP	79	240	3
BRTAP	79	240	4
NMTAP	79	288	2
NMTAP	79	336	1
EXTAP	80	0	0
EXTAP	80	0	1
NMSTR	80	48	2
NMSI_	80	48	2	96	48	7
NMTAP	80	48	7
BRTAP	80	144	2
NMSTR	80	144	4
NMSI_	80	144	4	96	48	0
NMTAP	80	240	3
BRTAP	80	240	4
NMTAP	80	288	2
NMTAP	80	336	1
EXTAP	81	0	6
EXTAP	81	0	7
NMSTR	81	48	0
NMSI_	81	48	0	96	48	4
NMSTR	81	48	5
NMSI_	81	48	5	96	48	0
BRTAP	81	144	0
BRTAP	81	144	5
NMTAP	81	240	5
NMTAP	81	264	6
NMTAP	81	288	7
NMTAP	81	312	0
NMTAP	81	336	1
NMTAP	81	360	2
EXHLD	82	0	3	96
EXHLD	82	0	4	96
EXHLD	82	192	4	96
EXHLD	82	192	5	96
EXTAP	83	0	2
EXTAP	83	0	3
EXSTR	83	96	3
NMSI_	83	96	3	96	48	7
EXSTR	83	96	4
NMSI_	83	96	4	96	48	0
EXTAP	83	192	3
EXTAP	83	192	4
BRTAP	83	288	1
BRTAP	83	288	6
NMTAP	84	0	6
NMTAP	84	0	7
NMTAP	84	48	5
NMTAP	84	72	4
NMTAP	84	96	6
NMTAP	84	120	4
NMTAP	84	144	5
NMTAP	84	192	2
NMTAP	84	216	3
NMTAP	84	240	2
NMTAP	84	264	3
NMTAP	84	288	1
NMTAP	84	312	0
NMTAP	84	336	1
NMTAP	85	0	2
NMTAP	85	0	7
NMTAP	85	72	3
NMTAP	85	72	4
NMTAP	85	144	0
NMTAP	85	144	6
BRTAP	85	192	7
BRTAP	85	216	7
BRTAP	85	240	7
BRTAP	85	264	7
BRTAP	85	288	7
EXTAP	86	0	3
NMTAP	86	0	6
NMTAP	86	48	5
NMTAP	86	72	4
NMTAP	86	96	5
NMTAP	86	144	2
NMTAP	86	192	0
NMTAP	86	192	1
NMTAP	86	240	6
NMTAP	86	240	7
NMTAP	86	288	4
NMTAP	86	288	5
NMTAP	86	336	2
NMTAP	86	336	3
EXTAP	87	0	0
NMTAP	87	0	1
NMTAP	87	48	6
NMTAP	87	72	7
NMTAP	87	96	6
NMTAP	87	144	0
NMHLD	87	144	5	96
NMTAP	87	240	4
NMTAP	87	288	3
NMTAP	87	336	2
EXTAP	88	0	0
EXTAP	88	0	1
EXTAP	88	48	0
EXTAP	88	48	1
BRTAP	88	96	7
NMTAP	88	108	6
NMTAP	88	120	5
NMTAP	88	132	4
BRTAP	88	144	1
NMTAP	88	156	2
NMTAP	88	168	3
NMTAP	88	180	4
EXTAP	88	192	7
EXTAP	88	240	7
BRTAP	88	288	6
NMTAP	88	300	5
NMTAP	88	312	4
NMTAP	88	324	3
BRTAP	88	336	0
NMTAP	88	348	1
NMTAP	88	360	2
NMTAP	88	372	3
EXTAP	89	0	4
EXTAP	89	0	6
EXTAP	89	72	0
EXTAP	89	72	7
EXTAP	89	144	1
NMSTR	89	144	3
NMSCL	89	144	3	96	120	4
NMTAP	90	0	2
NMTAP	90	24	3
NMTAP	90	48	1
NMTAP	90	72	4
NMTAP	90	96	0
NMTAP	90	120	5
NMTAP	90	144	7
NMTAP	90	168	6
NMSTR	90	192	0
NMSF_	90	192	0	96	48	4
BRTAP	90	288	0
NMTTP	90	289	0	C	1	M1
EXTAP	91	0	1
NMTAP	91	24	0
NMTAP	91	48	1
NMTAP	91	72	0
NMTAP	91	96	2
NMTAP	91	120	7
NMTAP	91	144	2
NMTAP	91	168	7
NMTAP	91	192	0
NMTAP	91	216	5
NMTAP	91	240	0
NMTAP	91	264	5
NMTAP	91	288	1
NMTAP	91	312	4
NMTAP	91	336	1
NMTAP	91	360	4
NMTAP	92	0	2
NMTAP	92	24	3
NMTAP	92	48	2
NMTAP	92	72	5
NMTAP	92	96	4
NMTAP	92	120	5
NMTAP	92	144	0
NMTAP	92	168	7
NMTAP	92	192	0
NMTAP	92	240	1
NMTAP	92	240	3
NMTAP	92	288	4
NMTAP	92	312	2
NMTAP	92	336	5
NMTAP	92	360	3
EXTAP	93	0	6
NMTAP	93	24	7
NMTAP	93	48	6
NMTAP	93	72	7
NMTAP	93	96	5
NMTAP	93	120	0
NMTAP	93	144	5
NMTAP	93	168	0
NMTAP	93	192	7
NMTAP	93	216	2
NMTAP	93	240	7
NMTAP	93	264	2
NMTAP	93	288	6
NMTAP	93	312	3
NMTAP	93	336	6
NMTAP	93	360	3
NMTAP	94	0	5
NMTAP	94	24	4
NMTAP	94	48	5
NMTAP	94	72	2
NMTAP	94	96	3
NMTAP	94	120	2
NMTAP	94	144	7
NMTAP	94	168	0
NMTAP	94	192	6
NMTAP	94	216	7
NMTAP	94	240	6
NMTAP	94	264	7
BRTAP	94	288	0
BRTAP	94	288	5
BRTAP	95	0	1
EXTAP	95	0	5
NMTAP	95	24	2
NMTAP	95	24	6
NMTAP	95	48	3
NMTAP	95	48	7
NMTAP	95	72	0
NMTAP	95	72	4
NMTAP	95	96	5
NMTAP	95	120	6
NMTAP	95	144	7
NMTAP	95	168	0
EXTAP	95	192	1
BRTAP	95	192	5
NMTAP	95	216	2
NMTAP	95	216	6
NMTAP	95	240	3
NMTAP	95	240	7
NMTAP	95	264	0
NMTAP	95	264	4
NMTAP	95	288	5
NMTAP	95	312	6
NMTAP	95	336	7
NMTAP	95	360	0
BRTAP	96	0	1
EXTAP	96	0	5
NMTAP	96	24	2
NMTAP	96	24	6
NMTAP	96	48	3
NMTAP	96	48	7
NMTAP	96	72	0
NMTAP	96	72	4
NMTAP	96	96	5
NMTAP	96	120	6
NMTAP	96	144	7
NMTAP	96	168	0
EXTAP	96	192	1
BRTAP	96	192	5
NMTAP	96	216	2
NMTAP	96	216	6
NMTAP	96	240	3
NMTAP	96	240	7
NMTAP	96	264	0
NMTAP	96	264	4
BRTAP	96	288	1
BRTAP	96	288	5
EXTAP	97	0	3
EXTAP	97	0	6
NMTAP	97	48	4
NMTAP	97	48	5
NMTAP	97	96	4
NMTAP	97	96	5
NMTAP	97	144	1
NMTAP	97	144	4
NMTAP	97	192	2
NMTAP	97	192	3
NMTAP	97	240	2
NMTAP	97	240	3
NMTAP	97	288	4
NMTAP	97	312	3
NMTAP	97	336	5
NMTAP	97	360	2
EXTAP	98	0	1
EXTAP	98	0	6
NMSTR	98	48	0
NMSI_	98	48	0	96	48	4
NMSTR	98	48	7
NMSI_	98	48	7	96	48	1
BRTAP	98	144	0
BRTAP	98	144	7
EXTAP	98	240	0
EXTAP	98	240	3
EXTAP	98	288	2
EXTAP	98	288	7
EXTAP	98	336	1
EXTAP	98	336	6
EXTAP	99	0	0
NMTAP	99	24	5
NMTAP	99	48	2
NMTAP	99	72	3
BRTAP	99	96	1
EXTAP	99	144	7
NMTAP	99	168	2
NMTAP	99	192	5
NMTAP	99	216	4
BRTAP	99	240	6
BRSTR	99	288	0
BRSF_	99	288	0	96	48	4
BRTAP	99	312	0
BRTAP	99	336	0
BRTAP	99	360	0
BRTAP	100	0	0
NMTTP	100	2	0	C	1	M1

T_REC_TAP	580
T_REC_BRK	74
T_REC_XTP	101
T_REC_BXX	2
T_REC_HLD	34
T_REC_XHO	4
T_REC_BHO	2
T_REC_BXH	0
T_REC_STR	25
T_REC_BST	3
T_REC_XST	13
T_REC_XBS	0
T_REC_TTP	63
T_REC_THO	1
T_REC_SLD	43
T_REC_BSL	1
T_REC_ALL	946
T_NUM_TAP	782
T_NUM_BRK	82
T_NUM_HLD	39
T_NUM_SLD	43
T_NUM_ALL	946
T_JUDGE_TAP	861
T_JUDGE_HLD	169
T_JUDGE_SLD	44
T_JUDGE_ALL	1074
TTM_EACHPAIRS	170
TTM_SCR_TAP	391000
TTM_SCR_BRK	213200
TTM_SCR_HLD	39000
TTM_SCR_SLD	64500
TTM_SCR_ALL	707700
TTM_SCR_S	678550
TTM_SCR_SS	699500
TTM_RAT_ACV	10117

