VERSION	0.00.00	1.04.00
FES_MODE	0
BPM_DEF	200.000	200.000	200.000	200.000
MET_DEF	4	4
RESOLUTION	384
CLK_DEF	384
COMPATIBLE_CODE	MA2

BPM	0	0	200.000
MET	0	0	4	4

NMTAP	1	0	2
NMTAP	1	0	3
NMHLD	1	192	4	384
NMTTP	2	0	1	E	0	M1
NMTTP	2	96	2	E	0	M1
NMTTP	2	192	3	E	0	M1
NMTAP	3	0	4
NMTAP	3	0	5
NMHLD	3	192	3	384
NMTTP	4	0	7	E	0	M1
NMTTP	4	96	6	E	0	M1
NMTTP	4	192	5	E	0	M1
NMTAP	5	0	2
NMTAP	5	0	3
NMHLD	5	192	4	384
NMTTP	6	0	1	E	0	M1
NMTTP	6	96	2	E	0	M1
NMTTP	6	192	3	E	0	M1
NMTAP	7	0	4
NMTAP	7	0	5
NMHLD	7	192	3	384
NMTHO	8	0	0	192	C	0	M1
NMTAP	9	0	1
NMTAP	9	48	1
NMTAP	9	96	7
NMTAP	9	144	7
NMTAP	9	192	3
NMTAP	9	240	3
NMTAP	9	288	5
NMSTR	10	0	5
NMSI_	10	0	5	96	48	3
NMSTR	10	0	6
NMSI_	10	0	6	96	48	3
NMSTR	10	192	1
NMSI_	10	192	1	96	48	4
NMSTR	10	192	2
NMSI_	10	192	2	96	48	4
NMTAP	11	0	6
NMTAP	11	48	6
NMTAP	11	96	0
NMTAP	11	144	0
NMTAP	11	192	4
NMTAP	11	240	4
NMTAP	11	288	2
NMSTR	12	0	1
NMSI_	12	0	1	96	48	4
NMSTR	12	0	2
NMSI_	12	0	2	96	48	4
NMSTR	12	192	5
NMSI_	12	192	5	96	48	3
NMSTR	12	192	6
NMSI_	12	192	6	96	48	3
NMTAP	13	0	2
NMTAP	13	48	2
NMTAP	13	96	3
NMTAP	13	144	3
NMTAP	13	192	4
NMTAP	13	240	4
NMTAP	13	288	3
NMTAP	13	288	4
NMTAP	14	0	5
NMTAP	14	48	5
NMTAP	14	96	4
NMTAP	14	144	4
NMTAP	14	192	3
NMTAP	14	240	3
NMTAP	14	288	3
NMTAP	14	288	4
EXTAP	15	0	1
EXTAP	15	0	3
NMTAP	15	48	1
NMTAP	15	48	3
EXTAP	15	144	4
EXTAP	15	144	6
NMTAP	15	192	4
NMTAP	15	192	6
EXTAP	15	288	0
EXTAP	15	288	7
NMTAP	15	336	0
NMTAP	15	336	7
EXTAP	16	0	1
EXTAP	16	0	6
NMTAP	16	192	2
NMTAP	16	216	3
NMTAP	16	240	2
EXSTR	16	288	0
NMSCR	16	288	0	96	576	5
EXTAP	16	288	4
BRTAP	17	0	7
NMTTP	19	0	0	E	0	M1
NMTTP	19	192	7	E	0	M1
NMTTP	20	0	6	E	0	M1
NMTTP	20	192	5	E	0	M1
NMTTP	21	0	3	B	0	M1
NMTTP	21	0	4	B	0	M1
NMTTP	21	0	4	E	0	M1
NMTTP	21	192	2	E	0	M1
NMTTP	21	192	6	E	0	M1
NMTTP	22	0	0	E	0	M1
NMTTP	22	0	4	E	0	M1
NMTTP	22	192	6	B	0	M1
NMTTP	22	192	7	B	0	M1
NMTTP	22	192	7	E	0	M1
NMTTP	23	0	0	B	0	M1
NMTTP	23	0	1	B	0	M1
NMTTP	23	0	1	E	0	M1
NMTTP	24	0	0	C	0	M1
NMTTP	24	0	1	B	0	M1
NMTTP	24	0	2	B	0	M1
NMTTP	24	0	5	B	0	M1
NMTTP	24	0	6	B	0	M1
NMSTR	25	0	2
NMSCR	25	0	2	96	96	5
NMSTR	25	192	1
NMSUR	25	192	1	96	96	6
NMSTR	26	0	0
NMSCR	26	0	0	96	96	3
NMSTR	26	192	7
NMSUR	26	192	7	96	96	4
NMSTR	27	0	6
NMSCR	27	0	6	96	96	1
NMSTR	27	192	5
NMSUR	27	192	5	96	96	2
NMSTR	28	0	4
NMSCR	28	0	4	96	192	1
NMTAP	29	0	4
NMTAP	29	0	5
NMTAP	29	96	4
NMTAP	29	96	5
NMTAP	29	192	6
NMTAP	29	192	7
NMTAP	29	288	6
NMTAP	29	288	7
NMTAP	30	0	0
NMTAP	30	0	1
NMTAP	30	96	0
NMTAP	30	96	1
NMTAP	30	192	2
NMTAP	30	192	3
NMTAP	30	288	2
NMTAP	30	288	3
NMTAP	31	0	4
NMTAP	31	48	4
NMTAP	31	96	4
NMTAP	31	144	4
NMTAP	31	192	3
NMTAP	31	240	3
NMTAP	31	288	3
NMTAP	31	336	3
EXTAP	32	0	2
EXTAP	32	0	4
EXTAP	32	72	2
EXTAP	32	72	4
EXTAP	32	144	2
EXTAP	32	144	4
EXSTR	32	192	2
NMSI_	32	192	2	96	48	6
EXSTR	32	192	4
NMSI_	32	192	4	96	48	0
EXTAP	33	0	1
NMTAP	33	48	1
NMTAP	33	96	1
NMTAP	33	144	1
NMTAP	33	192	0
NMTAP	33	240	0
NMTAP	33	288	0
NMTAP	33	336	0
NMTAP	34	0	7
NMTAP	34	48	7
NMTAP	34	96	7
NMTAP	34	144	7
NMTAP	34	192	6
NMTAP	34	240	6
NMTAP	34	288	6
NMTAP	34	336	6
NMTAP	35	0	5
NMTAP	35	48	6
NMTAP	35	96	7
NMTAP	35	144	0
NMTAP	35	192	1
NMTAP	35	240	2
NMTAP	35	288	3
NMTAP	35	288	4
NMHLD	36	0	5	144
NMHLD	36	0	7	144
EXSTR	36	192	6
NMSI_	36	192	6	96	48	2
EXHLD	37	0	1	72
NMTAP	37	72	0
NMTAP	37	144	2
NMTAP	37	144	7
NMTAP	37	192	6
NMTAP	37	240	5
NMTAP	37	288	4
NMTAP	37	336	3
NMHLD	38	0	2	72
NMTAP	38	72	3
NMTAP	38	144	1
NMTAP	38	144	4
NMHLD	38	192	1	96
NMHLD	38	192	4	96
NMSTR	39	0	2
NMSCR	39	0	2	96	96	5
NMSTR	39	192	1
NMSUR	39	192	1	96	96	6
NMTAP	40	0	0
NMSTR	40	96	7
NMSUL	40	96	7	96	96	5
NMHLD	41	0	3	72
NMHLD	41	72	2	72
NMTAP	41	144	1
NMHLD	41	192	4	72
NMHLD	41	264	5	72
NMTAP	41	336	6
NMHLD	42	0	2	72
NMHLD	42	72	1	72
NMTAP	42	144	0
NMHLD	42	192	5	72
NMHLD	42	264	6	72
NMTAP	42	336	7
NMTAP	43	0	0
NMTAP	43	48	0
NMTAP	43	96	0
NMTAP	43	144	0
NMTAP	43	192	6
NMTAP	43	216	7
NMTAP	43	240	6
NMTAP	43	264	7
NMTAP	43	288	6
NMTAP	43	312	7
NMTAP	43	336	6
BXTAP	44	0	0
BXTAP	44	0	5
BXTAP	44	48	0
BXTAP	44	48	5
BXTAP	44	96	0
BXTAP	44	96	5
BXTAP	44	144	0
BXTAP	44	144	5
NMTAP	44	240	3
NMTAP	44	240	4
EXTAP	44	288	1
EXTAP	44	288	6
NMHLD	45	0	2	72
NMHLD	45	72	3	72
NMTAP	45	144	4
NMSTR	45	192	4
NMSI_	45	192	4	96	48	2
EXTAP	45	288	6
NMHLD	46	0	5	72
NMHLD	46	72	4	72
NMTAP	46	144	3
NMSTR	46	192	3
NMSI_	46	192	3	96	48	6
EXTAP	46	288	1
NMHLD	47	0	2	72
NMHLD	47	72	3	72
NMTAP	47	144	4
NMSTR	47	192	4
NMSI_	47	192	4	96	48	0
EXTAP	47	288	7
NMHLD	48	0	6	72
NMHLD	48	72	5	72
NMTAP	48	144	4
NMSTR	48	192	3
NMSI_	48	192	3	96	48	0
NMSTR	48	192	4
NMSI_	48	192	4	96	48	7
NMHLD	49	0	2	48
NMHLD	49	72	1	48
NMHLD	49	72	3	48
NMTAP	49	144	0
NMTAP	49	144	4
NMSTR	49	192	0
NMSI_	49	192	0	96	48	4
NMTAP	49	192	4
NMHLD	50	0	5	48
NMHLD	50	72	4	48
NMHLD	50	72	6	48
NMTAP	50	144	3
NMTAP	50	144	7
NMTAP	50	192	3
NMSTR	50	192	7
NMSI_	50	192	7	96	48	3
EXTAP	51	0	2
EXTAP	51	48	2
BRTAP	51	96	1
BRTAP	51	96	2
EXTAP	51	192	5
EXTAP	51	240	5
BRTAP	51	288	5
BRTAP	51	288	6
EXTAP	52	0	0
EXTAP	52	0	2
EXTAP	52	72	4
EXTAP	52	72	6
EXTAP	52	144	1
EXTAP	52	144	5
EXTAP	52	216	7
EXTAP	52	240	0
NMTAP	52	288	1
NMTAP	52	288	6
NMTAP	52	336	1
NMTAP	52	336	6
NMHLD	53	0	1	384
NMTAP	53	0	6
NMTTP	53	192	0	C	0	M1
NMHLD	54	0	6	384
NMTTP	54	96	1	E	0	M1
NMTTP	54	192	1	B	0	M1
NMHLD	55	0	2	384
NMTTP	55	192	0	C	0	M1
NMHLD	56	0	5	384
NMTTP	56	96	1	B	0	M1
NMTTP	56	192	2	B	0	M1
NMTAP	57	0	3
NMTAP	57	48	3
NMTAP	57	96	4
NMTTP	57	192	1	B	0	M1
NMTAP	57	288	4
NMTAP	57	336	4
NMTAP	58	0	3
NMTTP	58	96	6	B	0	M1
NMTTP	58	192	5	B	0	M1
NMTAP	59	0	2
NMTAP	59	48	2
NMTAP	59	96	3
NMTTP	59	192	2	E	0	M1
NMTAP	59	288	5
NMTAP	59	336	5
EXHLD	60	0	6	96
EXHLD	60	96	4	96
EXHLD	60	192	3	96
EXTAP	60	288	1
NMTAP	61	0	0
NMTAP	61	48	0
NMTAP	61	96	1
NMTAP	61	144	1
NMTAP	61	192	2
NMTAP	61	192	7
NMTAP	61	288	0
NMTAP	61	336	0
NMTAP	62	0	1
NMTAP	62	48	1
NMTAP	62	96	2
NMTAP	62	96	7
NMTTP	62	192	1	B	0	M1
NMTTP	62	240	0	C	0	M1
NMTTP	62	288	5	B	0	M1
NMTAP	63	0	7
NMTAP	63	48	7
NMTAP	63	96	6
NMTAP	63	144	6
NMTAP	63	192	0
NMTAP	63	192	5
NMTAP	63	288	7
NMTAP	63	336	7
NMTAP	64	0	6
NMTAP	64	48	6
NMTAP	64	96	0
NMTAP	64	96	5
NMTTP	64	192	6	B	0	M1
NMTTP	64	240	0	C	0	M1
NMTTP	64	288	2	B	0	M1
NMTAP	65	0	0
NMSTR	65	0	1
NMSI_	65	0	1	96	48	4
NMSTR	65	96	7
NMSI_	65	96	7	96	48	3
NMSTR	65	192	0
NMSI_	65	192	0	96	48	4
NMSTR	65	288	6
NMSI_	65	288	6	96	48	2
NMSTR	66	0	7
NMSI_	66	0	7	96	48	1
NMSTR	66	96	5
NMSI_	66	96	5	96	48	3
NMSTR	66	192	6
NMSI_	66	192	6	96	48	2
NMTAP	66	288	7
EXTAP	67	0	0
EXTAP	67	0	1
NMTAP	67	48	0
NMTAP	67	48	1
EXTAP	67	144	4
EXTAP	67	144	5
NMTAP	67	192	4
NMTAP	67	192	5
EXTAP	67	288	2
EXTAP	67	288	3
NMTAP	67	336	2
NMTAP	67	336	3
EXTAP	68	0	1
NMTAP	68	48	1
EXTAP	68	96	0
NMTAP	68	144	0
EXTAP	68	192	7
NMTAP	68	240	7
EXTAP	68	288	6
EXHLD	69	0	0	576
EXSTR	69	0	5
NMSXL	69	0	5	96	240	2
NMTTP	70	0	3	B	0	M1
NMTTP	70	0	4	B	0	M1
NMTTP	70	192	0	B	0	M1
NMTTP	70	192	7	B	0	M1
NMTTP	71	0	0	C	1	M1
NMTTP	71	0	1	B	0	M1
NMTTP	71	0	2	B	0	M1
NMTTP	71	0	5	B	0	M1
NMTTP	71	0	6	B	0	M1
NMTAP	72	336	4
NMTAP	72	336	5
NMTAP	73	0	4
NMTAP	73	0	5
NMTAP	73	144	2
NMTAP	73	144	3
NMTAP	73	192	2
NMTAP	73	192	3
NMTAP	73	336	4
NMTAP	74	0	3
NMTAP	74	0	5
NMTAP	74	96	2
NMTAP	74	96	4
NMHLD	74	192	1	96
NMSTR	74	192	7
NMSI_	74	192	7	96	48	3
NMHLD	75	0	4	72
NMHLD	75	72	5	72
NMTAP	75	144	6
NMHLD	75	192	3	72
NMHLD	75	264	2	72
NMTAP	75	336	1
NMHLD	76	0	5	72
NMHLD	76	72	6	72
NMTAP	76	144	7
NMHLD	76	192	2	72
NMHLD	76	264	1	72
NMTAP	76	336	0
NMTTP	77	0	0	E	0	M1
NMTTP	77	48	7	E	0	M1
NMTTP	77	96	6	E	0	M1
NMTTP	77	144	5	E	0	M1
NMTTP	77	192	4	E	0	M1
NMTTP	77	240	3	E	0	M1
NMTTP	77	288	2	E	0	M1
EXTAP	78	0	0
EXTAP	78	0	7
NMTAP	78	48	0
NMTAP	78	48	7
NMTAP	78	144	4
NMTAP	78	144	6
NMTAP	78	240	2
NMTAP	78	240	3
NMTAP	78	288	1
NMTAP	78	288	4
EXTAP	79	0	0
EXTAP	79	0	7
NMTAP	79	48	0
NMTAP	79	48	7
NMTAP	79	144	1
NMTAP	79	144	3
NMTAP	79	240	4
NMTAP	79	240	5
NMTAP	79	288	3
NMTAP	79	288	6
EXTAP	80	0	0
EXTAP	80	0	2
NMTAP	80	48	0
NMTAP	80	48	2
NMTAP	80	144	5
NMTAP	80	144	6
NMTAP	80	240	6
NMTAP	80	240	7
NMTAP	80	288	0
NMTAP	80	288	5
EXTAP	81	0	5
EXTAP	81	0	7
NMTAP	81	48	5
NMTAP	81	48	7
EXSTR	81	144	0
BRSI_	81	144	0	96	48	6
EXSTR	81	144	7
BRSI_	81	144	7	96	48	3
EXSTR	82	0	7
BRSI_	82	0	7	96	48	2
BRSI_	82	0	7	96	48	4
NMTTP	82	192	0	C	0	M1
NMTTP	82	192	1	B	0	M1
NMTTP	82	192	5	B	0	M1
EXSTR	82	288	7
BRSCL	82	288	7	96	96	3
EXHLD	83	0	0	192
CNSV_	83	96	3	0	96	5
NMTAP	84	0	4
NMTAP	84	48	4
NMTAP	84	72	3
NMTAP	84	120	3
NMTAP	84	144	5
NMTAP	84	192	4
NMSTR	84	192	6
NMSI_	84	192	6	96	48	3
NMTAP	84	288	1
NMTAP	85	0	2
NMTAP	85	48	2
NMTAP	85	72	3
NMTAP	85	120	3
NMTAP	85	144	1
NMSTR	85	192	0
NMSI_	85	192	0	96	48	4
NMTAP	85	192	4
NMTAP	86	0	5
NMTAP	86	48	5
NMTAP	86	72	4
NMTAP	86	120	4
NMTAP	86	144	6
NMTAP	86	192	0
NMTAP	86	192	7
NMTAP	86	240	0
NMTAP	86	240	7
NMTAP	86	288	1
NMTAP	86	288	6
NMTAP	87	0	2
NMTAP	87	48	2
NMTAP	87	72	3
NMTAP	87	120	3
NMTAP	87	144	1
NMTAP	87	192	0
NMTAP	87	192	7
NMTAP	87	240	1
NMTAP	87	240	6
NMTAP	87	288	2
NMTAP	87	288	5
NMSTR	88	0	0
NMSI_	88	0	0	96	48	4
NMSTR	88	0	1
NMSI_	88	0	1	96	48	4
NMTAP	88	48	0
NMTAP	88	48	1
NMSTR	88	192	6
NMSI_	88	192	6	96	48	3
NMSTR	88	192	7
NMSI_	88	192	7	96	48	3
NMTAP	88	240	6
NMTAP	88	240	7
EXTAP	89	0	5
EXTAP	89	0	6
EXTAP	89	72	2
EXTAP	89	72	7
EXHLD	89	144	0	144
EXSTR	89	144	4
NMSLL	89	144	4	96	96	7
EXTAP	90	0	0
EXTAP	90	24	7
EXTAP	90	48	0
EXTAP	90	72	7
EXTAP	90	96	0
EXTAP	90	120	7
EXTAP	90	144	0
EXTAP	90	168	7
EXSTR	90	192	0
NMSI_	90	192	0	96	48	4
BRTAP	90	288	4
EXTAP	91	0	6
NMTAP	91	48	6
NMTAP	91	72	4
NMTAP	91	120	4
NMTAP	91	144	7
NMTAP	91	192	0
NMTAP	91	240	1
NMTAP	91	288	2
NMTAP	91	336	3
NMTAP	92	0	6
NMTAP	92	48	6
NMTAP	92	72	4
NMTAP	92	120	4
NMSTR	92	144	7
NMSI_	92	144	7	96	48	4
NMSTR	92	192	3
NMSI_	92	192	3	96	48	0
EXTAP	93	0	1
NMTAP	93	48	1
NMTAP	93	72	3
NMTAP	93	120	3
NMTAP	93	144	0
NMTAP	93	192	7
NMTAP	93	240	6
NMTAP	93	288	5
NMTAP	93	336	4
NMTAP	94	0	1
NMTAP	94	48	1
NMTAP	94	72	3
NMTAP	94	120	3
NMTAP	94	144	0
NMTAP	94	192	6
NMTAP	94	216	7
NMTAP	94	240	6
NMTAP	94	264	7
NMTAP	94	288	6
EXTAP	95	0	4
EXTAP	95	0	5
NMTAP	95	48	3
NMTAP	95	96	2
NMTAP	95	144	1
EXTAP	95	192	0
EXTAP	95	192	7
NMTAP	95	240	6
NMTAP	95	288	5
NMTAP	95	336	4
EXTAP	96	0	2
EXTAP	96	0	3
NMTAP	96	48	1
NMTAP	96	96	0
NMTAP	96	144	7
EXTAP	96	192	5
EXTAP	96	192	6
NMTAP	96	240	4
NMTAP	96	288	3
NMTAP	96	336	2
EXTAP	97	0	1
EXTAP	97	0	7
NMTAP	97	48	1
NMTAP	97	48	7
NMTAP	97	144	4
NMTAP	97	144	5
NMSTR	97	192	4
NMSI_	97	192	4	96	48	1
NMSTR	97	192	5
NMSI_	97	192	5	96	48	1
EXTAP	98	0	2
EXTAP	98	0	7
NMTAP	98	48	2
NMTAP	98	48	7
NMTAP	98	144	4
NMTAP	98	144	5
EXTAP	98	240	3
EXTAP	98	240	4
EXTAP	98	288	2
EXTAP	98	288	5
EXTAP	98	336	1
EXTAP	98	336	6
EXTAP	99	0	1
NMTAP	99	24	0
NMTAP	99	48	1
NMTAP	99	72	0
NMTAP	99	96	1
EXTAP	99	144	6
NMTAP	99	168	7
NMTAP	99	192	6
NMTAP	99	216	7
NMTAP	99	240	6
EXTAP	99	288	0
NMTAP	99	312	7
NMTAP	99	336	0
NMTAP	99	360	7
BRTAP	100	0	1
BRTAP	100	0	6

T_REC_TAP	326
T_REC_BRK	8
T_REC_XTP	87
T_REC_BXX	8
T_REC_HLD	44
T_REC_XHO	7
T_REC_BHO	0
T_REC_BXH	0
T_REC_STR	43
T_REC_BST	0
T_REC_XST	11
T_REC_XBS	0
T_REC_TTP	66
T_REC_THO	1
T_REC_SLD	50
T_REC_BSL	5
T_REC_ALL	656
T_NUM_TAP	533
T_NUM_BRK	21
T_NUM_HLD	52
T_NUM_SLD	50
T_NUM_ALL	656
T_JUDGE_TAP	549
T_JUDGE_HLD	163
T_JUDGE_SLD	55
T_JUDGE_ALL	767
TTM_EACHPAIRS	123
TTM_SCR_TAP	266500
TTM_SCR_BRK	54600
TTM_SCR_HLD	52000
TTM_SCR_SLD	75000
TTM_SCR_ALL	448100
TTM_SCR_S	432650
TTM_SCR_SS	446000
TTM_RAT_ACV	10047

