VERSION	0.00.00	1.04.00
FES_MODE	0
BPM_DEF	172.000	172.000	172.000	172.000
MET_DEF	4	4
RESOLUTION	384
CLK_DEF	384
COMPATIBLE_CODE	MA2

BPM	0	0	172.000
MET	0	0	4	4
MET	15	0	4	3
MET	26	96	4	4

NMTAP	1	0	5
NMTAP	1	12	4
NMHLD	1	24	3	360
NMTTP	2	0	4	A	0	M1
NMTTP	2	16	5	D	0	M1
NMTTP	2	32	5	A	0	M1
NMTTP	2	48	6	D	0	M1
NMTTP	2	96	2	A	0	M1
NMTTP	2	112	2	D	0	M1
NMTTP	2	128	1	A	0	M1
NMTTP	2	144	1	D	0	M1
NMTTP	2	192	4	E	0	M1
NMTTP	2	208	4	B	0	M1
NMTTP	2	224	5	B	0	M1
NMTTP	2	240	6	E	0	M1
NMTTP	2	288	3	E	0	M1
NMTTP	2	304	2	B	0	M1
NMTTP	2	320	1	B	0	M1
NMTTP	2	336	1	E	0	M1
BXTAP	3	0	6
BXTAP	3	0	7
NMTAP	3	96	0
NMTAP	3	96	5
NMTAP	3	120	1
NMTAP	3	120	4
NMHLD	3	144	2	96
NMTAP	3	144	3
NMHLD	3	240	0	48
NMTAP	3	288	1
NMTAP	3	312	7
NMTAP	3	336	2
NMTAP	3	360	6
BRTAP	4	0	3
BRTAP	4	0	5
NMTAP	4	96	4
NMTAP	4	120	3
NMTAP	4	120	5
NMTAP	4	144	2
NMHLD	4	144	6	96
NMHLD	4	240	1	48
NMTAP	4	288	7
NMTAP	4	312	2
NMTAP	4	336	7
NMTAP	4	360	2
BRTAP	5	0	0
BRTAP	5	0	1
NMTAP	5	96	2
NMTAP	5	96	7
NMTAP	5	120	3
NMTAP	5	120	6
NMTAP	5	144	4
NMHLD	5	144	5	96
NMHLD	5	240	7	48
NMTAP	5	288	6
NMTAP	5	312	0
NMTAP	5	336	5
NMTAP	5	360	1
BRTAP	6	0	2
BRTAP	6	0	4
NMTAP	6	96	3
NMTAP	6	120	2
NMTAP	6	120	4
NMHLD	6	144	1	96
NMTAP	6	144	5
NMTAP	6	240	0
NMSTR	6	288	3
NMSV_	6	288	3	96	48	0
NMSTR	6	288	7
NMSV_	6	288	7	96	48	4
BXSTR	7	0	3
NMSXR	7	0	3	96	192	5
BXSTR	7	0	7
NMSXR	7	0	7	96	192	1
NMTTP	7	12	0	C	1	M1
NMTAP	8	0	6
NMTAP	8	0	7
NMTAP	8	48	0
NMTAP	8	96	1
NMTAP	8	96	7
NMTAP	8	144	2
NMTAP	8	192	0
NMHLD	8	192	3	96
NMTTP	8	240	7	A	0	M1
NMTTP	8	256	7	D	0	M1
NMTTP	8	272	6	A	0	M1
NMTTP	8	288	6	D	0	M1
NMTAP	8	336	3
NMTAP	9	0	0
NMTAP	9	0	2
NMTAP	9	48	7
NMTAP	9	96	0
NMTAP	9	96	6
NMTAP	9	144	5
NMHLD	9	192	4	96
NMTAP	9	192	7
NMTTP	9	240	0	A	0	M1
NMTTP	9	256	1	D	0	M1
NMTTP	9	272	1	A	0	M1
NMTTP	9	288	2	D	0	M1
NMTAP	9	336	5
NMTAP	10	0	6
NMTAP	10	0	7
NMTAP	10	48	0
NMTAP	10	96	1
NMTAP	10	96	5
NMTAP	10	144	2
NMSTR	10	192	3
NMSI_	10	192	3	96	48	7
NMSTR	10	192	4
NMSI_	10	192	4	96	48	0
BRTAP	10	288	3
BRTAP	10	288	4
NMHLD	11	0	4	48
NMHLD	11	0	6	48
NMHLD	11	72	5	48
NMHLD	11	72	7	48
NMHLD	11	144	0	48
NMHLD	11	144	6	48
NMHLD	11	216	1	48
NMHLD	11	216	7	48
NMTAP	11	288	0
NMTAP	11	288	2
NMTAP	11	336	0
NMTAP	11	336	2
NMHLD	12	0	1	48
NMHLD	12	0	3	48
NMHLD	12	72	0	48
NMHLD	12	72	2	48
NMHLD	12	144	1	48
NMHLD	12	144	7	48
NMHLD	12	216	0	48
NMHLD	12	216	6	48
NMTAP	12	288	5
NMTAP	12	288	7
NMTAP	12	336	5
NMTAP	12	336	7
EXTAP	13	0	2
NMTAP	13	24	3
NMTAP	13	48	2
EXTAP	13	72	5
NMTAP	13	96	4
NMTAP	13	120	5
EXTAP	13	144	1
NMTAP	13	168	3
NMTAP	13	192	1
EXTAP	13	216	6
NMTAP	13	240	4
NMTAP	13	264	6
EXTAP	13	288	1
NMTAP	13	312	4
NMTAP	13	336	3
NMTAP	13	360	6
EXTAP	14	0	0
NMTAP	14	24	7
NMTAP	14	48	0
EXTAP	14	72	7
NMTAP	14	96	0
NMTAP	14	120	7
EXTAP	14	144	0
NMTAP	14	168	7
EXTAP	14	192	1
NMTAP	14	208	2
NMTAP	14	224	3
NMTAP	14	240	7
NMTAP	14	256	6
NMTAP	14	272	5
NMTAP	14	288	0
NMTAP	14	304	1
NMTAP	14	320	2
NMTAP	14	336	6
NMTAP	14	352	5
NMTAP	14	368	4
BRTAP	15	0	3
BRTAP	15	0	7
NMTTP	15	192	3	A	0	M1
NMTTP	15	192	4	A	0	M1
NMTTP	15	288	2	B	0	M1
NMTTP	15	312	3	B	0	M1
NMTTP	15	336	4	B	0	M1
NMTTP	16	48	0	A	0	M1
NMTTP	16	96	1	A	0	M1
NMTTP	16	144	2	A	0	M1
NMTTP	16	192	3	B	0	M1
NMTTP	16	192	3	A	0	M1
NMTTP	16	288	4	A	0	M1
NMTTP	16	336	5	A	0	M1
NMTTP	17	0	6	A	0	M1
NMTTP	17	48	7	A	0	M1
NMTTP	17	96	0	B	0	M1
NMTTP	17	96	0	A	0	M1
NMTTP	17	192	6	B	0	M1
NMTTP	17	192	6	A	0	M1
NMTTP	17	288	2	B	0	M1
NMTTP	17	288	2	A	0	M1
NMTTP	18	0	4	B	0	M1
NMTTP	18	0	4	A	0	M1
NMTTP	18	96	3	A	0	M1
NMTTP	18	144	2	A	0	M1
NMTTP	18	192	1	A	0	M1
NMTTP	18	240	0	A	0	M1
NMTTP	18	288	5	B	0	M1
NMTTP	18	312	4	B	0	M1
NMTTP	18	336	3	B	0	M1
NMTTP	19	48	6	A	0	M1
NMTTP	19	96	7	A	0	M1
NMTTP	19	144	0	A	0	M1
NMTTP	19	192	1	B	0	M1
NMTTP	19	192	1	A	0	M1
NMTTP	19	288	6	A	0	M1
NMTTP	19	336	5	A	0	M1
NMTTP	20	0	4	A	0	M1
NMTTP	20	48	3	A	0	M1
NMTTP	20	96	2	A	0	M1
NMTTP	20	144	5	E	0	M1
NMTTP	20	160	4	B	0	M1
NMTTP	20	176	3	B	0	M1
NMTTP	20	192	3	E	0	M1
NMTTP	20	288	2	E	0	M1
NMTTP	20	288	6	E	0	M1
NMSTR	21	0	2
NMSLL	21	0	2	96	96	4
NMTAP	21	0	6
EXTAP	21	96	7
NMTAP	21	144	7
EXTAP	21	192	6
NMTAP	21	240	5
NMTAP	21	288	3
NMSTR	21	288	4
NMSLR	21	288	4	96	96	2
EXTAP	22	0	0
NMTAP	22	48	0
EXTAP	22	96	7
NMTAP	22	120	0
NMTAP	22	144	1
NMTAP	22	168	2
NMTAP	22	192	3
NMSTR	22	192	6
NMSLR	22	192	6	96	96	4
EXTAP	22	288	2
NMTAP	22	336	3
EXTAP	23	0	2
NMTAP	23	48	1
NMSTR	23	96	0
NMSI_	23	96	0	96	48	5
NMSTR	23	96	3
NMSI_	23	96	3	96	48	6
EXTAP	23	192	0
EXTAP	23	192	3
EXTAP	23	288	4
EXTAP	23	288	7
NMTAP	24	0	3
NMSTR	24	0	6
NMSI_	24	0	6	96	48	0
EXTAP	24	96	2
CNSI_	24	144	0	0	48	5
NMTAP	24	144	2
EXTAP	24	192	3
CNSI_	24	192	5	0	48	1
NMTAP	24	240	3
NMTAP	24	288	0
NMSTR	24	288	2
NMSI_	24	288	2	96	48	0
NMTAP	24	304	7
NMTAP	24	320	6
EXTAP	25	0	4
CNSI_	25	48	0	0	48	3
NMTAP	25	48	4
CNSI_	25	96	3	0	48	7
EXTAP	25	96	5
NMTAP	25	144	5
NMTAP	25	192	2
NMSTR	25	192	6
NMSI_	25	192	6	96	48	0
EXTAP	25	288	2
CNSI_	25	336	0	0	48	5
NMTAP	25	336	2
EXTAP	26	0	3
CNSI_	26	0	5	0	48	1
NMTAP	26	48	3
NMTAP	26	96	0
NMTAP	26	96	2
NMTAP	26	144	1
NMTAP	26	160	2
NMTAP	26	176	3
EXTAP	26	192	4
NMTAP	26	240	7
EXTAP	26	288	6
NMHLD	26	336	2	48
NMHLD	26	336	5	48
BRSTR	27	96	0
NMSI_	27	96	0	96	48	2
BRTAP	27	96	7
NMTAP	27	144	6
NMTAP	27	168	6
NMSTR	27	192	0
NMSI_	27	192	0	96	48	4
NMTAP	27	216	5
NMTAP	27	264	5
NMSTR	27	288	0
NMSI_	27	288	0	96	48	2
NMTAP	27	336	6
NMSTR	28	0	0
NMSI_	28	0	0	96	48	4
NMTAP	28	0	7
NMTAP	28	48	6
NMSTR	28	96	0
NMSI_	28	96	0	96	48	2
NMTAP	28	96	5
NMTAP	28	144	6
NMTAP	28	168	6
NMSTR	28	192	0
NMSI_	28	192	0	96	48	4
NMTAP	28	216	5
NMTAP	28	264	5
NMTAP	28	288	0
NMTAP	28	336	7
NMTAP	29	0	1
NMTAP	29	0	6
BRTAP	29	96	0
BRSTR	29	96	7
NMSI_	29	96	7	96	48	5
NMTAP	29	144	1
NMTAP	29	168	1
NMSTR	29	192	7
NMSI_	29	192	7	96	48	3
NMTAP	29	216	2
NMTAP	29	264	2
NMSTR	29	288	7
NMSI_	29	288	7	96	48	5
NMTAP	29	336	1
NMTAP	30	0	0
NMSTR	30	0	7
NMSI_	30	0	7	96	48	3
NMTAP	30	48	1
NMTAP	30	96	2
NMSTR	30	96	7
NMSI_	30	96	7	96	48	5
NMTAP	30	144	1
NMTAP	30	168	1
NMSTR	30	192	7
NMSI_	30	192	7	96	48	3
NMTAP	30	216	2
NMTAP	30	264	2
NMTAP	30	288	7
NMTAP	30	336	0
BRTAP	31	0	1
BRTAP	31	0	5
EXTAP	31	96	0
EXTAP	31	96	7
NMTAP	31	144	1
NMHLD	31	168	1	48
NMTAP	31	216	2
NMHLD	31	240	2	48
NMTAP	31	288	3
NMHLD	31	312	3	48
NMTAP	31	360	4
NMHLD	32	0	4	48
NMTAP	32	48	6
EXTAP	32	96	0
EXTAP	32	96	7
NMTAP	32	144	6
NMHLD	32	168	6	48
NMTAP	32	216	5
NMHLD	32	240	5	48
NMTAP	32	288	4
NMHLD	32	312	4	48
NMTAP	32	360	3
NMHLD	33	0	3	48
NMTAP	33	48	1
EXTAP	33	96	0
EXTAP	33	96	7
NMTAP	33	144	1
NMHLD	33	168	1	48
NMTAP	33	216	3
NMHLD	33	240	3	48
NMTAP	33	288	5
NMHLD	33	312	5	48
NMTAP	33	360	7
NMHLD	34	0	7	48
NMTAP	34	48	0
NMTAP	34	96	2
NMTAP	34	120	3
NMTAP	34	144	1
NMTAP	34	168	4
NMTAP	34	192	0
NMTAP	34	216	5
NMTAP	34	240	7
NMTAP	34	264	6
NMTAP	34	288	0
NMTAP	34	300	1
NMTAP	34	312	2
NMTAP	34	324	3
NMTAP	34	336	4
NMTAP	34	348	5
NMTAP	34	360	6
NMTAP	34	372	7
NMTAP	35	0	0
NMTAP	35	12	1
NMTAP	35	24	2
NMTAP	35	36	3
NMTAP	35	48	4
NMTAP	35	60	5
NMTAP	35	72	6
NMTAP	35	84	7
EXSTR	35	96	0
NMSXL	35	96	0	96	192	3
EXSTR	35	96	4
NMSXL	35	96	4	96	192	7
NMTAP	36	96	2
NMTAP	36	144	5
NMTAP	36	160	4
NMTAP	36	176	3
NMTAP	36	192	2
NMTAP	36	240	5
NMTAP	36	256	4
NMTAP	36	272	3
NMTAP	36	288	2
NMTAP	36	336	5
NMTAP	36	352	4
NMTAP	36	368	3
NMTAP	37	0	2
NMTAP	37	48	5
NMTAP	37	64	4
NMTAP	37	80	3
NMTTP	37	96	0	C	1	M1
BRSTR	37	96	2
NMSCR	37	96	2	96	576	0
NMTTP	38	96	4	D	0	M1
NMTTP	38	192	5	D	0	M1
NMTTP	38	288	6	D	0	M1
NMTTP	39	0	7	D	0	M1
NMSTR	39	96	0
NMSUL	39	96	0	96	480	3
NMTTP	40	0	6	A	0	M1
NMTTP	40	96	5	A	0	M1
NMSTR	41	96	5
NMSCL	41	96	5	96	576	7
NMTTP	42	96	4	D	0	M1
NMTTP	42	192	3	D	0	M1
NMTTP	42	288	2	D	0	M1
NMTTP	43	0	1	D	0	M1
NMSTR	43	96	7
NMSI_	43	96	7	96	288	3
NMSI_	43	96	7	96	288	3
NMTTP	44	0	7	A	0	M1
NMTTP	44	96	0	C	0	M1
CNSXL	44	96	3	0	288	4
CNSXR	44	96	3	0	288	2
NMHLD	45	96	0	64
NMTAP	45	96	5
NMTAP	45	160	5
NMHLD	45	192	1	64
NMTAP	45	192	6
NMTAP	45	256	6
NMHLD	45	288	0	64
NMTAP	45	288	7
NMTAP	45	352	7
NMHLD	46	0	1	64
NMTAP	46	0	6
NMTAP	46	64	6
NMHLD	46	96	2	64
NMTAP	46	96	5
NMTAP	46	160	5
NMHLD	46	192	3	64
NMTAP	46	192	6
NMTAP	46	256	6
NMHLD	46	288	2	64
NMTAP	46	288	7
NMTAP	46	352	7
NMTAP	47	0	0
NMHLD	47	0	3	64
NMTAP	47	64	0
NMHLD	47	96	4	96
NMHLD	47	96	7	96
NMTAP	47	256	3
NMTAP	47	288	5
NMTAP	47	320	2
NMTAP	47	352	4
NMTAP	48	0	1
NMTAP	48	64	0
NMHLD	48	96	0	96
NMHLD	48	96	3	96
NMTAP	48	288	1
NMTAP	48	320	3
NMTAP	48	352	2
NMTAP	49	0	6
NMTAP	49	32	7
NMTAP	49	64	5
NMTAP	49	96	1
NMHLD	49	96	4	64
NMTAP	49	160	1
NMTAP	49	192	0
NMHLD	49	192	3	64
NMTAP	49	256	0
NMHLD	49	288	2	64
NMTAP	49	288	7
NMTAP	49	352	7
NMTAP	50	0	0
NMHLD	50	0	3	64
NMTAP	50	64	0
NMTAP	50	96	1
NMHLD	50	96	4	64
NMTAP	50	160	1
NMTAP	50	192	2
NMHLD	50	192	5	64
NMTAP	50	256	2
NMTAP	50	288	3
NMHLD	50	288	6	64
NMTAP	50	352	3
NMTAP	51	0	4
NMTAP	51	0	7
BRTAP	51	96	5
NMTAP	51	112	4
NMTAP	51	128	5
NMTAP	51	144	4
NMTAP	51	160	5
NMTAP	51	176	4
NMTAP	51	192	5
NMTAP	51	208	4
NMTAP	51	224	5
NMTAP	51	240	4
NMTAP	51	256	5
NMTAP	51	272	4
NMTAP	51	288	5
EXTAP	51	352	3
EXTAP	51	352	4
EXTAP	52	32	3
EXTAP	52	32	4
BRTAP	52	96	2
NMTAP	52	112	3
NMTAP	52	128	2
NMTAP	52	144	3
NMTAP	52	160	2
NMTAP	52	176	3
NMTAP	52	192	2
NMTAP	52	208	3
NMTAP	52	224	2
NMTAP	52	240	3
NMTAP	52	256	2
NMTAP	52	272	3
NMTAP	52	288	2
EXTAP	52	352	3
EXTAP	52	352	4
EXTAP	53	32	3
EXTAP	53	32	4
BRTAP	53	96	6
NMTAP	53	112	4
NMTAP	53	128	6
NMTAP	53	144	4
NMTAP	53	160	6
NMTAP	53	176	4
NMTAP	53	192	6
EXTAP	53	256	3
EXTAP	53	256	4
BRTAP	53	288	1
NMTAP	53	304	3
NMTAP	53	320	1
NMTAP	53	336	3
NMTAP	53	352	1
NMTAP	53	368	3
NMTAP	54	0	1
EXTAP	54	64	3
EXTAP	54	64	4
NMSTR	54	96	2
NMSLR	54	96	2	96	96	7
NMSTR	54	96	5
NMSLL	54	96	5	96	96	0
NMTAP	55	0	1
NMTAP	55	0	6
EXTAP	55	96	5
EXTAP	55	96	7
NMSTR	55	144	3
NMSI_	55	144	3	96	48	7
NMTAP	55	168	4
NMTAP	55	192	1
NMTAP	55	216	1
NMTAP	55	240	3
EXSTR	55	288	0
NMSCL	55	288	0	96	48	5
NMTAP	55	304	1
NMTAP	55	320	2
NMTAP	55	336	3
NMSTR	55	360	0
NMSI_	55	360	0	96	48	4
NMTAP	56	48	0
NMTAP	56	96	7
NMTAP	56	144	5
NMTAP	56	168	3
NMTAP	56	192	4
NMTAP	56	216	4
NMTAP	56	240	2
NMTAP	56	288	1
NMSTR	56	288	3
NMSI_	56	288	3	96	48	0
NMTAP	56	304	4
NMTAP	56	320	5
NMTAP	56	336	6
NMTAP	56	360	3
NMTAP	57	48	7
EXTAP	57	96	2
EXTAP	57	96	6
NMSTR	57	144	7
NMSI_	57	144	7	96	48	3
NMTAP	57	168	0
NMTAP	57	192	5
NMTAP	57	216	5
NMTAP	57	240	7
NMTAP	57	288	4
NMTAP	57	304	5
NMTAP	57	320	6
NMTAP	57	336	7
NMSTR	57	360	4
NMSI_	57	360	4	96	48	7
NMTAP	57	376	3
NMTAP	58	8	2
NMTAP	58	24	1
NMTAP	58	48	4
BRTAP	58	96	0
EXTAP	58	192	1
EXTAP	58	192	5
NMTAP	58	224	2
NMTAP	58	224	6
NMTAP	58	256	3
NMTAP	58	256	7
NMHLD	58	288	0	56
NMHLD	58	288	4	56
EXTAP	58	348	3
EXTAP	58	348	7
NMTAP	58	360	2
NMTAP	58	360	6
NMTAP	58	372	1
NMTAP	58	372	5
EXTAP	59	0	0
EXTAP	59	0	4
EXTAP	59	96	0
NMTAP	59	120	3
NMTAP	59	144	2
EXTAP	59	168	6
NMTAP	59	192	4
NMTAP	59	216	5
EXTAP	59	240	1
NMTAP	59	264	3
NMTAP	59	288	2
EXTAP	59	312	7
NMTAP	59	336	4
NMTAP	59	360	5
EXTAP	60	0	3
EXTAP	60	48	1
EXTAP	60	48	4
EXTAP	60	96	7
NMTAP	60	120	4
NMTAP	60	144	5
EXTAP	60	168	1
NMTAP	60	192	3
NMTAP	60	216	2
EXTAP	60	240	6
NMTAP	60	264	4
NMTAP	60	288	5
EXTAP	60	312	0
NMTAP	60	336	3
NMTAP	60	360	2
EXTAP	61	0	4
EXTAP	61	48	3
EXTAP	61	48	6
BXTAP	61	96	1
BXTAP	61	96	5
NMSTR	61	144	7
NMSI_	61	144	7	96	48	3
NMTAP	61	168	0
NMTAP	61	192	5
NMTAP	61	216	5
NMTAP	61	240	7
EXSTR	61	288	4
NMSCL	61	288	4	96	48	1
NMTAP	61	304	5
NMTAP	61	320	6
NMTAP	61	336	7
NMSTR	61	360	4
NMSI_	61	360	4	96	48	7
NMTAP	62	48	4
BRTAP	62	96	0
NMSTR	62	192	3
NMSI_	62	192	3	96	48	5
NMSTR	62	192	6
NMSI_	62	192	6	96	48	4
NMTAP	62	224	2
NMTAP	62	224	7
NMTAP	62	256	0
NMTAP	62	256	1
EXTAP	62	288	3
EXTAP	62	288	6
BRTAP	63	0	2
BRTAP	63	0	7
EXTAP	63	96	1
NMTAP	63	120	0
NMTAP	63	144	2
EXTAP	63	168	6
NMTAP	63	192	7
NMTAP	63	216	5
NMTAP	63	240	3
NMTAP	63	264	4
NMHLD	63	288	3	48
NMHLD	63	288	5	48
NMHLD	63	360	0	48
NMHLD	63	360	2	48
NMTAP	64	48	5
NMTAP	64	48	7
EXTAP	64	96	6
NMTAP	64	120	7
NMTAP	64	144	5
EXTAP	64	168	1
NMTAP	64	192	0
NMTAP	64	216	2
NMTAP	64	240	4
NMTAP	64	264	3
NMHLD	64	288	2	48
NMHLD	64	288	4	48
NMHLD	64	360	5	48
NMHLD	64	360	7	48
NMTAP	65	48	0
NMTAP	65	48	2
NMSTR	65	96	3
NMSI_	65	96	3	96	48	0
NMSTR	65	96	4
NMSI_	65	96	4	96	48	7
BRTAP	65	192	3
BRTAP	65	192	4
NMTTP	65	196	0	C	1	M1
NMTAP	65	288	6
NMTAP	65	312	7
NMTAP	65	360	1
NMTAP	66	0	0
NMTAP	66	48	2
NMTAP	66	48	4
NMTAP	66	96	3
NMTAP	66	96	5
EXTAP	66	192	2
EXTAP	66	192	6
NMTAP	66	224	1
NMTAP	66	224	5
NMTAP	66	256	0
NMTAP	66	256	4
NMHLD	66	288	3	56
NMHLD	66	288	7	56
EXTAP	66	348	0
EXTAP	66	348	4
NMTAP	66	360	1
NMTAP	66	360	5
NMTAP	66	372	2
NMTAP	66	372	6
EXTAP	67	0	3
EXTAP	67	0	7
EXTAP	67	96	6
NMTAP	67	120	7
NMTAP	67	144	5
EXTAP	67	168	1
NMTAP	67	192	0
NMTAP	67	216	2
NMTAP	67	240	4
NMTAP	67	264	3
NMTAP	67	288	6
NMTAP	67	312	7
NMTAP	67	336	6
NMTAP	67	360	7
NMTAP	68	0	0
NMTAP	68	0	5
NMTAP	68	48	0
NMTAP	68	48	5
EXTAP	68	96	1
NMTAP	68	120	0
NMTAP	68	144	2
EXTAP	68	168	6
NMTAP	68	192	7
NMTAP	68	216	5
NMTAP	68	240	3
NMTAP	68	264	4
NMTAP	68	288	1
NMTAP	68	312	0
NMTAP	68	336	1
NMTAP	68	360	0
NMTAP	69	0	2
NMTAP	69	0	7
NMTAP	69	48	3
NMTAP	69	48	6
EXTAP	69	96	4
EXTAP	69	96	5
NMSTR	69	144	0
NMSI_	69	144	0	96	48	4
NMTAP	69	168	7
NMTAP	69	192	2
NMTAP	69	216	2
NMTAP	69	240	0
EXSTR	69	288	3
NMSCR	69	288	3	96	48	6
NMTAP	69	304	2
NMTAP	69	320	1
NMTAP	69	336	0
NMSTR	69	360	3
NMSI_	69	360	3	96	48	0
NMTAP	70	48	3
BRTAP	70	96	7
NMSTR	70	192	1
NMSI_	70	192	1	96	48	3
NMSTR	70	192	4
NMSI_	70	192	4	96	48	2
NMTAP	70	224	0
NMTAP	70	224	5
NMTAP	70	256	6
NMTAP	70	256	7
EXTAP	70	288	1
EXTAP	70	288	4
BRTAP	71	0	0
BRTAP	71	0	5
EXTAP	71	96	2
EXTAP	71	96	3
NMSTR	71	144	6
NMSI_	71	144	6	96	48	3
NMTAP	71	168	7
NMTAP	71	192	6
NMTAP	71	216	5
NMTAP	71	240	6
NMSTR	71	288	1
NMSI_	71	288	1	96	48	4
NMTAP	71	312	0
NMTAP	71	336	1
NMTAP	71	360	2
NMTAP	72	0	1
NMTAP	72	48	5
NMTAP	72	96	3
NMTAP	72	120	7
NMTAP	72	144	2
NMTAP	72	168	6
NMTAP	72	192	1
NMTAP	72	216	5
NMTAP	72	240	0
NMTAP	72	264	4
EXTAP	72	288	3
EXTAP	72	288	7
NMTAP	72	300	6
NMTAP	72	312	5
NMTAP	72	324	4
NMTAP	72	336	3
NMTAP	72	348	2
NMTAP	72	360	1
NMTAP	72	372	0
EXTAP	73	0	7
NMTAP	73	12	6
NMTAP	73	24	5
NMTAP	73	36	4
NMTAP	73	48	3
NMTAP	73	60	2
NMTAP	73	72	1
NMTAP	73	84	0
BRTAP	73	96	6
BRSTR	73	96	7
NMSF_	73	96	7	96	192	3
NMTTP	74	192	5	B	0	M1
NMTTP	74	224	4	B	0	M1
NMTTP	74	256	2	B	0	M1
NMTTP	74	288	3	B	0	M1
NMTTP	75	0	2	D	0	M1
NMTTP	75	0	6	D	0	M1
BRTAP	75	96	1
BRTAP	75	96	6
NMTAP	75	144	7
NMSTR	75	168	7
NMSI_	75	168	7	96	72	3
NMTAP	75	216	0
NMTAP	75	264	1
NMSTR	75	288	1
NMSI_	75	288	1	96	48	5
CNSI_	75	336	3	0	48	7
NMTTP	75	336	3	A	1	M1
CNSI_	76	48	5	0	48	1
NMTTP	76	48	5	A	1	M1
BRTAP	76	96	7
NMTAP	76	144	6
NMSTR	76	168	6
NMSI_	76	168	6	96	72	2
NMTAP	76	216	7
NMTAP	76	264	0
NMSTR	76	288	0
NMSI_	76	288	0	96	48	4
CNSI_	76	336	2	0	48	6
NMTTP	76	336	2	A	1	M1
CNSI_	77	48	4	0	48	0
NMTTP	77	48	4	A	1	M1
BRTAP	77	96	6
NMTAP	77	144	7
NMSTR	77	168	7
NMSI_	77	168	7	96	72	3
NMTAP	77	216	0
NMTAP	77	264	1
NMSTR	77	288	1
NMSI_	77	288	1	96	48	5
CNSI_	77	336	3	0	48	7
NMTTP	77	336	3	A	1	M1
CNSI_	78	48	5	0	48	1
NMTTP	78	48	5	A	1	M1
BRTAP	78	96	7
NMTAP	78	144	5
NMTAP	78	168	4
NMTAP	78	216	1
NMTAP	78	240	3
NMTAP	78	264	2
NMTAP	78	288	4
NMTAP	78	312	4
NMTAP	78	360	3
NMTAP	78	360	5
NMTAP	79	24	6
NMTAP	79	48	7
NMTAP	79	72	6
BRTAP	79	96	0
BRTAP	79	96	5
NMTAP	79	144	1
NMSTR	79	168	1
NMSI_	79	168	1	96	72	5
NMTAP	79	216	0
NMTAP	79	264	7
NMSTR	79	288	7
NMSI_	79	288	7	96	48	3
CNSI_	79	336	5	0	48	1
NMTTP	79	336	5	A	1	M1
CNSI_	80	48	3	0	48	7
NMTTP	80	48	3	A	1	M1
BRTAP	80	96	1
NMTAP	80	144	0
NMSTR	80	168	0
NMSI_	80	168	0	96	72	4
NMTAP	80	216	7
NMTAP	80	264	6
NMSTR	80	288	6
NMSI_	80	288	6	96	48	2
CNSI_	80	336	4	0	48	0
NMTTP	80	336	4	A	1	M1
CNSI_	81	48	2	0	48	6
NMTTP	81	48	2	A	1	M1
BRTAP	81	96	0
NMTAP	81	144	1
NMSTR	81	168	1
NMSI_	81	168	1	96	72	5
NMTAP	81	216	0
NMTAP	81	264	7
NMSTR	81	288	7
NMSI_	81	288	7	96	48	3
CNSI_	81	336	5	0	48	1
NMTTP	81	336	5	A	1	M1
CNSI_	82	48	3	0	48	7
NMTTP	82	48	3	A	1	M1
BRTAP	82	96	1
NMTAP	82	144	0
NMTAP	82	168	0
NMTAP	82	216	6
NMTAP	82	240	7
NMTAP	82	264	5
NMSTR	82	288	5
NMSCL	82	288	5	96	48	2
NMTAP	83	0	0
BRTAP	83	96	1
BRTAP	83	96	4
NMTAP	83	144	2
NMTAP	83	144	5
NMTAP	83	192	3
NMTAP	83	192	6
NMTAP	83	240	4
NMTAP	83	240	7
NMTAP	83	288	4
NMTAP	83	312	6
NMTAP	83	336	3
NMTAP	83	360	5
NMTAP	84	0	2
NMTAP	84	24	4
NMTAP	84	48	1
NMTAP	84	72	3
EXTAP	84	96	0
NMTAP	84	112	2
NMTAP	84	128	0
NMTAP	84	144	2
NMTAP	84	160	0
NMTAP	84	176	2
EXTAP	84	192	7
NMTAP	84	208	5
NMTAP	84	224	7
NMTAP	84	240	5
NMTAP	84	256	7
NMTAP	84	272	5
EXSTR	84	288	0
NMSF_	84	288	0	96	48	4
NMTAP	85	0	0
BRTAP	85	96	1
BRTAP	85	96	7
NMTAP	85	192	4
NMTAP	85	192	6
NMTAP	85	240	5
NMTAP	85	288	3
NMTAP	85	288	4
NMTAP	85	336	2
NMTAP	86	0	1
NMTAP	86	24	0
NMTAP	86	72	0
NMTAP	86	96	1
NMTAP	86	96	7
NMTAP	86	192	2
NMTAP	86	216	4
NMTAP	86	240	3
NMTAP	86	288	5
NMTAP	86	312	4
NMTAP	86	360	7
NMTAP	87	0	0
NMTAP	87	0	6
NMTAP	87	96	1
NMTAP	87	96	5
NMTAP	87	192	6
NMTAP	87	216	4
NMTAP	87	240	5
NMTAP	87	288	3
NMTAP	87	288	4
NMTAP	87	336	2
NMTAP	88	0	1
NMTAP	88	24	0
NMTAP	88	48	1
NMTAP	88	72	0
EXSTR	88	96	2
NMSCL	88	96	2	96	48	7
NMTAP	88	144	3
NMTAP	88	192	4
EXSTR	88	240	5
NMSCL	88	240	5	96	48	2
NMTAP	88	288	6
NMTAP	88	336	7
EXHLD	89	0	0	96
NMTAP	89	96	7
BRSTR	89	144	1
NMSI_	89	144	1	96	24	4
BRSTR	89	144	6
NMSI_	89	144	6	96	24	3
CNSCR	89	264	3	0	120	7
CNSCL	89	264	4	0	120	0
NMTAP	90	96	6
NMTAP	90	96	7
NMTAP	90	144	0
NMTAP	90	192	1
NMTAP	90	192	7
NMTAP	90	240	2
NMTAP	90	288	0
NMHLD	90	288	3	96
NMTTP	90	336	7	A	0	M1
NMTTP	90	352	7	D	0	M1
NMTTP	90	368	6	A	0	M1
NMTTP	91	0	6	D	0	M1
NMTAP	91	48	3
NMTAP	91	96	0
NMTAP	91	96	2
NMTAP	91	144	7
NMTAP	91	192	0
NMTAP	91	192	6
NMTAP	91	240	5
NMHLD	91	288	4	96
NMTAP	91	288	7
NMTTP	91	336	0	A	0	M1
NMTTP	91	352	1	D	0	M1
NMTTP	91	368	1	A	0	M1
NMTTP	92	0	2	D	0	M1
NMTAP	92	48	5
NMTAP	92	96	6
NMTAP	92	96	7
NMTAP	92	144	0
NMTAP	92	192	1
NMTAP	92	192	4
NMTAP	92	240	2
NMTAP	92	288	5
NMTAP	92	312	4
NMTAP	92	360	2
BRTAP	93	0	1
BRTAP	93	0	3
EXTAP	93	96	6
NMTAP	93	120	7
NMTAP	93	144	5
EXTAP	93	168	1
NMTAP	93	192	0
NMTAP	93	216	2
EXTAP	93	240	6
NMTAP	93	264	4
NMTAP	93	288	5
EXTAP	93	312	1
NMTAP	93	336	3
NMTAP	93	360	2
EXHLD	94	0	1	48
NMHLD	94	0	4	48
EXTAP	94	96	1
NMTAP	94	120	0
NMTAP	94	144	2
EXTAP	94	168	6
NMTAP	94	192	7
NMTAP	94	216	5
EXTAP	94	240	1
NMTAP	94	264	3
NMTAP	94	288	2
EXTAP	94	312	6
NMTAP	94	336	4
NMTAP	94	360	5
NMHLD	95	0	3	48
EXHLD	95	0	6	48
EXTAP	95	96	0
NMTAP	95	120	3
NMTAP	95	144	2
EXTAP	95	168	7
NMTAP	95	192	5
NMTAP	95	216	6
EXTAP	95	240	2
NMTAP	95	264	3
NMTAP	95	288	1
NMTAP	95	312	5
NMTAP	95	336	4
NMTAP	95	360	6
NMHLD	96	0	3	48
EXHLD	96	0	7	48
NMTAP	96	96	2
NMTAP	96	120	6
NMTAP	96	144	1
NMTAP	96	168	5
NMTAP	96	192	0
NMTAP	96	216	4
NMTAP	96	240	7
NMTAP	96	264	3
EXHLD	96	288	2	48
NMHLD	96	288	6	48
NMHLD	96	360	0	48
EXHLD	96	360	4	48
BRTAP	97	48	2
BRTAP	97	48	6
NMTAP	97	96	5
NMTAP	97	120	1
NMTAP	97	144	6
NMTAP	97	168	2
NMTAP	97	192	7
NMTAP	97	216	3
NMTAP	97	240	0
NMTAP	97	264	4
NMHLD	97	288	1	48
EXHLD	97	288	5	48
EXHLD	97	360	3	48
NMHLD	97	360	7	48
BRTAP	98	48	1
BRTAP	98	48	5
NMTAP	98	96	2
NMTAP	98	120	6
NMTAP	98	144	1
NMTAP	98	168	5
NMTAP	98	192	0
NMTAP	98	216	4
NMTAP	98	240	7
NMTAP	98	264	3
NMTAP	98	288	6
NMTAP	98	312	2
NMTAP	98	336	6
NMTAP	98	360	2
NMTAP	99	0	6
NMTAP	99	24	2
NMTAP	99	48	6
NMTAP	99	72	2
BXHLD	99	96	3	192
BRTAP	99	96	7
NMTAP	99	108	0
NMTAP	99	120	1
NMTAP	99	132	2
NMTAP	99	156	4
NMTAP	99	168	5
NMTAP	99	180	6
EXTAP	99	192	7
NMTAP	99	200	0
NMTAP	99	208	1
NMTAP	99	216	2
NMTAP	99	232	4
NMTAP	99	240	5
NMTAP	99	248	6
NMTAP	99	256	7
NMTAP	99	264	0
NMTAP	99	272	1
NMTAP	99	280	2
NMTTP	99	288	3	B	0	M1
NMTTP	99	296	0	C	1	M1
NMTTP	99	304	7	B	0	M1
NMSTR	100	0	0
NMSI_	100	0	0	96	48	4
NMTAP	100	24	6
NMTAP	100	48	2
NMTAP	100	72	4
NMTAP	100	96	0

T_REC_TAP	659
T_REC_BRK	49
T_REC_XTP	108
T_REC_HLD	80
T_REC_XHO	9
T_REC_STR	58
T_REC_BST	8
T_REC_XST	8
T_REC_TTP	113
T_REC_THO	0
T_REC_SLD	75
T_REC_ALL	1167
T_NUM_TAP	946
T_NUM_BRK	57
T_NUM_HLD	89
T_NUM_SLD	75
T_NUM_ALL	1167
T_JUDGE_TAP	1003
T_JUDGE_HLD	131
T_JUDGE_SLD	75
T_JUDGE_ALL	1209
TTM_EACHPAIRS	172
TTM_SCR_TAP	473000
TTM_SCR_BRK	148200
TTM_SCR_HLD	89000
TTM_SCR_SLD	112500
TTM_SCR_ALL	822700
TTM_SCR_S	792500
TTM_SCR_SS	817000
TTM_RAT_ACV	10069

