VERSION	0.00.00	1.04.00
FES_MODE	0
BPM_DEF	172.000	172.000	172.000	172.000
MET_DEF	4	4
RESOLUTION	384
CLK_DEF	384
COMPATIBLE_CODE	MA2

BPM	0	0	172.000
MET	0	0	4	4
MET	15	0	4	3
MET	26	96	4	4

NMHLD	1	0	3	288
NMTAP	1	0	4
NMHLD	2	0	2	48
NMHLD	2	0	4	48
NMHLD	2	96	2	48
NMHLD	2	96	4	48
NMHLD	2	192	3	48
NMHLD	2	192	5	48
NMHLD	2	288	3	48
NMHLD	2	288	5	48
BXTAP	3	0	2
BXTAP	3	0	6
NMTAP	3	96	0
NMHLD	3	144	0	96
NMTAP	3	240	3
NMTAP	3	288	3
NMTAP	3	336	1
BXTAP	4	0	1
BXTAP	4	0	5
NMTAP	4	96	7
NMHLD	4	144	7	144
NMTAP	4	240	4
NMTAP	4	288	4
BXTAP	5	0	3
BXTAP	5	0	6
NMTAP	5	96	0
NMTAP	5	96	1
NMTAP	5	144	0
NMHLD	5	144	1	96
NMTAP	5	240	3
NMTAP	5	288	3
NMTAP	5	336	2
BXSTR	6	0	4
NMSI_	6	0	4	96	48	7
NMTAP	6	96	0
NMHLD	6	144	0	96
NMTAP	6	240	7
NMSTR	6	288	7
NMSCL	6	288	7	96	192	2
BRTAP	7	0	2
NMTAP	7	96	1
NMTAP	7	192	0
NMSTR	7	288	0
NMSCR	7	288	0	96	192	5
NMTAP	8	0	5
NMTAP	8	96	6
NMTAP	8	192	7
NMSTR	8	288	7
NMSUL	8	288	7	96	192	2
NMTAP	9	0	2
NMTAP	9	96	1
NMTAP	9	192	0
NMSTR	9	288	0
NMSCR	9	288	0	96	240	6
EXTAP	10	0	7
NMTAP	10	96	7
NMTAP	10	192	7
EXTAP	10	288	0
EXTAP	10	288	7
NMHLD	11	0	1	72
NMHLD	11	72	2	72
NMHLD	11	144	3	72
NMHLD	11	216	4	72
NMTAP	11	288	5
NMTAP	11	336	5
NMHLD	12	0	6	72
NMHLD	12	72	5	72
NMHLD	12	144	4	72
NMHLD	12	216	3	72
NMTAP	12	288	2
NMTAP	12	336	2
NMTAP	13	0	1
NMTAP	13	0	3
NMTAP	13	72	2
NMTAP	13	72	3
NMTAP	13	144	4
NMTAP	13	144	5
NMTAP	13	216	4
NMTAP	13	216	6
NMSTR	13	288	7
NMSCR	13	288	7	96	144	2
NMTTP	14	0	0	C	1	M1
CNSI_	14	144	2	0	144	5
BRTAP	15	0	0
NMTTP	15	192	4	E	0	M1
NMTTP	15	288	5	E	0	M1
NMTTP	15	288	5	A	0	M1
NMTTP	16	96	0	C	0	M1
NMTTP	16	192	1	B	0	M1
NMTTP	16	192	1	E	0	M1
NMTTP	17	0	0	A	0	M1
NMTTP	17	0	7	A	0	M1
NMTTP	17	96	0	E	0	M1
NMTTP	17	192	0	C	0	M1
NMTTP	17	288	4	E	0	M1
NMTTP	18	0	3	A	0	M1
NMTTP	18	0	4	A	0	M1
NMTAP	18	192	5
NMSTR	18	288	5
NMSCL	18	288	5	96	96	3
NMTAP	19	96	2
NMHLD	19	192	1	288
NMSTR	20	0	3
NMSXL	20	0	3	96	240	2
BRHLD	21	0	0	288
NMTAP	21	96	2
NMTAP	21	144	2
NMTAP	21	192	2
NMHLD	21	288	6	288
NMTAP	22	0	4
NMTAP	22	48	4
NMTAP	22	96	4
NMHLD	22	192	1	192
NMTAP	22	288	3
NMTAP	22	336	3
NMTAP	23	0	3
NMTAP	23	96	2
NMTAP	23	96	4
NMTAP	23	192	3
NMTAP	23	192	5
NMTAP	23	288	1
NMTAP	23	288	7
NMHLD	24	0	0	96
NMTAP	24	96	3
NMTAP	24	144	3
NMTAP	24	192	1
NMTAP	24	240	1
NMHLD	24	288	5	96
NMTAP	25	0	4
NMTAP	25	48	4
NMTAP	25	96	6
NMTAP	25	144	6
NMHLD	25	192	2	96
NMTAP	25	288	3
NMTAP	25	336	3
NMTAP	26	0	1
NMTAP	26	48	1
NMTTP	26	96	4	E	0	M1
NMTTP	26	144	3	E	0	M1
NMTTP	26	192	5	E	0	M1
NMTTP	26	240	2	E	0	M1
NMTHO	26	288	0	96	C	0	M1
EXTAP	27	96	0
EXTAP	27	96	7
NMSTR	27	192	1
NMSI_	27	192	1	96	48	3
NMTAP	27	192	6
NMTAP	27	288	5
NMTAP	27	336	5
NMTAP	28	0	4
NMTAP	28	0	6
NMTAP	28	96	3
NMTAP	28	96	7
NMTAP	28	192	4
NMSTR	28	192	6
NMSI_	28	192	6	96	48	4
NMTAP	28	288	2
NMTAP	28	336	2
NMTAP	29	0	1
NMTAP	29	0	3
NMTAP	29	96	0
NMSTR	29	96	3
NMSI_	29	96	3	96	48	5
NMTAP	29	192	1
NMTAP	29	288	3
NMTAP	29	336	3
NMTAP	30	0	7
NMTAP	30	48	7
NMSTR	30	96	4
NMSI_	30	96	4	96	48	2
NMTAP	30	96	7
NMTAP	30	192	5
NMTAP	30	288	4
NMTAP	30	336	4
NMTAP	31	0	0
NMTAP	31	0	4
NMHLD	31	96	1	48
NMHLD	31	96	3	48
NMHLD	31	168	2	48
NMHLD	31	168	4	48
NMHLD	31	240	3	48
NMHLD	31	240	5	48
NMHLD	31	312	4	48
NMHLD	31	312	6	48
NMTAP	32	0	7
NMTAP	32	48	7
NMHLD	32	96	4	48
NMHLD	32	96	6	48
NMHLD	32	168	3	48
NMHLD	32	168	5	48
NMHLD	32	240	2	48
NMHLD	32	240	4	48
NMHLD	32	312	1	48
NMHLD	32	312	3	48
EXTAP	33	0	0
EXTAP	33	48	0
NMHLD	33	96	1	48
NMHLD	33	96	4	48
NMHLD	33	168	2	48
NMHLD	33	168	5	48
NMHLD	33	240	3	48
NMHLD	33	240	6	48
NMHLD	33	312	4	48
NMHLD	33	312	7	48
NMSTR	34	0	4
NMSI_	34	0	4	96	48	0
NMSTR	34	0	7
NMSI_	34	0	7	96	48	3
BXSTR	34	192	0
NMSI_	34	192	0	96	48	5
BXSTR	34	192	3
NMSI_	34	192	3	96	48	6
BXTAP	35	0	5
BXSTR	35	0	6
NMSCR	35	0	6	96	672	5
NMTTP	35	96	5	B	0	M1
NMTTP	35	96	6	B	0	M1
NMTTP	35	96	6	E	1	M1
NMHLD	37	96	5	192
NMTTP	37	288	4	E	0	M1
NMTTP	38	0	3	E	0	M1
NMHLD	38	96	2	384
NMTTP	38	288	4	E	0	M1
NMTTP	39	0	5	E	0	M1
NMHLD	39	96	6	192
NMHLD	39	288	4	192
NMTHO	40	96	0	192	C	0	M1
NMTTP	41	96	0	A	0	M1
NMTTP	41	192	1	A	0	M1
NMTTP	41	288	0	C	0	M1
NMTTP	41	288	2	A	0	M1
NMTTP	42	0	3	A	0	M1
NMTTP	42	96	4	A	0	M1
NMTTP	42	192	5	A	0	M1
NMTTP	42	288	0	C	0	M1
NMTTP	42	288	6	A	0	M1
NMTTP	43	0	7	A	0	M1
NMTTP	43	96	0	B	0	M1
NMTTP	43	96	0	A	0	M1
NMTTP	43	288	2	B	0	M1
NMTTP	43	288	2	A	0	M1
NMTTP	43	288	4	B	0	M1
NMTTP	43	288	4	E	0	M1
NMTTP	44	96	6	B	0	M1
NMTTP	44	128	5	B	0	M1
NMTTP	44	160	5	E	0	M1
NMTTP	44	192	1	B	0	M1
NMTTP	44	224	2	B	0	M1
NMTTP	44	256	3	E	0	M1
NMTTP	44	288	0	C	0	M1
NMTAP	45	96	2
NMHLD	45	96	5	96
NMTAP	45	192	4
NMTAP	45	256	4
NMTAP	45	288	6
NMTAP	46	0	3
NMTAP	46	0	5
NMHLD	46	96	2	96
NMTAP	46	192	3
NMTAP	46	256	3
NMTAP	46	288	1
NMTAP	47	0	2
NMTAP	47	0	4
NMTAP	47	96	2
NMTAP	47	160	2
NMTAP	47	192	4
NMTAP	47	256	4
NMTAP	47	288	3
NMTAP	47	352	3
NMSTR	48	0	5
NMSCR	48	0	5	96	192	0
EXTAP	48	96	4
EXTAP	48	288	3
NMTAP	49	96	1
NMTAP	49	160	1
NMTAP	49	192	3
NMTAP	49	256	3
NMTAP	49	288	2
NMTAP	49	352	2
NMTAP	50	0	4
NMTAP	50	64	4
NMTAP	50	96	3
NMTAP	50	160	3
NMTAP	50	192	5
NMTAP	50	256	5
NMTAP	50	288	4
NMSTR	51	0	3
NMSI_	51	0	3	96	96	7
NMTAP	51	96	4
NMTAP	51	192	4
CNSI_	51	192	7	0	96	5
NMTAP	51	288	4
NMSTR	52	0	4
NMSI_	52	0	4	96	96	0
NMTAP	52	96	3
CNSI_	52	192	0	0	96	2
NMTAP	52	192	3
NMTAP	52	288	3
NMTAP	53	0	3
NMTAP	53	0	4
BRTAP	53	96	2
BRTAP	53	96	6
NMTAP	53	192	5
BRTAP	53	288	1
BRTAP	53	288	5
NMTAP	54	0	2
NMTAP	54	96	2
NMHLD	54	96	6	192
NMTAP	54	192	3
NMTAP	54	288	4
NMTAP	55	0	3
NMTAP	55	0	4
BRTAP	55	96	0
BRTAP	55	96	5
NMTAP	55	168	2
NMTAP	55	168	3
NMTAP	55	240	4
NMTAP	55	240	6
NMTAP	55	288	4
NMTAP	55	288	6
NMTAP	55	360	0
NMTAP	55	360	1
NMTAP	56	48	2
NMTAP	56	48	4
NMTAP	56	96	2
NMTAP	56	96	4
NMTAP	56	168	6
NMTAP	56	168	7
NMTAP	56	240	0
NMTAP	56	240	1
NMTAP	56	288	0
NMTAP	56	288	1
NMTAP	56	360	3
NMTAP	56	360	4
NMTAP	57	48	6
NMTAP	57	48	7
NMHLD	57	96	6	72
NMTAP	57	96	7
NMHLD	57	168	5	72
NMTAP	57	240	4
NMHLD	57	288	3	72
NMHLD	57	360	2	72
NMTAP	58	48	1
NMTAP	58	96	0
NMSTR	58	96	1
NMSLR	58	96	1	96	96	6
NMTAP	58	288	7
BRTAP	59	0	2
BRTAP	59	0	6
NMHLD	59	96	3	48
NMHLD	59	96	5	48
NMHLD	59	168	2	48
NMHLD	59	168	4	48
NMHLD	59	240	1	48
NMHLD	59	240	3	48
NMHLD	59	312	0	48
NMHLD	59	312	2	48
NMTAP	60	0	7
NMTAP	60	48	7
NMHLD	60	96	0	48
NMHLD	60	96	6	48
NMHLD	60	168	5	48
NMHLD	60	168	7	48
NMHLD	60	240	4	48
NMHLD	60	240	6	48
NMHLD	60	312	3	48
NMHLD	60	312	5	48
NMTAP	61	0	2
NMTAP	61	0	4
NMTAP	61	96	1
NMTAP	61	96	5
NMTAP	61	144	2
NMTAP	61	168	3
NMTAP	61	192	2
NMTAP	61	240	5
NMTAP	61	264	4
NMTAP	61	288	6
NMTAP	61	336	2
NMTAP	61	360	3
NMTAP	62	0	1
NMTAP	62	48	0
NMTAP	62	48	4
NMSTR	62	96	0
NMSCL	62	96	0	96	144	2
NMTAP	62	96	4
EXTAP	63	0	1
EXTAP	63	0	6
NMTAP	63	96	2
NMTAP	63	96	3
NMTAP	63	144	2
NMTAP	63	144	3
NMTAP	63	192	3
NMTAP	63	192	4
NMTAP	63	240	3
NMTAP	63	240	4
BRTAP	63	288	4
BRTAP	63	288	5
BRTAP	63	360	0
BRTAP	63	360	7
BRTAP	64	48	2
BRTAP	64	48	3
NMTAP	64	96	1
NMTAP	64	96	4
NMTAP	64	144	1
NMTAP	64	144	4
NMTAP	64	192	0
NMTAP	64	192	5
NMTAP	64	240	0
NMTAP	64	240	5
BRTAP	64	288	6
BRTAP	64	288	7
BRTAP	64	360	3
BRTAP	64	360	4
BRTAP	65	48	0
BRTAP	65	48	1
NMTAP	65	96	0
NMTAP	65	96	1
BRTAP	65	192	3
BRSTR	65	192	6
NMSI_	65	192	6	96	48	2
NMSTR	65	288	1
NMSI_	65	288	1	96	48	5
NMSTR	66	0	7
NMSI_	66	0	7	96	48	3
NMSTR	66	96	0
NMSXL	66	96	0	96	144	4
NMSXR	66	96	0	96	144	4
BRTAP	67	0	2
BRTAP	67	0	6
NMHLD	67	96	2	48
NMHLD	67	96	3	48
NMHLD	67	168	0	48
NMHLD	67	168	1	48
NMHLD	67	240	6	48
NMHLD	67	240	7	48
NMHLD	67	312	4	48
NMHLD	67	312	5	48
NMTAP	68	0	4
NMTAP	68	0	5
NMTAP	68	48	4
NMTAP	68	48	5
NMHLD	68	96	4	48
NMHLD	68	96	5	48
NMHLD	68	168	6	48
NMHLD	68	168	7	48
NMHLD	68	240	0	48
NMHLD	68	240	1	48
NMHLD	68	312	2	48
NMHLD	68	312	3	48
NMTAP	69	0	2
NMTAP	69	0	3
NMTAP	69	48	3
NMTAP	69	48	4
NMTAP	69	96	4
NMSTR	69	96	5
NMSI_	69	96	5	96	48	1
NMSTR	69	192	2
NMSI_	69	192	2	96	48	6
NMSTR	69	288	4
NMSI_	69	288	4	96	48	0
NMSTR	70	0	3
NMSCL	70	0	3	96	192	5
BRTAP	70	96	7
NMTAP	70	288	4
BXTAP	71	0	0
BXTAP	71	0	7
NMTAP	71	96	1
NMTAP	71	96	3
NMTAP	71	144	1
NMTAP	71	144	3
NMTAP	71	192	2
NMTAP	71	240	2
NMTAP	71	288	3
NMTAP	71	288	5
NMTAP	71	336	3
NMTAP	71	336	5
NMTAP	72	0	4
NMTAP	72	48	4
NMTAP	72	96	3
NMTAP	72	120	4
NMTAP	72	144	3
NMTAP	72	168	4
NMTAP	72	192	3
NMTAP	72	216	4
NMTAP	72	240	3
NMTAP	72	264	4
NMTAP	72	288	1
NMTAP	72	312	6
NMTAP	72	336	1
NMTAP	72	360	6
NMTAP	73	0	1
NMTAP	73	24	6
NMTAP	73	48	1
NMTAP	73	72	6
NMTTP	73	96	0	C	1	M1
NMSTR	74	96	0
NMSCR	74	96	0	96	96	3
NMSTR	74	96	7
NMSCL	74	96	7	96	96	4
EXTAP	75	0	3
EXTAP	75	0	4
BXTAP	75	96	1
BXTAP	75	96	5
NMTAP	75	144	2
NMTAP	75	168	3
NMTAP	75	216	3
NMTAP	75	240	1
NMSTR	75	288	0
NMSI_	75	288	0	96	48	4
NMTAP	75	336	0
NMTAP	76	0	7
NMTAP	76	48	7
BXTAP	76	96	3
BXTAP	76	96	6
NMTAP	76	144	5
NMTAP	76	168	4
NMTAP	76	216	4
NMTAP	76	240	6
NMSTR	76	288	7
NMSI_	76	288	7	96	48	3
NMTAP	76	336	7
NMTAP	77	0	0
NMTAP	77	48	0
BXTAP	77	96	1
BXTAP	77	96	4
NMTAP	77	144	2
NMTAP	77	168	3
NMTAP	77	216	3
NMTAP	77	240	1
NMSTR	77	288	0
NMSI_	77	288	0	96	48	4
NMTAP	77	336	0
NMSTR	78	0	7
NMSI_	78	0	7	96	48	3
NMTAP	78	48	7
NMSTR	78	96	2
NMSI_	78	96	2	96	48	7
NMTAP	78	144	2
NMSTR	78	192	5
NMSCR	78	192	5	96	96	2
NMTAP	78	240	5
BRTAP	78	288	0
BRTAP	79	96	2
BRTAP	79	96	7
NMTAP	79	144	1
NMTAP	79	168	0
NMTAP	79	216	0
NMTAP	79	240	2
NMSTR	79	288	3
NMSI_	79	288	3	96	48	7
NMTAP	79	336	3
NMTAP	80	0	4
NMTAP	80	48	4
BRTAP	80	96	0
BRTAP	80	96	5
NMTAP	80	144	6
NMTAP	80	168	7
NMTAP	80	216	7
NMTAP	80	240	5
NMSTR	80	288	4
NMSI_	80	288	4	96	48	0
NMTAP	80	336	4
NMTAP	81	0	3
NMTAP	81	48	3
BRTAP	81	96	2
BRTAP	81	96	7
NMTAP	81	144	1
NMTAP	81	168	0
NMTAP	81	216	0
NMTAP	81	240	2
NMSTR	81	288	3
NMSI_	81	288	3	96	48	7
NMTAP	81	336	3
NMSTR	82	0	5
NMSI_	82	0	5	96	48	0
NMTAP	82	48	5
BRSTR	82	96	1
NMSI_	82	96	1	96	48	3
NMSI_	82	96	1	96	48	5
BRSTR	82	288	4
NMSI_	82	288	4	96	48	0
BRSTR	82	288	6
NMSI_	82	288	6	96	48	0
BRTAP	83	96	1
BRTAP	83	96	7
NMTAP	83	144	1
NMTAP	83	144	7
NMTAP	83	192	2
NMTAP	83	240	2
NMTAP	83	288	3
NMTAP	83	312	4
NMTAP	83	336	3
NMTAP	83	360	4
NMTAP	84	0	2
NMTAP	84	24	3
NMTAP	84	48	2
NMTAP	84	72	3
NMTAP	84	96	1
NMTAP	84	120	2
NMTAP	84	144	1
NMTAP	84	168	2
NMSTR	84	192	0
NMSI_	84	192	0	96	120	4
NMTAP	85	96	3
NMHLD	85	96	5	96
NMTAP	85	192	6
NMSTR	85	240	6
NMSCR	85	240	6	96	48	1
NMSTR	85	336	4
NMSI_	85	336	4	96	48	0
NMTAP	86	48	2
NMHLD	86	96	2	96
NMTAP	86	192	0
NMSTR	86	240	0
NMSI_	86	240	0	96	48	4
NMSTR	86	336	1
NMSCL	86	336	1	96	48	6
NMTAP	87	48	5
NMHLD	87	96	5	96
NMTAP	87	192	4
NMSTR	87	240	4
NMSI_	87	240	4	96	48	0
NMSTR	87	336	6
NMSCL	87	336	6	96	48	3
NMTAP	88	48	1
BRTAP	88	96	1
NMTAP	88	192	5
BRTAP	88	240	4
BRTAP	88	240	6
NMTAP	88	336	2
BRTAP	89	0	1
BRSTR	89	0	3
NMSCR	89	0	3	96	192	1
NMTAP	89	96	2
NMTAP	89	192	2
NMTAP	89	288	2
NMTAP	90	0	2
NMSTR	90	0	4
NMSCR	90	0	4	96	192	2
NMTAP	90	96	3
NMTAP	90	192	3
NMTAP	90	288	3
NMTAP	91	0	3
NMSTR	91	0	5
NMSCR	91	0	5	96	192	3
NMTAP	91	96	4
NMTAP	91	192	4
NMTAP	91	288	4
NMSTR	92	0	3
NMSCL	92	0	3	96	192	5
NMTAP	92	0	4
NMTAP	92	96	4
NMTAP	92	192	4
NMTAP	92	288	3
EXTAP	93	0	2
EXTAP	93	0	4
BRHLD	93	96	1	48
BRHLD	93	96	3	48
NMHLD	93	168	6	48
NMHLD	93	168	7	48
NMHLD	93	240	1	48
NMHLD	93	240	2	48
NMHLD	93	312	4	48
NMHLD	93	312	6	48
NMTAP	94	0	4
NMTAP	94	0	6
NMTAP	94	48	7
BRHLD	94	96	0	48
BRHLD	94	96	1	48
NMHLD	94	168	4	48
NMHLD	94	168	6	48
NMHLD	94	240	1	48
NMHLD	94	240	2	48
NMHLD	94	312	6	48
NMHLD	94	312	7	48
NMTAP	95	0	0
NMTAP	95	0	5
NMTAP	95	48	1
NMTAP	95	48	4
BRHLD	95	96	2	48
BRHLD	95	96	3	48
NMHLD	95	168	5	48
NMHLD	95	168	7	48
NMHLD	95	240	1	48
NMHLD	95	240	2	48
NMHLD	95	312	4	48
NMHLD	95	312	6	48
NMTAP	96	0	3
NMTAP	96	0	5
NMTAP	96	48	2
NMTAP	96	48	6
BRTAP	96	96	7
NMTAP	96	144	0
NMTAP	96	192	1
NMTAP	96	240	2
NMTAP	96	288	3
NMTAP	96	336	4
NMTAP	97	0	5
NMTAP	97	48	6
NMTAP	97	96	0
NMTAP	97	96	7
NMTAP	97	144	0
NMTAP	97	144	7
NMTAP	97	192	1
NMTAP	97	192	6
NMTAP	97	240	1
NMTAP	97	240	6
NMTAP	97	288	2
NMTAP	97	288	5
NMTAP	97	336	2
NMTAP	97	336	5
NMTAP	98	0	3
NMTAP	98	0	4
NMTAP	98	48	3
NMTAP	98	48	4
NMTAP	98	96	3
NMTAP	98	120	4
NMTAP	98	144	3
NMTAP	98	168	4
NMTAP	98	192	3
NMTAP	98	216	4
NMTAP	98	240	3
NMTAP	98	264	4
NMTAP	98	288	3
NMTAP	98	312	4
NMTAP	98	336	3
NMTAP	98	360	4
NMTAP	99	0	3
NMTAP	99	24	4
NMTAP	99	48	3
NMTAP	99	72	4
NMTAP	99	96	3
NMTAP	99	120	2
NMTAP	99	144	1
NMTAP	99	168	0
NMTAP	99	192	7
NMTAP	99	216	6
NMTAP	99	240	5
NMTAP	99	264	4
NMHLD	99	288	3	96
NMTTP	100	0	3	E	0	M1
NMTTP	100	24	3	B	0	M1
NMTTP	100	48	4	B	0	M1
NMTTP	100	72	5	E	0	M1
NMTTP	100	96	0	C	0	M1

T_REC_TAP	379
T_REC_BRK	40
T_REC_XTP	15
T_REC_BXX	15
T_REC_HLD	116
T_REC_XHO	0
T_REC_BHO	7
T_REC_BXH	0
T_REC_STR	47
T_REC_BST	5
T_REC_XST	0
T_REC_XBS	4
T_REC_TTP	54
T_REC_THO	2
T_REC_SLD	58
T_REC_BSL	0
T_REC_ALL	742
T_NUM_TAP	495
T_NUM_BRK	71
T_NUM_HLD	118
T_NUM_SLD	58
T_NUM_ALL	742
T_JUDGE_TAP	559
T_JUDGE_HLD	197
T_JUDGE_SLD	58
T_JUDGE_ALL	814
TTM_EACHPAIRS	156
TTM_SCR_TAP	247500
TTM_SCR_BRK	184600
TTM_SCR_HLD	118000
TTM_SCR_SLD	87000
TTM_SCR_ALL	637100
TTM_SCR_S	611100
TTM_SCR_SS	630000
TTM_RAT_ACV	10112

