VERSION	0.00.00	1.04.00
FES_MODE	0
BPM_DEF	172.000	172.000	172.000	172.000
MET_DEF	4	4
RESOLUTION	384
CLK_DEF	384
COMPATIBLE_CODE	MA2

BPM	0	0	172.000
MET	0	0	4	4
MET	15	0	4	3
MET	26	96	4	4

NMTTP	1	0	0	C	0	L1
NMTTP	2	0	2	B	0	L1
NMTTP	2	96	3	B	0	L1
NMTTP	2	192	4	B	0	L1
NMTTP	2	288	5	B	0	L1
NMHLD	3	0	6	96
NMHLD	3	0	7	96
EXTAP	3	144	6
EXTAP	3	144	7
NMHLD	4	0	0	96
NMHLD	4	0	1	96
EXTAP	4	144	0
EXTAP	4	144	1
NMHLD	5	0	2	96
NMHLD	5	0	3	96
EXTAP	5	144	2
EXTAP	5	144	3
NMHLD	6	0	4	96
NMHLD	6	0	5	96
EXTAP	6	144	4
EXTAP	6	144	5
NMTAP	7	0	6
NMTAP	7	96	6
NMTAP	7	192	5
NMTAP	7	288	5
NMTAP	8	0	4
NMTAP	8	96	4
NMTAP	8	192	3
NMTAP	8	288	3
NMTAP	9	0	2
NMTAP	9	96	2
NMTAP	9	192	1
NMTAP	9	288	1
NMSTR	10	0	0
NMSI_	10	0	0	96	192	3
NMSTR	10	0	7
NMSI_	10	0	7	96	192	4
NMTAP	11	0	2
NMTAP	11	96	2
NMTAP	11	192	2
NMTAP	11	288	1
NMTAP	11	288	3
NMTAP	12	0	0
NMTAP	12	96	0
NMTAP	12	192	0
NMTAP	12	288	1
NMTAP	12	288	7
NMTAP	13	0	6
NMTAP	13	96	6
NMTAP	13	192	6
NMTAP	13	288	5
NMTAP	13	288	7
NMTAP	14	0	4
NMTAP	14	96	4
NMTAP	14	192	4
NMTAP	14	288	3
NMTAP	14	288	5
NMTTP	15	0	0	C	1	L1
NMTTP	15	0	2	B	0	L1
NMTTP	15	0	6	B	0	L1
NMHLD	18	0	2	288
NMHLD	18	288	3	288
NMHLD	19	192	4	288
NMHLD	20	96	5	288
NMTAP	21	0	4
NMTAP	21	96	6
NMTAP	21	192	6
NMTAP	21	288	4
NMTAP	21	288	5
NMTAP	22	0	3
NMTAP	22	96	3
NMTAP	22	192	4
NMTAP	22	192	5
NMTAP	22	288	6
NMTAP	23	0	6
NMTAP	23	96	0
NMTAP	23	96	7
NMTAP	23	192	1
NMTAP	23	288	1
NMTAP	24	0	2
NMTAP	24	0	3
NMTAP	24	96	4
NMTAP	24	192	4
NMTAP	24	288	2
NMTAP	24	288	3
NMTAP	25	0	1
NMTAP	25	96	1
NMTAP	25	192	2
NMTAP	25	192	3
NMTAP	25	288	4
NMTAP	26	0	4
NMTAP	26	96	3
NMTAP	26	96	5
NMTAP	26	192	2
NMTAP	26	192	6
NMHLD	26	288	1	96
NMHLD	26	288	7	96
EXHLD	27	96	0	672
NMTAP	27	192	7
NMTAP	27	288	7
NMTAP	28	0	7
NMTAP	28	96	6
NMTAP	28	192	6
NMTAP	28	288	6
NMTAP	29	0	6
EXHLD	29	96	5	672
NMTAP	29	192	4
NMTAP	29	288	4
NMTAP	30	0	4
NMTAP	30	96	3
NMTAP	30	192	3
NMTAP	30	288	3
NMTAP	31	0	3
EXHLD	31	96	2	288
NMTAP	31	192	3
NMTAP	31	288	3
NMTAP	32	0	3
EXHLD	32	96	4	288
NMTAP	32	192	1
NMTAP	32	288	1
NMTAP	33	0	1
EXHLD	33	96	0	288
NMTAP	33	192	7
NMTAP	33	288	7
NMTAP	34	0	7
NMTAP	34	96	0
NMTAP	34	96	7
NMTAP	34	192	1
NMTAP	34	192	6
NMTAP	34	288	2
NMTAP	34	288	5
NMSTR	35	0	3
NMSXR	35	0	3	96	576	0
NMSTR	35	0	4
NMSXL	35	0	4	96	576	7
NMTTP	37	96	0	E	0	L1
NMTTP	37	192	1	E	0	L1
NMTTP	37	288	2	E	0	L1
NMTTP	38	0	3	E	0	L1
NMTTP	38	96	4	E	0	L1
NMTTP	38	192	5	E	0	L1
NMTTP	38	288	6	E	0	L1
NMTTP	39	0	7	E	0	L1
NMTTP	39	96	0	E	0	L1
NMTTP	39	288	1	E	0	L1
NMTTP	39	288	7	E	0	L1
NMTTP	40	96	2	E	0	L1
NMTTP	40	96	6	E	0	L1
NMTTP	40	288	3	E	0	L1
NMTTP	40	288	5	E	0	L1
NMTTP	41	96	4	E	0	L1
NMTTP	41	192	3	E	0	L1
NMTTP	41	288	2	E	0	L1
NMTTP	42	0	1	E	0	L1
NMTTP	42	96	0	E	0	L1
NMTTP	42	192	7	E	0	L1
NMTTP	42	288	6	E	0	L1
NMTTP	43	0	5	E	0	L1
NMTTP	43	96	4	E	0	L1
NMTTP	43	288	3	E	0	L1
NMTTP	43	288	5	E	0	L1
NMTTP	44	96	2	E	0	L1
NMTTP	44	96	6	E	0	L1
NMTTP	44	288	1	E	0	L1
NMTTP	44	288	7	E	0	L1
NMTAP	45	96	0
NMTAP	45	96	7
NMTAP	45	192	0
NMTAP	45	288	1
NMTAP	46	0	1
NMTAP	46	96	2
NMTAP	46	96	3
NMTAP	46	192	3
NMTAP	46	288	4
NMTAP	47	0	4
NMHLD	47	96	5	192
NMHLD	47	288	6	192
NMHLD	48	96	7	192
NMHLD	48	288	0	192
NMTAP	49	96	7
NMTAP	49	192	7
NMTAP	49	288	6
NMTAP	50	0	6
NMTAP	50	96	4
NMTAP	50	96	5
NMTAP	50	192	4
NMTAP	50	288	3
NMTAP	51	0	3
NMHLD	51	96	2	192
NMHLD	51	288	1	192
NMHLD	52	96	0	192
NMHLD	52	288	7	192
NMHLD	53	96	6	192
NMHLD	53	288	5	192
NMHLD	54	96	4	192
NMTAP	54	288	3
BRTAP	55	96	2
NMTAP	55	192	1
NMTAP	55	192	3
NMTAP	55	288	0
NMTAP	56	0	0
NMTAP	56	0	7
NMTAP	56	96	6
NMTAP	56	192	6
NMTAP	56	192	7
NMTAP	56	288	1
NMTAP	57	0	0
NMTAP	57	0	1
NMTAP	57	96	2
NMTAP	57	192	3
NMTAP	57	288	4
NMTAP	58	0	5
NMTAP	58	96	6
NMTAP	58	192	5
NMTAP	58	288	4
NMTAP	59	0	3
NMTAP	59	0	4
NMTAP	59	96	5
NMTAP	59	192	4
NMTAP	59	192	6
NMTAP	59	288	7
NMTAP	60	0	0
NMTAP	60	0	7
NMTAP	60	96	1
NMTAP	60	192	0
NMTAP	60	192	1
NMTAP	60	288	6
NMTAP	61	0	6
NMTAP	61	0	7
NMTAP	61	96	5
NMTAP	61	192	4
NMTAP	61	288	3
NMTAP	62	0	2
NMTAP	62	96	1
NMTAP	62	192	2
NMTAP	62	288	3
NMTAP	63	0	3
NMTAP	63	0	4
NMTAP	63	96	5
NMTAP	63	144	5
NMTAP	63	192	5
NMTAP	63	288	4
NMTAP	63	288	6
NMTAP	64	0	3
NMTAP	64	0	4
NMTAP	64	96	2
NMTAP	64	144	2
NMTAP	64	192	2
NMTAP	64	288	1
NMTAP	64	288	3
NMTAP	65	0	3
NMTAP	65	0	4
NMTAP	65	96	4
NMTAP	65	96	6
BRTAP	65	192	0
BRTAP	65	192	7
NMTAP	65	288	1
NMTAP	66	0	2
NMTAP	66	96	3
NMTAP	66	192	4
NMTAP	66	288	5
NMTAP	67	0	6
NMTAP	67	96	0
NMTAP	67	96	7
NMTAP	67	144	0
NMTAP	67	144	7
NMTAP	67	192	0
NMTAP	67	192	7
NMTAP	67	288	6
NMTAP	68	0	4
NMTAP	68	0	5
NMTAP	68	96	0
NMTAP	68	96	7
NMTAP	68	144	0
NMTAP	68	144	7
NMTAP	68	192	0
NMTAP	68	192	7
NMTAP	68	288	1
NMTAP	69	0	2
NMTAP	69	0	3
NMTAP	69	96	1
NMTAP	69	192	0
NMTAP	69	288	7
NMTAP	70	0	6
NMTAP	70	96	5
NMTAP	70	192	4
NMTAP	70	288	3
NMTAP	71	0	3
NMTAP	71	0	4
NMTAP	71	96	1
NMTAP	71	144	1
NMTAP	71	192	3
NMTAP	71	240	3
NMTAP	71	288	2
NMTAP	71	336	2
EXTAP	72	0	3
EXTAP	72	0	4
NMTAP	72	96	5
NMTAP	72	144	5
NMTAP	72	192	4
NMTAP	72	240	4
NMTAP	72	288	6
NMTAP	72	336	6
EXTAP	73	0	0
EXTAP	73	0	7
NMTHO	73	96	0	384	C	0	L1
NMTAP	75	96	1
NMTAP	75	144	1
NMTAP	75	192	0
NMTAP	75	240	0
NMTAP	75	288	1
NMTAP	76	0	1
NMTAP	76	0	7
NMTAP	76	96	6
NMTAP	76	144	6
NMTAP	76	192	7
NMTAP	76	240	7
NMTAP	76	288	6
NMTAP	77	0	0
NMTAP	77	0	6
NMTAP	77	96	0
NMTAP	77	144	0
NMTAP	77	192	7
NMTAP	77	240	7
NMTAP	77	288	0
NMTAP	78	0	0
NMTAP	78	0	7
NMTAP	78	96	1
NMTAP	78	96	6
NMTAP	78	192	2
NMTAP	78	192	5
NMHLD	78	288	3	96
NMHLD	78	288	4	96
NMTAP	79	96	5
NMTAP	79	144	5
NMTAP	79	192	4
NMTAP	79	240	4
NMTAP	79	288	5
NMTAP	80	0	4
NMTAP	80	0	6
NMTAP	80	96	2
NMTAP	80	144	2
NMTAP	80	192	3
NMTAP	80	240	3
NMTAP	80	288	2
NMTAP	81	0	1
NMTAP	81	0	3
NMTAP	81	96	0
NMTAP	81	144	0
NMTAP	81	192	7
NMTAP	81	240	7
NMTAP	81	288	0
NMTAP	82	0	0
NMTAP	82	0	7
NMTAP	82	96	1
NMTAP	82	192	2
NMTAP	82	288	3
NMTAP	83	0	4
NMTAP	83	96	4
NMTAP	83	96	5
NMTAP	83	192	2
NMTAP	83	192	3
NMTAP	83	288	4
NMTAP	83	288	6
NMTAP	84	0	1
NMTAP	84	0	3
NMTAP	84	96	0
NMTAP	84	96	7
NMTAP	84	144	0
NMTAP	84	144	7
NMTAP	84	192	0
NMTAP	84	192	7
NMTAP	84	240	0
NMTAP	84	240	7
BXTAP	84	288	1
BXTAP	84	288	6
NMTAP	85	96	2
NMTAP	85	192	2
NMTAP	85	192	3
NMTAP	85	288	5
NMTAP	86	0	4
NMTAP	86	0	5
NMTAP	86	96	6
NMTAP	86	192	6
NMTAP	86	192	7
NMTAP	86	288	1
NMTAP	87	0	0
NMTAP	87	0	1
NMTAP	87	96	2
NMTAP	87	192	2
NMTAP	87	192	3
NMTAP	87	288	1
NMTAP	87	288	4
NMTAP	88	0	0
NMTAP	88	0	5
NMTAP	88	96	6
NMTAP	88	96	7
NMTAP	88	192	4
NMTAP	88	192	5
NMTAP	88	288	2
NMTAP	88	288	3
NMTAP	89	0	0
NMTAP	89	0	1
EXHLD	89	96	7	672
NMTAP	89	192	0
NMTAP	89	288	0
NMTAP	90	0	0
NMTAP	90	96	1
NMTAP	90	192	1
NMTAP	90	288	1
NMTAP	91	0	1
EXHLD	91	96	2	672
NMTAP	91	192	3
NMTAP	91	288	3
NMTAP	92	0	3
NMTAP	92	96	4
NMTAP	92	192	4
NMTAP	92	288	4
NMTAP	93	0	4
EXHLD	93	96	5	288
NMTAP	93	192	4
NMTAP	93	288	4
NMTAP	94	0	4
EXHLD	94	96	3	288
NMTAP	94	192	6
NMTAP	94	288	6
NMTAP	95	0	6
EXHLD	95	96	7	288
NMTAP	95	192	0
NMTAP	95	288	0
NMTAP	96	0	0
NMTAP	96	96	7
NMTAP	96	144	7
NMTAP	96	192	1
NMTAP	96	240	1
NMTAP	96	288	0
NMTAP	96	336	0
NMTAP	97	0	1
NMTAP	97	0	7
NMTAP	97	96	0
NMTAP	97	144	0
NMTAP	97	192	6
NMTAP	97	240	6
NMTAP	97	288	7
NMTAP	97	336	7
NMTAP	98	0	0
NMTAP	98	0	6
NMTAP	98	96	5
NMTAP	98	144	5
NMTAP	98	192	6
NMTAP	98	240	6
NMTAP	98	288	7
NMTAP	98	336	7
NMTAP	99	0	0
NMTAP	99	48	0
NMTAP	99	96	1
NMTAP	99	144	1
NMTAP	99	192	2
NMTAP	99	240	2
BXSTR	99	288	3
NMSXR	99	288	3	96	144	3
BXSTR	99	288	4
NMSXL	99	288	4	96	144	4

T_REC_TAP	360
T_REC_BRK	3
T_REC_XTP	12
T_REC_HLD	27
T_REC_XHO	10
T_REC_STR	4
T_REC_BST	2
T_REC_XST	0
T_REC_TTP	38
T_REC_THO	1
T_REC_SLD	6
T_REC_ALL	463
T_NUM_TAP	414
T_NUM_BRK	5
T_NUM_HLD	38
T_NUM_SLD	6
T_NUM_ALL	463
T_JUDGE_TAP	419
T_JUDGE_HLD	192
T_JUDGE_SLD	6
T_JUDGE_ALL	617
TTM_EACHPAIRS	88
TTM_SCR_TAP	207000
TTM_SCR_BRK	13000
TTM_SCR_HLD	38000
TTM_SCR_SLD	9000
TTM_SCR_ALL	267000
TTM_SCR_S	258550
TTM_SCR_SS	266500
TTM_RAT_ACV	10018

