VERSION	0.00.00	1.04.00
FES_MODE	0
BPM_DEF	186.000	186.000	186.000	186.000
MET_DEF	4	4
RESOLUTION	384
CLK_DEF	384
COMPATIBLE_CODE	MA2

BPM	0	0	186.000
MET	0	0	4	4

NMSTR	1	0	3
NMSCL	1	0	3	96	672	5
NMTAP	1	192	4
NMTAP	2	0	5
NMTAP	2	192	4
NMHLD	3	0	3	192
CNSCR	3	0	5	0	576	2
NMHLD	4	0	5	192
NMTAP	5	0	2
NMTAP	5	0	4
NMTAP	5	48	3
NMTAP	5	96	3
NMTAP	5	144	4
NMTAP	5	144	6
NMTAP	5	192	5
NMTAP	5	240	5
NMTAP	5	288	1
NMTAP	5	288	3
NMTAP	5	336	2
NMTAP	6	0	2
NMTAP	6	48	3
NMTAP	6	48	5
NMTAP	6	96	4
NMTAP	6	144	4
NMTAP	6	192	1
NMTAP	6	192	3
NMTAP	6	288	4
NMTAP	6	288	6
NMSTR	7	0	3
NMSUR	7	0	3	96	48	7
NMHLD	7	0	5	96
NMHLD	7	192	2	96
NMSTR	7	192	4
NMSUL	7	192	4	96	48	0
NMTAP	8	0	4
NMTAP	8	0	5
NMTAP	8	96	2
NMTAP	8	96	3
NMTAP	8	192	1
NMTAP	8	192	4
NMTAP	8	256	2
NMTAP	8	256	5
NMTAP	8	320	3
NMTAP	8	320	6
NMTAP	9	0	4
BRSTR	9	0	7
NMSCL	9	0	7	96	672	1
NMTAP	9	192	0
NMTAP	10	0	1
NMTAP	10	192	0
CNSCR	11	0	1	0	672	7
NMHLD	11	0	7	192
NMSTR	12	0	1
NMSUR	12	0	1	96	192	7
NMSTR	13	0	0
NMSI_	13	0	0	96	36	4
NMTAP	13	48	5
NMTAP	13	96	0
NMTAP	13	144	5
NMSTR	13	192	4
NMSI_	13	192	4	96	36	1
NMTAP	13	240	5
NMTAP	13	288	4
NMTAP	13	336	5
NMSTR	14	0	1
NMSI_	14	0	1	96	36	6
NMTAP	14	48	5
NMTAP	14	96	1
NMTAP	14	144	5
NMSTR	14	192	6
NMSI_	14	192	6	96	36	2
NMTAP	14	240	5
NMTAP	14	288	6
NMTAP	14	336	5
NMSTR	15	0	2
NMSCL	15	0	2	96	72	7
NMTTP	15	96	0	B	0	M1
NMTTP	15	96	1	B	0	M1
NMSTR	15	192	5
NMSCR	15	192	5	96	72	0
NMTTP	15	288	6	B	0	M1
NMTTP	15	288	7	B	0	M1
NMSTR	16	0	3
NMSCL	16	0	3	96	72	0
NMTTP	16	96	1	B	0	M1
NMTTP	16	96	2	B	0	M1
NMSTR	16	192	4
NMSCR	16	192	4	96	72	7
NMTTP	16	288	5	B	0	M1
NMTTP	16	288	6	B	0	M1
NMTAP	17	0	1
NMTAP	17	48	0
NMHLD	17	96	7	96
NMTAP	17	144	0
NMHLD	17	192	1	96
NMTAP	17	240	0
NMHLD	17	288	7	96
NMTAP	17	336	0
NMHLD	18	0	1	96
NMTAP	18	48	2
NMHLD	18	96	3	96
NMTAP	18	144	2
NMHLD	18	192	1	96
NMTAP	18	240	2
NMSTR	18	288	3
NMSI_	18	288	3	96	60	7
NMTAP	19	0	0
NMSTR	19	96	2
NMSCL	19	96	2	96	96	5
NMHLD	19	192	7	288
BRTAP	20	0	4
BRTAP	20	96	2
EXTAP	20	192	1
EXTAP	20	192	5
EXTAP	20	240	1
EXTAP	20	240	5
EXTAP	20	288	2
EXTAP	20	288	6
EXTAP	20	336	2
EXTAP	20	336	6
NMSTR	21	0	7
NMSI_	21	0	7	96	36	3
NMTAP	21	48	2
NMTAP	21	96	7
NMTAP	21	144	2
NMSTR	21	192	3
NMSI_	21	192	3	96	36	6
NMTAP	21	240	2
NMTAP	21	288	3
NMTAP	21	336	2
NMSTR	22	0	6
NMSI_	22	0	6	96	36	1
NMTAP	22	48	2
NMTAP	22	96	6
NMTAP	22	144	2
NMSTR	22	192	1
NMSI_	22	192	1	96	36	5
NMTAP	22	240	2
NMTAP	22	288	1
NMTAP	22	336	2
NMHLD	23	0	5	96
NMTAP	23	96	0
NMSTR	23	144	0
NMSI_	23	144	0	96	96	5
NMSTR	23	240	5
NMSCR	23	240	5	96	192	3
NMTAP	23	336	4
NMTAP	24	48	5
NMTAP	24	96	6
NMHLD	24	144	7	144
NMTAP	24	240	0
NMTAP	24	288	0
NMTAP	25	0	6
NMTAP	25	48	7
NMHLD	25	96	0	96
NMTAP	25	144	7
NMHLD	25	192	6	96
NMTAP	25	240	7
NMHLD	25	288	0	96
NMTAP	25	336	7
NMHLD	26	0	6	96
NMTAP	26	48	5
NMHLD	26	96	4	96
NMTAP	26	144	5
NMHLD	26	192	6	96
NMTAP	26	240	5
NMSTR	26	288	4
NMSI_	26	288	4	96	60	0
NMTAP	27	0	7
NMSTR	27	96	5
NMSCR	27	96	5	96	96	2
NMHLD	27	192	0	96
NMTAP	28	0	4
NMTAP	28	0	6
NMTAP	28	48	5
NMTAP	28	96	1
NMTAP	28	96	3
NMTAP	28	144	2
NMTAP	28	192	4
NMTAP	28	192	7
NMTAP	28	240	5
NMTAP	28	288	0
NMTAP	28	288	3
NMTAP	28	336	2
BRHLD	29	0	4	1440
NMSTR	29	96	3
NMSCR	29	96	3	96	216	2
CNSV_	30	24	2	0	72	7
NMTAP	30	192	6
NMTAP	30	288	6
NMTAP	31	0	5
NMSTR	31	48	5
NMSCL	31	48	5	96	216	6
CNSSL	31	360	6	0	120	2
NMTAP	32	192	3
NMTAP	32	240	3
NMHLD	32	288	3	1344
NMTAP	33	0	4
NMSTR	33	48	4
NMSCL	33	48	4	96	216	5
CNSLL	33	360	5	0	120	0
NMTAP	34	192	1
NMTAP	34	288	1
NMTAP	35	0	2
NMSTR	35	48	2
NMSCR	35	48	2	96	192	1
CNSUR	35	336	1	0	144	4
NMTAP	36	192	2
NMTAP	36	192	5
NMTAP	36	240	2
NMTAP	36	240	5
NMTAP	36	288	2
NMTAP	36	288	5
NMTAP	37	0	7
NMTAP	37	48	6
NMTAP	37	96	0
NMTAP	37	96	5
NMTAP	37	144	4
NMTAP	37	192	1
NMTAP	37	192	3
NMTAP	37	240	2
NMSTR	37	288	0
NMSUR	37	288	0	96	96	1
NMTAP	37	288	1
NMTAP	37	336	7
NMHLD	38	0	6	96
BRTAP	38	192	7
BRTAP	38	216	0
BRTAP	38	240	7
BRTAP	38	264	0
BXTAP	38	288	1
BXTAP	38	288	6
NMTAP	39	0	0
NMTAP	39	48	1
NMTAP	39	96	2
NMTAP	39	96	7
NMTAP	39	144	3
NMTAP	39	192	4
NMTAP	39	192	6
NMTAP	39	240	5
NMTAP	39	288	6
NMSTR	39	288	7
NMSUL	39	288	7	96	96	6
NMTAP	39	336	0
NMHLD	40	0	1	96
BRTAP	40	192	0
BRTAP	40	224	0
BRTAP	40	256	0
BRTAP	40	288	7
BRTAP	40	320	7
BRTAP	40	352	7
NMTAP	41	0	1
NMTAP	41	48	2
NMTAP	41	96	3
NMTAP	41	96	7
NMTAP	41	144	6
NMTAP	41	192	0
NMTAP	41	192	5
NMTAP	41	240	1
NMTAP	41	288	2
NMTAP	41	288	4
NMTAP	41	336	3
NMTAP	42	0	4
NMTAP	42	0	5
NMHLD	42	48	4	96
NMTAP	42	48	5
NMHLD	42	144	3	96
NMHLD	42	240	2	96
NMSTR	42	336	1
NMSCL	42	336	1	96	192	4
NMTAP	43	48	3
NMTAP	43	96	3
NMTAP	43	144	3
NMTAP	43	192	3
NMTAP	43	240	3
EXTAP	43	336	1
EXTAP	43	336	5
NMTTP	44	96	3	E	0	M1
NMTTP	44	96	5	E	0	M1
NMTHO	44	192	0	48	C	0	M1
NMTTP	44	192	2	B	0	M1
NMTTP	44	192	3	B	0	M1
NMTTP	44	192	4	B	0	M1
NMTTP	44	192	5	B	0	M1
NMTAP	45	0	6
NMTAP	45	0	7
NMSTR	45	48	6
NMSI_	45	48	6	96	72	0
NMHLD	45	48	7	432
CNSI_	45	216	0	0	72	5
CNSI_	45	288	5	0	72	1
CNSI_	45	360	1	0	72	4
CNSI_	46	48	4	0	48	2
NMTAP	46	192	4
NMTAP	46	192	7
NMTAP	46	288	0
NMTAP	46	288	3
NMTAP	47	0	0
NMTAP	47	0	1
NMHLD	47	48	0	432
NMSTR	47	48	1
NMSI_	47	48	1	96	72	7
CNSI_	47	216	7	0	72	2
CNSI_	47	288	2	0	72	6
CNSI_	47	360	6	0	72	3
CNSI_	48	48	3	0	48	5
NMTAP	48	192	0
NMTAP	48	192	3
NMTAP	48	288	4
NMTAP	48	288	7
NMTAP	49	0	3
NMTAP	49	0	4
NMTAP	49	48	5
NMTAP	49	96	3
NMTAP	49	96	4
NMTAP	49	144	2
NMTAP	49	192	3
NMTAP	49	192	4
NMTAP	49	240	6
NMTAP	49	288	3
NMTAP	49	288	4
NMTAP	49	336	1
NMTAP	50	0	3
NMTAP	50	0	4
NMTAP	50	48	7
NMTAP	50	96	3
NMTAP	50	96	4
NMTAP	50	144	0
NMSTR	50	192	3
NMSCL	50	192	3	96	48	0
NMSTR	50	192	4
NMSCR	50	192	4	96	48	7
NMTTP	51	0	0	E	0	M1
NMTTP	51	6	0	B	0	M1
NMTTP	51	6	7	B	0	M1
NMTTP	51	12	0	C	1	M1
NMTTP	51	18	3	B	0	M1
NMTTP	51	18	4	B	0	M1
NMTTP	51	24	4	E	0	M1
NMTTP	51	30	4	D	0	M1
NMHLD	52	0	4	144
NMTAP	52	144	2
NMTAP	52	240	3
NMTAP	52	240	5
NMSTR	52	288	3
NMSXL	52	288	3	96	240	6
NMTAP	52	288	5
BRTAP	53	0	1
BRTAP	53	0	3
NMTAP	53	96	0
NMTAP	53	192	7
NMSTR	53	240	7
NMSI_	53	240	7	96	36	3
NMSTR	53	336	4
NMSCR	53	336	4	96	144	1
BRTAP	53	336	7
NMTTP	54	48	4	E	0	M1
NMTTP	54	72	5	E	0	M1
NMTTP	54	96	6	E	0	M1
NMTTP	54	120	7	E	0	M1
NMTTP	54	144	0	E	0	M1
NMTTP	54	168	1	E	0	M1
NMTTP	54	192	2	E	0	M1
NMTAP	54	288	2
NMTAP	54	288	3
NMTAP	55	0	0
NMTAP	55	0	5
NMTAP	55	48	6
NMTAP	55	72	7
NMTAP	55	96	6
NMSTR	55	144	5
NMSI_	55	144	5	96	36	2
NMSTR	55	240	0
NMSI_	55	240	0	96	36	4
NMTAP	55	240	5
NMTAP	55	336	0
NMSTR	55	336	6
NMSCR	55	336	6	96	48	1
BRTAP	56	48	3
BRTAP	56	48	6
NMTAP	56	192	2
NMTAP	56	288	3
NMTAP	56	288	4
NMHLD	57	0	5	48
NMTTP	57	48	4	B	0	M1
NMTTP	57	48	4	E	0	M1
NMHLD	57	96	6	48
NMTTP	57	144	0	C	0	M1
NMTTP	57	144	3	B	0	M1
NMHLD	57	192	7	48
NMTTP	57	240	2	B	0	M1
NMTTP	57	240	3	E	0	M1
NMTAP	57	288	0
EXSTR	57	336	0
NMSXR	57	336	0	96	144	4
EXTAP	57	336	1
NMTAP	58	192	2
NMTAP	58	288	4
NMTAP	58	288	5
NMHLD	59	0	2	48
NMTTP	59	48	3	B	0	M1
NMTTP	59	48	4	E	0	M1
NMHLD	59	96	1	48
NMTTP	59	144	0	C	0	M1
NMTTP	59	144	4	B	0	M1
NMHLD	59	192	0	48
NMTTP	59	240	5	B	0	M1
NMTTP	59	240	5	E	0	M1
NMTAP	59	288	7
EXTAP	59	336	6
EXSTR	59	336	7
NMSUL	59	336	7	96	108	0
NMTAP	60	144	3
NMTAP	60	240	2
NMTAP	60	240	4
NMTAP	60	288	2
NMSTR	60	288	4
NMSXR	60	288	4	96	240	1
BRTAP	61	0	4
BRTAP	61	0	6
NMTAP	61	96	7
NMTAP	61	192	0
NMSTR	61	240	0
NMSI_	61	240	0	96	36	4
BRTAP	61	336	0
NMSTR	61	336	3
NMSCL	61	336	3	96	144	6
NMTTP	62	48	4	E	0	M1
NMTTP	62	72	3	E	0	M1
NMTTP	62	96	2	E	0	M1
NMTTP	62	120	1	E	0	M1
NMTTP	62	144	0	E	0	M1
NMTTP	62	168	7	E	0	M1
NMTTP	62	192	6	E	0	M1
NMTAP	62	288	4
NMTAP	62	288	5
NMTAP	63	0	2
NMTAP	63	0	7
NMTAP	63	48	1
NMTAP	63	72	0
NMTAP	63	96	1
NMSTR	63	144	2
NMSI_	63	144	2	96	36	5
NMTAP	63	240	2
NMSTR	63	240	7
NMSI_	63	240	7	96	36	3
NMSTR	63	336	1
NMSCL	63	336	1	96	48	6
NMTAP	63	336	7
BRTAP	64	48	1
BRTAP	64	48	4
NMHLD	64	192	5	96
NMHLD	64	288	4	96
NMSTR	65	0	5
NMSCR	65	0	5	96	96	0
NMSTR	65	96	0
NMSCR	65	96	0	96	96	3
NMTAP	65	192	4
NMSTR	65	240	4
NMSCR	65	240	4	96	144	0
NMSUL	65	240	4	96	144	1
EXTAP	65	336	4
NMTAP	66	192	1
NMTAP	66	192	7
NMTAP	66	240	2
NMTAP	66	240	6
NMTAP	66	288	3
NMTAP	66	288	5
NMSTR	67	0	2
NMSI_	67	0	2	96	48	7
NMTAP	67	0	4
NMTAP	67	96	3
NMSTR	67	144	3
NMSCR	67	144	3	96	48	6
NMTAP	67	240	0
NMTAP	67	288	1
NMTAP	67	336	2
NMTAP	68	0	3
NMTAP	68	24	7
NMTAP	68	48	3
NMTAP	68	72	7
NMSTR	68	96	3
NMSI_	68	96	3	96	48	0
NMSI_	68	96	3	96	48	1
BRSTR	68	192	3
NMSI_	68	192	3	96	48	5
NMSI_	68	192	3	96	48	6
BRSTR	68	288	3
BRSF_	68	288	3	96	48	7
BRSTR	69	0	3
NMSCL	69	0	3	96	384	4
NMTHO	70	0	0	96	C	1	M1
NMTAP	71	0	0
NMTAP	71	24	1
NMTAP	71	48	2
NMTAP	71	72	3
NMTAP	71	96	0
NMTAP	71	120	7
NMTAP	71	144	6
NMTAP	71	168	5
NMTAP	71	192	3
NMTAP	71	216	2
NMTAP	71	240	1
NMTAP	71	264	0
NMTAP	71	288	6
NMTAP	71	312	5
NMTAP	71	336	4
NMTAP	71	360	3
NMTAP	72	0	0
NMTAP	72	24	1
NMTAP	72	48	2
NMTAP	72	72	3
NMTAP	72	96	7
NMTAP	72	120	6
NMTAP	72	144	5
NMTAP	72	168	4
NMTAP	72	192	3
NMTAP	72	216	2
NMTAP	72	240	1
NMTAP	72	264	0
NMTAP	72	288	3
NMTAP	72	288	7
NMTAP	73	0	5
NMTAP	73	24	3
NMTAP	73	48	4
NMTAP	73	72	3
NMTAP	73	96	4
NMTAP	73	120	3
NMTAP	73	144	4
NMTAP	73	168	3
NMTAP	73	192	5
NMTAP	73	216	2
NMTAP	73	240	3
NMTAP	73	264	2
NMTAP	73	288	3
NMTAP	73	312	2
NMTAP	73	336	3
NMTAP	73	360	2
NMTAP	74	0	4
NMTAP	74	24	5
NMTAP	74	48	6
NMTAP	74	72	7
NMTAP	74	96	1
NMTAP	74	120	2
NMTAP	74	144	3
NMTAP	74	168	4
NMTTP	74	192	1	E	0	M1
NMTTP	74	216	0	E	0	M1
NMTTP	74	240	7	E	0	M1
NMTTP	74	264	6	E	0	M1
NMTTP	74	288	5	E	0	M1
EXTAP	75	0	2
EXTAP	75	32	3
EXTAP	75	64	1
EXTAP	75	96	4
EXTAP	75	128	3
EXTAP	75	160	5
NMTAP	75	192	3
NMTAP	75	216	2
NMTAP	75	240	1
NMTAP	75	264	0
NMTAP	75	288	6
NMTAP	75	288	7
EXTAP	76	0	5
EXTAP	76	32	4
EXTAP	76	64	6
EXTAP	76	96	3
EXTAP	76	128	4
EXTAP	76	160	2
NMTAP	76	192	4
NMTAP	76	216	5
NMTAP	76	240	6
NMTAP	76	264	7
NMTAP	76	288	0
NMTAP	76	288	1
EXTAP	77	0	6
EXTAP	77	32	7
EXTAP	77	64	5
EXTAP	77	96	0
EXTAP	77	128	7
EXTAP	77	160	1
NMTAP	77	192	7
NMTAP	77	216	6
NMTAP	77	240	5
NMTAP	77	264	4
NMTAP	77	288	2
NMTAP	77	288	3
EXTAP	78	0	1
EXTAP	78	32	0
EXTAP	78	64	2
EXTAP	78	96	7
EXTAP	78	128	0
EXTAP	78	160	6
NMTAP	78	192	0
NMTAP	78	216	1
NMTAP	78	240	2
NMTAP	78	264	3
NMTAP	78	288	4
NMTAP	78	288	5
NMTTP	79	0	1	B	0	M1
NMTTP	79	16	2	B	0	M1
NMTTP	79	32	3	B	0	M1
NMTTP	79	48	7	B	0	M1
NMTTP	79	64	6	B	0	M1
NMTTP	79	80	5	B	0	M1
NMTTP	79	96	2	E	0	M1
NMTTP	79	112	3	E	0	M1
NMTTP	79	128	4	E	0	M1
NMTTP	79	144	0	E	0	M1
NMTTP	79	160	7	E	0	M1
NMTTP	79	176	6	E	0	M1
NMTTP	79	192	2	D	0	M1
NMTTP	79	208	3	D	0	M1
NMTTP	79	224	4	D	0	M1
NMTTP	79	240	0	D	0	M1
NMTTP	79	256	7	D	0	M1
NMTTP	79	272	6	D	0	M1
NMTTP	79	288	0	C	0	M1
NMTTP	80	0	6	B	0	M1
NMTTP	80	16	5	B	0	M1
NMTTP	80	32	4	B	0	M1
NMTTP	80	48	0	B	0	M1
NMTTP	80	64	1	B	0	M1
NMTTP	80	80	2	B	0	M1
NMTTP	80	96	6	E	0	M1
NMTTP	80	112	5	E	0	M1
NMTTP	80	128	4	E	0	M1
NMTTP	80	144	0	E	0	M1
NMTTP	80	160	1	E	0	M1
NMTTP	80	176	2	E	0	M1
NMTTP	80	192	6	D	0	M1
NMTTP	80	208	5	D	0	M1
NMTTP	80	224	4	D	0	M1
NMTTP	80	240	0	D	0	M1
NMTTP	80	256	1	D	0	M1
NMTTP	80	272	2	D	0	M1
NMTTP	80	288	0	C	0	M1
NMTTP	81	0	0	B	0	M1
NMTTP	81	12	1	B	0	M1
NMTTP	81	24	2	B	0	M1
NMTTP	81	36	3	B	0	M1
NMTTP	81	48	4	B	0	M1
NMTTP	81	60	5	B	0	M1
NMTTP	81	72	6	B	0	M1
NMTTP	81	84	7	B	0	M1
NMTTP	81	96	0	E	0	M1
NMTTP	81	108	1	E	0	M1
NMTTP	81	120	2	E	0	M1
NMTTP	81	132	3	E	0	M1
NMTTP	81	144	4	E	0	M1
NMTTP	81	156	5	E	0	M1
NMTTP	81	168	6	E	0	M1
NMTTP	81	180	7	E	0	M1
NMTTP	81	192	0	D	0	M1
NMTTP	81	204	1	D	0	M1
NMTTP	81	216	2	D	0	M1
NMTTP	81	228	3	D	0	M1
NMTTP	81	240	4	D	0	M1
NMTTP	81	252	5	D	0	M1
NMTTP	81	264	6	D	0	M1
NMTTP	81	276	7	D	0	M1
NMTTP	81	288	0	C	0	M1
NMTTP	81	288	0	D	0	M1
EXTAP	82	0	1
EXTAP	82	0	6
EXTAP	82	72	0
EXTAP	82	72	2
EXTAP	82	144	5
EXTAP	82	144	7
EXTAP	82	216	0
EXTAP	82	216	7
NMTAP	82	288	2
NMTAP	82	288	3
NMTAP	82	336	4
NMTAP	82	336	5
NMHLD	83	0	6	32
NMHLD	83	32	4	32
NMHLD	83	64	7	32
NMHLD	83	96	3	32
NMHLD	83	128	0	32
NMHLD	83	160	2	32
NMSTR	83	192	1
NMSI_	83	192	1	96	36	5
BRTAP	83	288	1
NMTAP	84	0	2
NMTAP	84	0	6
NMHLD	84	48	2	192
NMHLD	84	48	6	288
NMHLD	84	336	4	240
NMTAP	85	48	0
NMHLD	85	96	0	192
NMTAP	86	0	1
NMTAP	86	0	5
NMHLD	86	48	1	288
NMHLD	86	48	5	192
NMHLD	86	336	3	144
NMTAP	87	48	7
NMTAP	87	96	7
NMSTR	87	192	3
NMSI_	87	192	3	96	36	5
NMSTR	87	192	7
NMSI_	87	192	7	96	36	1
NMTAP	88	0	2
NMTAP	88	0	6
NMTAP	88	96	7
NMHLD	88	144	7	96
NMTAP	88	192	5
NMHLD	88	240	5	96
NMTAP	88	288	4
NMHLD	88	336	4	96
NMTAP	89	48	7
NMTAP	89	72	0
NMTAP	89	96	1
NMTAP	89	120	2
NMTAP	89	144	3
NMTAP	89	168	4
NMTAP	89	192	7
NMTAP	89	216	6
NMTAP	89	240	5
NMTAP	89	264	4
NMTAP	89	288	0
NMTAP	89	288	3
NMTAP	90	0	1
NMTAP	90	0	5
NMTAP	90	96	0
NMHLD	90	144	0	96
NMTAP	90	192	2
NMHLD	90	240	2	96
NMTAP	90	288	3
NMHLD	90	336	3	96
NMTAP	91	48	0
NMTAP	91	72	7
NMTAP	91	96	6
NMTAP	91	120	5
NMTAP	91	144	4
NMTAP	91	168	3
NMTAP	91	192	0
NMTAP	91	216	1
NMTAP	91	240	2
NMTAP	91	264	3
NMSTR	91	288	4
NMSXR	91	288	4	96	240	1
NMTAP	91	288	7
BRTAP	92	0	4
BRTAP	92	0	6
NMTAP	92	96	7
NMTAP	92	192	0
NMSTR	92	240	0
BRSI_	92	240	0	96	36	4
BRTAP	92	336	0
NMSTR	92	336	3
NMSCL	92	336	3	96	144	4
NMTTP	93	48	3	E	0	M1
NMTTP	93	72	2	E	0	M1
NMTTP	93	96	1	E	0	M1
NMTTP	93	120	0	E	0	M1
NMTTP	93	144	7	E	0	M1
NMTTP	93	168	6	E	0	M1
NMTTP	93	192	5	E	0	M1
NMTAP	93	288	1
NMTAP	93	288	6
NMTAP	94	0	0
NMTAP	94	0	5
NMTAP	94	48	6
NMTAP	94	72	7
NMTAP	94	96	6
NMSTR	94	144	5
NMSI_	94	144	5	96	36	2
NMSTR	94	240	0
NMSI_	94	240	0	96	36	4
NMTAP	94	240	5
NMTAP	94	336	0
NMSTR	94	336	6
NMSCR	94	336	6	96	48	1
BRTAP	95	48	3
BRTAP	95	48	6
NMHLD	95	192	2	96
NMHLD	95	288	3	96
NMSTR	96	0	2
NMSCL	96	0	2	96	96	7
NMSTR	96	96	7
NMSCL	96	96	7	96	96	4
NMTAP	96	192	3
NMSTR	96	240	3
NMSCL	96	240	3	96	144	7
NMSUR	96	240	3	96	144	6
EXTAP	96	336	3
NMHLD	97	192	7	96
NMHLD	97	288	6	96
NMSTR	98	0	5
NMSCL	98	0	5	96	48	2
NMTAP	98	192	0
NMTAP	98	288	1
NMTAP	98	288	3
NMTAP	98	336	1
NMTAP	98	336	3
NMTAP	99	48	4
NMTAP	99	48	6
NMSTR	99	96	4
NMSXR	99	96	4	96	96	3
NMTAP	99	96	6
BRTAP	99	288	7
NMSTR	100	0	6
NMSI_	100	0	6	96	36	4
NMTAP	100	48	6
NMSTR	100	96	2
NMSI_	100	96	2	96	36	0
NMTAP	100	144	2
NMSTR	100	192	3
NMSI_	100	192	3	96	36	7
NMTAP	100	240	3
NMSTR	100	288	1
NMSI_	100	288	1	96	36	5
NMTAP	100	336	1
NMSTR	101	0	6
NMSI_	101	0	6	96	36	0
NMTAP	101	48	6
NMSTR	101	96	4
NMSI_	101	96	4	96	36	2
NMTAP	101	144	4
NMSTR	101	192	7
NMSI_	101	192	7	96	36	3
NMSI_	101	192	7	96	36	5
EXTAP	101	288	7
NMSTR	102	0	1
NMSI_	102	0	1	96	36	3
NMTAP	102	48	1
NMSTR	102	96	5
NMSI_	102	96	5	96	36	7
NMTAP	102	144	5
NMSTR	102	192	4
NMSI_	102	192	4	96	36	0
NMTAP	102	240	4
NMSTR	102	288	6
NMSI_	102	288	6	96	36	2
NMTAP	102	336	6
NMSTR	103	0	1
NMSI_	103	0	1	96	36	7
NMTAP	103	48	1
NMSTR	103	96	3
NMSI_	103	96	3	96	36	5
NMTAP	103	144	3
NMSTR	103	192	0
NMSI_	103	192	0	96	36	2
NMSI_	103	192	0	96	36	4
EXTAP	103	288	0
BRTAP	104	0	0
BRTAP	104	0	7
NMTAP	104	96	5
NMTTP	104	192	1	B	0	M1
NMTTP	104	192	2	B	0	M1
NMTTP	104	192	2	E	0	M1
EXTAP	104	192	4
NMTAP	104	288	5
NMTAP	105	0	0
NMTAP	105	0	7
NMTAP	105	96	2
EXTAP	105	192	3
NMTTP	105	192	5	B	0	M1
NMTTP	105	192	6	B	0	M1
NMTTP	105	192	6	E	0	M1
NMTAP	105	288	2
NMTAP	106	0	0
NMTAP	106	0	7
NMTAP	106	96	4
NMTAP	106	96	6
NMTTP	106	192	0	C	0	M1
NMTTP	106	192	2	B	0	M1
NMTTP	106	192	3	B	0	M1
EXTAP	106	192	5
NMTAP	106	288	4
NMTAP	106	288	6
NMTAP	107	0	0
NMTAP	107	0	7
NMTAP	107	96	1
NMTAP	107	96	3
NMTTP	107	192	0	C	0	M1
EXTAP	107	192	2
NMTTP	107	192	4	B	0	M1
NMTTP	107	192	5	B	0	M1
NMTAP	107	288	1
NMTAP	107	288	3
BXSTR	108	0	0
NMSI_	108	0	0	96	36	4
NMTAP	108	0	7
NMTAP	108	96	0
BXSTR	108	96	6
NMSCL	108	96	6	96	36	3
BXSTR	108	192	2
NMSI_	108	192	2	96	36	7
NMTAP	108	192	6
NMTAP	108	288	2
BXSTR	108	288	4
NMSI_	108	288	4	96	36	0
BXSTR	109	0	2
NMSCL	109	0	2	96	36	7
NMTAP	109	0	4
NMTAP	109	96	2
BXSTR	109	96	5
NMSI_	109	96	5	96	36	1
BXSTR	109	192	0
NMSI_	109	192	0	96	36	4
NMTAP	109	192	5
NMTAP	109	288	0
BXSTR	109	288	6
NMSI_	109	288	6	96	36	3
NMHLD	110	0	2	96
BXTAP	110	0	6
NMTAP	110	96	3
NMTAP	110	120	1
NMTAP	110	144	3
NMTAP	110	168	1
NMTAP	110	192	4
NMTAP	110	216	0
NMTAP	110	240	4
NMTAP	110	264	0
NMTAP	110	288	5
NMTAP	110	312	7
NMTAP	110	336	5
NMTAP	110	360	7
BRSTR	111	0	6
NMSV_	111	0	6	96	48	3
BRSTR	111	96	2
NMSV_	111	96	2	96	48	7
NMTAP	111	192	4
NMHLD	111	240	4	96
NMTHO	111	336	0	96	C	1	M1
NMTTP	112	48	1	B	0	M1
NMTTP	112	48	2	B	0	M1
NMTTP	112	48	3	B	0	M1
NMTTP	112	48	4	B	0	M1
NMTTP	112	48	5	B	0	M1
NMTTP	112	48	6	B	0	M1
NMTTP	112	48	7	B	0	M1
NMSTR	113	0	0
NMSI_	113	0	0	96	48	4
NMTAP	113	48	1
NMTAP	113	96	2
NMSTR	113	144	3
NMSI_	113	144	3	96	48	7
NMTAP	113	192	4
NMTAP	113	240	5
NMSTR	113	288	6
NMSI_	113	288	6	96	48	2
NMTAP	113	336	7
NMTAP	114	0	0
NMSTR	114	48	1
NMSI_	114	48	1	96	48	5
NMTAP	114	96	2
NMTAP	114	144	3
NMTAP	114	192	4
NMTTP	114	288	0	E	0	M1
NMTTP	114	288	0	D	0	M1
NMTTP	114	288	1	E	0	M1
NMTTP	114	288	1	D	0	M1
NMTTP	114	288	2	E	0	M1
NMTTP	114	288	2	D	0	M1
NMSTR	115	0	7
NMSI_	115	0	7	96	48	3
NMTAP	115	48	6
NMTAP	115	96	5
NMSTR	115	144	4
NMSI_	115	144	4	96	48	0
NMTAP	115	192	3
NMTAP	115	240	2
NMSTR	115	288	1
NMSI_	115	288	1	96	48	5
NMTAP	115	336	0
NMTAP	116	0	7
NMSTR	116	48	6
NMSI_	116	48	6	96	48	2
NMTAP	116	96	5
NMTAP	116	144	4
NMTAP	116	192	3
NMTTP	116	288	0	E	0	M1
NMTTP	116	288	0	D	0	M1
NMTTP	116	288	6	E	0	M1
NMTTP	116	288	6	D	0	M1
NMTTP	116	288	7	E	0	M1
NMTTP	116	288	7	D	0	M1
BRTAP	117	0	0
BRTAP	117	0	1
NMTAP	117	48	2
NMTAP	117	72	3
NMTAP	117	96	2
EXTAP	117	144	1
EXTAP	117	144	4
NMTAP	117	192	5
NMTAP	117	216	4
NMTAP	117	240	5
EXTAP	117	288	3
EXTAP	117	288	6
NMTAP	117	336	6
NMTAP	117	360	7
NMTAP	118	0	6
EXTAP	118	48	0
EXTAP	118	48	5
NMTAP	118	96	1
NMTAP	118	120	0
NMTAP	118	144	1
NMTAP	118	192	2
NMTAP	118	192	7
NMTAP	118	240	6
NMTAP	118	288	0
NMTAP	118	288	5
NMTAP	118	336	1
BRTAP	119	0	2
NMTAP	119	24	4
NMTAP	119	48	2
NMTAP	119	72	4
NMTAP	119	96	2
NMTAP	119	120	4
EXTAP	119	144	3
NMTAP	119	168	6
NMTAP	119	192	3
NMTAP	119	216	6
NMTAP	119	240	3
NMTAP	119	264	6
EXTAP	119	288	1
NMTAP	119	312	0
NMTAP	119	336	1
NMTAP	119	360	0
NMTAP	120	0	1
NMTAP	120	24	0
EXTAP	120	48	3
NMTAP	120	72	7
NMTAP	120	96	3
NMTAP	120	120	7
NMTAP	120	144	3
NMTAP	120	168	7
BRTAP	120	192	0
BRTAP	120	192	4
BRTAP	120	256	2
BRTAP	120	256	6
BRTAP	120	320	0
BRTAP	120	320	4
NMTTP	121	0	1	B	0	M1
NMTTP	121	16	2	B	0	M1
NMTTP	121	32	3	B	0	M1
NMTTP	121	48	6	B	0	M1
NMTTP	121	64	5	B	0	M1
NMTTP	121	80	4	B	0	M1
NMTTP	121	96	1	E	0	M1
NMTTP	121	112	2	E	0	M1
NMTTP	121	128	3	E	0	M1
NMTTP	121	144	7	E	0	M1
NMTTP	121	160	6	E	0	M1
NMTTP	121	176	5	E	0	M1
NMTTP	121	192	1	D	0	M1
NMTTP	121	208	2	D	0	M1
NMTTP	121	224	3	D	0	M1
NMTTP	121	240	7	D	0	M1
NMTTP	121	256	6	D	0	M1
NMTTP	121	272	5	D	0	M1
EXTAP	121	288	0
EXTAP	121	300	1
EXTAP	121	312	2
EXTAP	121	324	3
EXTAP	121	336	4
EXTAP	121	348	5
EXTAP	121	360	6
EXTAP	121	372	7
BXSTR	122	0	0
NMSCR	122	0	0	96	288	3
BXSTR	122	0	4
NMSCR	122	0	4	96	288	7
CNSV_	123	0	3	0	240	6
CNSV_	123	0	7	0	240	2
NMSTR	124	0	3
NMSCL	124	0	3	96	360	0
NMSTR	124	0	7
NMSCL	124	0	7	96	360	4
CNSV_	125	72	0	0	312	6
CNSV_	125	72	4	0	312	2

T_REC_TAP	484
T_REC_BRK	40
T_REC_XTP	69
T_REC_BXX	3
T_REC_HLD	63
T_REC_XHO	0
T_REC_BHO	1
T_REC_BXH	0
T_REC_STR	89
T_REC_BST	6
T_REC_XST	2
T_REC_XBS	10
T_REC_TTP	173
T_REC_THO	3
T_REC_SLD	111
T_REC_BSL	2
T_REC_ALL	1056
T_NUM_TAP	817
T_NUM_BRK	62
T_NUM_HLD	66
T_NUM_SLD	111
T_NUM_ALL	1056
T_JUDGE_TAP	876
T_JUDGE_HLD	219
T_JUDGE_SLD	113
T_JUDGE_ALL	1208
TTM_EACHPAIRS	138
TTM_SCR_TAP	408500
TTM_SCR_BRK	161200
TTM_SCR_HLD	66000
TTM_SCR_SLD	166500
TTM_SCR_ALL	802200
TTM_SCR_S	772150
TTM_SCR_SS	796000
TTM_RAT_ACV	10077

