VERSION	0.00.00	1.04.00
FES_MODE	0
BPM_DEF	186.000	186.000	186.000	186.000
MET_DEF	4	4
RESOLUTION	384
CLK_DEF	384
COMPATIBLE_CODE	MA2

BPM	0	0	186.000
MET	0	0	4	4

NMHLD	1	0	3	384
NMTAP	1	192	4
NMHLD	2	0	4	384
NMTAP	2	192	3
NMHLD	3	0	2	192
NMHLD	3	192	3	192
NMHLD	4	0	4	192
NMTAP	4	192	5
EXTAP	5	0	4
EXTAP	5	0	6
EXTAP	5	144	1
EXTAP	5	144	3
EXTAP	5	288	6
EXTAP	5	288	7
EXTAP	6	48	0
EXTAP	6	48	1
EXTAP	6	192	2
EXTAP	6	192	7
NMHLD	7	0	0	96
NMHLD	7	0	6	96
NMHLD	7	192	1	96
NMHLD	7	192	7	96
NMHLD	8	0	2	96
NMHLD	8	0	6	96
EXTAP	8	192	3
EXTAP	8	264	3
EXTAP	8	336	2
EXTAP	8	336	4
BXSTR	9	0	2
NMSCL	9	0	2	96	672	4
BXTAP	9	0	4
NMTAP	12	0	4
NMTAP	12	192	3
NMTAP	12	192	4
NMTAP	13	0	2
NMHLD	13	96	1	480
NMTAP	13	192	3
NMTAP	13	288	3
NMTAP	14	0	4
NMTAP	14	96	3
NMTAP	14	192	2
NMTAP	14	288	2
NMTAP	15	0	1
NMHLD	15	0	3	288
NMTAP	15	96	1
NMTAP	15	192	2
NMTAP	15	288	2
NMSTR	16	0	3
NMSCL	16	0	3	96	96	0
NMTAP	16	0	4
NMTAP	16	192	7
NMTAP	16	288	7
NMHLD	17	0	1	576
NMTAP	17	96	0
NMTAP	17	192	0
NMTAP	17	288	2
NMTAP	18	0	0
NMTAP	18	96	0
NMTAP	18	192	0
NMTAP	18	288	0
NMTAP	18	288	1
NMTAP	19	0	2
NMTAP	19	96	2
NMTAP	19	96	3
NMTAP	19	192	5
NMTAP	19	288	4
NMTAP	19	288	5
BRTAP	20	0	3
BRTAP	20	0	6
BRTAP	20	96	3
BRTAP	20	96	6
BRTAP	20	192	2
BRTAP	20	192	7
NMTAP	21	0	5
NMTAP	21	48	5
NMTAP	21	96	4
NMTAP	21	192	3
NMTAP	21	192	6
NMTAP	21	288	3
NMTAP	21	288	6
NMTAP	22	0	4
NMTAP	22	0	5
NMTAP	22	96	6
NMTAP	22	144	6
NMTAP	22	192	7
NMTAP	22	288	0
NMTAP	22	288	5
NMTAP	23	0	0
NMTAP	23	0	5
NMTAP	23	96	6
NMTAP	23	96	7
NMTAP	23	192	6
NMTAP	23	192	7
NMTAP	23	288	0
NMTAP	23	288	5
NMTAP	24	0	6
NMTAP	24	48	6
NMTAP	24	96	7
EXTAP	24	192	0
EXTAP	24	192	5
EXTAP	24	288	6
EXTAP	24	288	7
NMHLD	25	0	5	96
NMHLD	25	96	4	96
NMTAP	25	192	5
NMTAP	25	288	3
NMTAP	25	288	4
NMHLD	26	0	1	96
NMHLD	26	96	3	96
NMTAP	26	192	2
NMTAP	26	288	4
NMSTR	26	288	5
NMSCR	26	288	5	96	240	2
NMTAP	28	0	3
NMTAP	28	96	4
NMTAP	28	192	2
NMTAP	28	192	5
NMTAP	28	240	2
NMTAP	28	240	5
BRTAP	29	0	1
BRTAP	29	0	6
NMTTP	29	192	4	B	0	M1
NMTTP	29	192	5	B	0	M1
NMTTP	29	192	5	E	0	M1
NMTTP	30	0	0	B	0	M1
NMTTP	30	0	1	B	0	M1
NMTTP	30	0	1	E	0	M1
NMTTP	30	192	3	E	0	M1
NMTTP	30	288	4	E	0	M1
NMTTP	31	0	5	E	0	M1
NMTTP	31	192	0	B	0	M1
NMTTP	31	192	6	A	0	M1
NMTTP	31	192	7	B	0	M1
NMTTP	31	192	7	E	0	M1
NMTTP	32	0	2	A	0	M1
NMTTP	32	0	3	B	0	M1
NMTTP	32	0	3	E	0	M1
NMTTP	32	0	4	B	0	M1
NMTTP	32	192	0	C	0	M1
NMTTP	33	0	0	E	0	M1
NMTTP	33	0	0	D	0	M1
NMTTP	33	0	7	B	0	M1
NMTTP	33	0	7	E	0	M1
NMTTP	33	0	7	D	0	M1
NMTTP	33	192	1	B	0	M1
NMTTP	33	192	1	E	0	M1
NMTTP	33	192	1	D	0	M1
NMTTP	33	192	2	E	0	M1
NMTTP	33	192	2	D	0	M1
NMTTP	34	0	5	B	0	M1
NMTTP	34	0	5	E	0	M1
NMTTP	34	0	5	D	0	M1
NMTTP	34	0	6	E	0	M1
NMTTP	34	0	6	D	0	M1
NMTTP	34	192	0	C	0	M1
NMSTR	35	0	0
NMSI_	35	0	0	96	96	4
NMSTR	35	0	7
NMSI_	35	0	7	96	96	3
NMTAP	36	0	3
NMTAP	36	0	4
NMTAP	36	96	3
NMTAP	36	96	4
BRTAP	36	192	2
BRTAP	36	192	5
NMSTR	37	0	6
NMSCL	37	0	6	96	96	3
NMTAP	37	192	2
NMTAP	37	288	2
NMSTR	38	0	1
NMSCR	38	0	1	96	96	4
NMTAP	38	192	7
NMSTR	39	0	6
NMSUL	39	0	6	96	96	2
NMTAP	39	192	1
NMTAP	39	288	0
NMHLD	40	0	7	192
NMTTP	40	192	4	B	0	M1
NMTTP	40	192	5	B	0	M1
NMTTP	40	192	5	E	1	M1
NMTAP	41	0	6
NMTAP	41	96	6
NMTAP	41	96	7
NMTAP	41	192	0
NMTAP	41	192	5
NMTAP	41	288	1
NMTAP	42	0	2
NMTAP	42	0	3
NMTAP	42	96	2
NMTAP	42	96	3
NMTAP	42	192	3
NMTAP	42	192	4
NMTAP	42	288	3
NMTAP	42	288	4
NMTAP	43	0	5
NMTAP	43	48	5
NMTAP	43	96	3
NMTAP	43	144	3
NMTAP	43	192	4
NMTAP	43	240	4
NMHLD	43	288	2	96
NMTTP	44	0	4	E	0	M1
NMTTP	44	96	3	E	0	M1
NMTTP	44	96	5	E	0	M1
NMTTP	44	192	0	C	1	M1
NMTTP	44	192	2	B	0	M1
NMTTP	44	192	3	B	0	M1
NMTTP	44	192	4	B	0	M1
NMTTP	44	192	5	B	0	M1
NMTAP	45	0	7
NMSTR	45	48	7
NMSI_	45	48	7	96	96	2
CNSI_	45	240	2	0	96	6
CNSCL	45	336	6	0	144	3
EXTAP	46	192	1
EXTAP	46	192	3
EXTAP	46	288	1
EXTAP	46	288	3
NMTAP	47	0	0
NMSTR	47	48	0
NMSI_	47	48	0	96	72	5
CNSI_	47	216	5	0	120	1
CNSCR	47	336	1	0	144	4
BRTAP	48	192	7
NMTAP	49	0	4
NMTAP	49	0	5
NMTAP	49	96	4
NMTAP	49	96	5
NMTAP	49	192	2
NMTAP	49	192	3
NMTAP	49	288	2
NMTAP	49	288	3
NMTAP	50	0	0
NMTAP	50	0	1
NMTAP	50	96	0
NMTAP	50	96	1
NMTAP	50	192	7
NMSTR	50	288	0
NMSI_	50	288	0	96	96	4
NMTAP	50	288	6
NMHLD	51	0	5	384
NMTAP	52	0	4
NMTAP	52	48	4
NMTAP	52	96	5
NMTAP	52	192	3
NMTAP	52	192	6
NMTAP	52	288	2
BRSTR	52	288	7
NMSCL	52	288	7	96	192	2
NMHLD	53	0	1	192
NMTAP	53	288	0
NMTAP	53	288	1
NMTAP	53	336	0
NMTAP	53	336	1
NMTAP	54	48	2
NMTAP	54	48	7
NMTAP	54	96	2
NMTAP	54	96	7
NMTAP	54	192	4
NMTAP	54	192	5
NMTAP	54	288	6
NMTAP	54	288	7
NMTAP	55	0	0
NMTAP	55	0	1
NMTAP	55	96	2
NMTAP	55	96	7
NMHLD	55	144	2	96
NMTAP	55	144	7
NMTAP	55	240	3
NMTAP	55	336	4
NMHLD	55	336	5	96
BXTAP	56	48	0
NMTAP	56	192	7
NMTAP	56	288	0
NMTAP	56	288	6
NMTAP	57	0	1
NMTAP	57	0	5
NMTAP	57	96	2
NMTAP	57	144	2
NMTAP	57	192	3
NMTAP	57	288	1
NMTAP	57	288	7
NMTAP	57	336	1
NMHLD	57	336	7	96
NMTAP	58	48	4
NMTAP	58	96	4
NMTAP	58	192	4
NMTAP	58	192	5
NMTAP	58	288	2
NMTAP	58	288	3
NMHLD	59	0	1	72
NMHLD	59	72	2	72
NMTAP	59	144	3
NMTAP	59	192	3
NMTAP	59	288	3
NMTAP	59	288	4
NMTAP	59	336	3
NMTAP	59	336	4
NMTAP	60	48	4
NMTAP	60	48	6
NMTAP	60	96	4
NMTAP	60	96	6
NMTAP	60	192	7
EXSTR	60	288	0
NMSCR	60	288	0	96	192	5
EXTAP	60	288	6
NMHLD	61	0	7	192
NMTAP	61	288	6
NMTAP	61	288	7
NMTAP	61	336	6
NMTAP	61	336	7
NMTAP	62	48	0
NMTAP	62	48	5
NMTAP	62	96	0
NMTAP	62	96	5
NMTAP	62	192	2
NMTAP	62	240	2
NMTAP	62	288	3
NMTAP	63	0	4
NMTAP	63	0	5
NMTAP	63	96	3
NMTAP	63	96	6
NMTAP	63	144	3
NMHLD	63	144	6	96
NMTAP	63	240	7
NMHLD	63	336	1	96
NMTAP	63	336	4
BXTAP	64	48	0
NMTAP	64	192	7
NMTAP	64	288	0
NMSTR	64	288	6
NMSCL	64	288	6	96	96	3
NMTAP	65	0	1
NMTAP	65	96	2
NMTAP	65	192	2
NMTAP	65	192	3
NMSTR	65	288	3
NMSCL	65	288	3	96	96	0
NMTAP	65	288	4
NMTAP	66	192	6
NMTAP	66	240	6
NMTAP	66	288	7
NMTAP	67	0	0
NMTAP	67	0	5
NMTAP	67	96	2
NMTAP	67	96	3
NMTAP	67	144	2
NMTAP	67	144	3
NMTAP	67	240	5
NMTAP	67	288	5
NMTAP	67	336	4
NMTAP	68	48	3
NMTAP	68	48	6
NMTAP	68	96	3
NMTAP	68	96	6
BRTAP	68	192	0
BRTAP	68	192	7
BRTAP	68	288	2
BRTAP	68	288	3
BRTAP	69	0	1
BRTAP	69	0	5
NMTAP	70	0	0
NMTAP	70	96	0
NMTAP	70	192	1
NMTAP	70	192	7
NMTAP	71	0	6
NMTAP	71	48	6
NMTAP	71	96	0
NMTAP	71	144	0
NMTAP	71	192	7
NMTAP	71	240	7
NMTAP	71	288	1
NMTAP	71	336	1
NMTAP	72	0	7
NMTAP	72	48	7
NMTAP	72	96	0
NMTAP	72	144	0
NMTAP	72	192	6
NMTAP	72	240	6
NMTAP	72	288	1
NMTAP	72	336	1
NMTAP	73	0	5
NMTAP	73	48	5
NMTAP	73	96	4
NMTAP	73	144	6
NMTAP	73	192	2
NMTAP	73	240	2
NMTAP	73	288	3
NMTAP	73	336	1
NMTAP	74	0	7
NMTAP	74	48	6
NMTAP	74	96	0
NMTAP	74	144	1
NMTAP	74	192	5
NMTAP	74	240	4
NMTAP	74	288	2
NMTAP	74	336	3
NMSTR	75	0	7
NMSCL	75	0	7	96	96	4
NMSTR	75	192	3
NMSCL	75	192	3	96	96	0
NMSTR	76	0	7
NMSI_	76	0	7	96	96	3
NMTAP	76	192	2
NMTAP	76	288	2
NMTAP	76	288	3
NMSTR	77	0	1
NMSCR	77	0	1	96	96	4
NMSTR	77	192	5
NMSCR	77	192	5	96	96	0
NMSTR	78	0	1
NMSCR	78	0	1	96	96	4
BXTAP	78	192	7
NMTAP	78	288	6
NMHLD	79	0	4	96
NMHLD	79	0	5	96
NMTAP	79	192	4
NMTAP	79	192	5
NMTAP	79	288	3
NMTAP	79	288	4
NMHLD	80	0	2	96
NMHLD	80	0	3	96
NMTAP	80	192	1
NMTAP	80	192	2
NMSTR	80	288	0
NMSCR	80	288	0	96	288	6
EXTAP	82	0	7
EXTAP	82	72	0
EXTAP	82	72	6
EXTAP	82	144	1
EXTAP	82	144	5
EXTAP	82	216	2
EXTAP	82	216	4
EXSTR	82	288	3
NMSUR	82	288	3	96	192	4
BXTAP	83	192	7
NMTAP	84	0	2
NMTAP	84	0	6
NMTAP	84	48	2
NMTAP	84	48	6
NMTAP	84	336	3
NMTAP	84	336	4
NMTAP	85	48	1
NMTAP	85	48	5
NMTAP	85	96	1
NMTAP	85	96	5
NMTAP	86	0	2
NMTAP	86	0	7
NMTAP	86	48	2
NMTAP	86	48	7
NMTAP	86	336	3
NMTAP	86	336	5
NMTAP	87	48	2
NMTAP	87	48	6
NMTAP	87	96	2
NMTAP	87	96	6
BRTAP	87	192	0
NMTAP	88	0	1
NMTAP	88	0	4
NMTAP	88	96	2
NMTAP	88	96	3
NMHLD	88	144	2	96
NMHLD	88	144	3	96
NMTAP	88	336	1
NMTAP	88	336	4
NMTAP	89	48	7
NMTAP	89	96	7
NMTAP	89	192	0
NMTAP	89	192	6
NMTAP	89	288	1
NMTAP	89	288	7
NMHLD	90	0	6	72
NMHLD	90	72	5	72
NMTAP	90	144	4
NMTAP	90	192	4
NMTAP	90	288	2
NMTAP	90	288	6
BRTAP	90	336	2
BRTAP	90	336	6
NMTAP	91	48	1
NMTAP	91	48	5
NMTAP	91	96	1
NMTAP	91	96	5
NMTAP	91	192	0
NMTAP	91	192	7
NMSTR	91	288	1
NMSCR	91	288	1	96	192	6
NMHLD	91	288	6	96
NMTAP	92	288	6
NMTAP	92	288	7
NMTAP	92	336	6
NMTAP	92	336	7
NMTAP	93	48	0
NMTAP	93	48	1
NMTAP	93	96	0
NMTAP	93	96	1
NMTAP	93	192	2
NMTAP	93	192	7
NMTAP	93	288	4
NMTAP	93	288	5
NMTAP	94	0	3
NMTAP	94	0	4
NMTAP	94	96	1
NMTAP	94	96	3
NMTAP	94	144	1
NMTAP	94	144	3
NMTAP	94	240	0
NMTAP	94	240	7
NMSTR	94	336	4
NMSI_	94	336	4	96	48	0
NMSTR	94	336	5
NMSI_	94	336	5	96	48	1
EXTAP	95	192	2
EXTAP	95	192	7
EXTAP	95	288	2
EXTAP	95	288	7
NMTAP	96	0	3
NMTAP	96	0	6
NMTAP	96	96	5
NMTAP	96	144	5
NMTAP	96	192	4
NMHLD	96	240	6	96
NMTAP	96	336	7
NMTAP	97	48	0
NMTAP	97	48	5
NMTAP	97	96	0
NMSTR	97	96	5
NMSCL	97	96	5	96	96	2
NMTAP	97	192	1
NMTAP	97	288	1
NMTAP	98	0	0
NMTAP	98	0	1
NMTAP	98	96	0
NMTAP	98	96	1
NMTAP	98	192	2
NMTAP	98	192	3
NMTAP	98	288	5
NMTAP	98	336	5
NMTAP	99	0	4
NMTAP	99	48	4
NMSTR	99	96	6
NMSCL	99	96	6	96	96	2
NMTTP	100	0	1	E	0	M1
NMTTP	100	96	2	E	0	M1
NMTTP	100	192	3	B	0	M1
NMTTP	100	192	3	E	0	M1
NMTTP	100	288	5	E	0	M1
NMTTP	101	0	6	E	0	M1
NMTTP	101	96	7	B	0	M1
NMTTP	101	96	7	E	0	M1
NMTTP	101	192	0	C	0	M1
NMTTP	101	288	3	B	0	M1
NMTTP	101	288	3	E	0	M1
NMTTP	102	0	2	E	0	M1
NMTTP	102	96	0	C	0	M1
NMTTP	102	192	7	E	0	M1
NMTTP	102	288	6	E	0	M1
NMTTP	103	0	5	E	0	M1
NMTTP	103	96	4	E	0	M1
NMTTP	103	192	3	B	0	M1
NMTTP	103	192	4	B	0	M1
NMHLD	104	0	1	288
NMTAP	104	0	5
NMTAP	104	96	3
NMTAP	104	144	3
NMTAP	104	192	3
NMHLD	104	288	6	288
NMTAP	105	0	4
NMTAP	105	48	4
NMTAP	105	96	4
NMHLD	105	192	1	96
NMHLD	105	288	2	96
NMHLD	106	0	3	96
NMHLD	106	96	4	96
NMHLD	106	192	5	96
NMHLD	106	288	6	96
NMHLD	107	0	4	96
NMHLD	107	96	3	96
NMHLD	107	192	1	96
NMTAP	107	288	0
NMSTR	108	0	7
NMSI_	108	0	7	96	96	3
NMSTR	108	192	0
NMSI_	108	192	0	96	96	4
NMSTR	109	0	7
NMSCL	109	0	7	96	96	4
NMSTR	109	192	0
NMSCR	109	192	0	96	96	3
NMTAP	110	0	5
NMTAP	110	96	3
NMTAP	110	96	5
NMTAP	110	192	2
NMTAP	110	192	4
NMTAP	110	288	0
NMTAP	110	288	6
NMSTR	111	0	1
NMSI_	111	0	1	96	48	4
NMSTR	111	0	5
NMSI_	111	0	5	96	48	0
EXTAP	111	192	3
EXTAP	111	192	7
EXTAP	111	240	3
EXTAP	111	240	7
NMSTR	111	336	2
NMSXR	111	336	2	96	240	3
NMSTR	111	336	6
NMSXR	111	336	6	96	240	7
EXTAP	113	0	3
EXTAP	113	0	7
NMTAP	113	96	1
NMTAP	113	144	1
NMTAP	113	144	3
NMTAP	113	240	6
NMTAP	113	288	4
NMTAP	113	288	6
NMTAP	114	0	2
NMTAP	114	48	2
NMTAP	114	48	3
NMTAP	114	144	5
NMTAP	114	192	4
NMTAP	114	192	5
NMTAP	114	288	3
NMTAP	114	288	6
NMTAP	115	0	2
NMTAP	115	0	7
NMTAP	115	96	1
NMTAP	115	144	0
NMTAP	115	144	1
NMTAP	115	240	6
NMTAP	115	288	6
NMTAP	115	288	7
NMTAP	116	0	1
NMTAP	116	48	0
NMTAP	116	48	1
NMTAP	116	144	2
NMTAP	116	144	7
NMTAP	116	192	2
NMTAP	116	192	7
NMTAP	116	288	3
NMTAP	116	288	6
NMTAP	117	0	5
NMTAP	117	48	4
NMTAP	117	96	5
NMTAP	117	144	2
NMTAP	117	192	3
NMTAP	117	240	2
NMTAP	117	288	5
NMTAP	117	336	4
NMTAP	118	0	5
NMTAP	118	48	2
NMTAP	118	96	3
NMTAP	118	144	2
NMSTR	118	192	4
NMSI_	118	192	4	96	48	7
NMTAP	119	0	1
NMTAP	119	48	0
NMTAP	119	96	1
NMTAP	119	144	6
NMTAP	119	192	7
NMTAP	119	240	6
NMTAP	119	288	1
NMTAP	119	336	0
NMTAP	120	0	1
NMTAP	120	48	6
NMTAP	120	96	7
NMTAP	120	144	6
NMSTR	120	192	0
NMSI_	120	192	0	96	48	4
NMSTR	120	288	7
NMSCL	120	288	7	96	384	1
BXSTR	122	0	0
NMSSL	122	0	0	96	480	4
NMTHO	124	0	0	768	C	0	M1

T_REC_TAP	408
T_REC_BRK	20
T_REC_XTP	40
T_REC_BXX	5
T_REC_HLD	51
T_REC_XHO	0
T_REC_BHO	0
T_REC_BXH	0
T_REC_STR	35
T_REC_BST	1
T_REC_XST	2
T_REC_XBS	2
T_REC_TTP	64
T_REC_THO	1
T_REC_SLD	40
T_REC_BSL	0
T_REC_ALL	669
T_NUM_TAP	549
T_NUM_BRK	28
T_NUM_HLD	52
T_NUM_SLD	40
T_NUM_ALL	669
T_JUDGE_TAP	577
T_JUDGE_HLD	178
T_JUDGE_SLD	40
T_JUDGE_ALL	795
TTM_EACHPAIRS	167
TTM_SCR_TAP	274500
TTM_SCR_BRK	72800
TTM_SCR_HLD	52000
TTM_SCR_SLD	60000
TTM_SCR_ALL	459300
TTM_SCR_S	442850
TTM_SCR_SS	456500
TTM_RAT_ACV	10061

