VERSION	0.00.00	1.04.00
FES_MODE	0
BPM_DEF	186.000	186.000	186.000	186.000
MET_DEF	4	4
RESOLUTION	384
CLK_DEF	384
COMPATIBLE_CODE	MA2

BPM	0	0	186.000
MET	0	0	4	4

NMTAP	5	0	1
NMTAP	5	96	1
NMTAP	5	192	0
NMTAP	5	192	1
NMTAP	6	0	6
NMTAP	6	96	6
NMTAP	6	192	6
NMTAP	6	192	7
NMTAP	7	0	0
NMTAP	7	96	0
NMTAP	7	192	0
NMTAP	7	192	7
NMTAP	8	0	7
NMTAP	8	96	7
NMTAP	8	192	0
NMSTR	8	288	0
NMSCR	8	288	0	96	1152	7
NMTAP	13	0	6
NMTAP	13	96	6
NMTAP	13	192	5
NMTAP	13	288	5
NMTAP	14	0	4
NMTAP	14	96	4
NMTAP	14	192	3
NMTAP	14	192	4
NMHLD	15	0	5	192
NMTAP	15	192	4
NMTAP	16	0	3
NMTAP	16	96	3
NMTAP	16	192	3
NMTAP	16	192	4
NMTAP	17	0	2
NMTAP	17	96	2
NMTAP	17	192	4
NMTAP	17	288	4
NMTAP	18	0	3
NMTAP	18	96	3
NMTAP	18	192	5
NMTAP	18	288	5
NMTAP	19	0	4
NMTAP	19	0	5
NMHLD	19	192	6	192
EXTAP	20	0	7
EXTAP	20	96	7
EXTAP	20	192	0
EXTAP	20	192	6
NMTAP	21	0	1
NMTAP	21	96	1
NMTAP	21	192	2
NMTAP	21	288	2
NMTAP	22	0	3
NMTAP	22	96	3
NMTAP	22	192	3
NMTAP	22	192	4
NMHLD	23	0	2	192
NMTAP	23	192	3
NMTAP	24	0	4
NMTAP	24	96	4
NMTAP	24	192	3
NMTAP	24	192	4
NMTAP	25	0	5
NMTAP	25	96	5
NMTAP	25	192	3
NMTAP	25	288	3
NMTAP	26	0	4
NMTAP	26	96	4
NMTAP	26	192	2
NMTAP	26	288	2
NMTAP	27	0	2
NMTAP	27	0	3
NMHLD	27	192	1	192
EXTAP	28	0	0
EXTAP	28	96	0
EXTAP	28	192	1
EXTAP	28	192	7
NMSTR	29	0	6
NMSUL	29	0	6	96	480	4
NMSTR	31	0	3
NMSUL	31	0	3	96	480	1
NMSTR	33	0	0
NMSCR	33	0	0	96	480	6
NMSTR	35	0	7
NMSCL	35	0	7	96	480	1
NMTAP	37	0	1
NMTAP	37	96	1
NMTAP	37	192	0
NMTAP	37	192	1
NMTAP	38	0	2
NMTAP	38	96	2
EXTAP	38	192	2
EXTAP	38	192	3
NMTAP	39	0	5
NMTAP	39	96	5
NMTAP	39	192	4
NMTAP	39	192	5
NMTAP	40	0	6
NMTAP	40	96	6
EXTAP	40	192	6
EXTAP	40	192	7
NMTAP	41	0	0
NMTAP	41	96	0
NMTAP	41	192	7
NMTAP	41	288	7
NMTAP	42	0	0
NMTAP	42	96	0
EXTAP	42	192	0
EXTAP	42	192	7
NMTAP	43	0	1
NMTAP	43	0	6
NMTAP	43	96	1
NMTAP	43	96	6
NMTAP	43	192	2
NMTAP	43	192	5
NMTAP	43	288	2
NMTAP	43	288	5
NMHLD	44	0	3	192
NMHLD	44	0	4	192
BXTAP	45	0	3
BXTAP	45	0	4
NMTAP	46	192	2
NMTAP	46	192	3
NMTAP	46	288	2
NMTAP	46	288	3
BRTAP	47	0	1
BRTAP	47	0	4
NMTAP	48	192	4
NMTAP	48	192	5
NMTAP	48	288	4
NMTAP	48	288	5
NMTAP	49	0	6
NMTAP	49	96	6
NMTAP	49	192	7
NMTAP	49	288	7
NMTAP	50	0	0
NMTAP	50	96	0
NMTAP	50	192	1
NMSTR	50	288	1
NMSXR	50	288	1	96	576	6
NMTAP	53	0	3
NMTAP	53	0	4
NMTAP	53	96	3
NMTAP	53	96	4
NMTAP	53	192	2
NMTAP	53	192	5
NMTAP	53	288	2
NMTAP	53	288	5
BRTAP	54	0	1
BRTAP	54	0	6
NMHLD	54	192	0	96
NMHLD	54	192	7	96
NMTAP	55	0	7
NMTAP	55	96	7
NMTAP	55	192	0
NMTAP	55	192	6
NMTAP	55	288	0
NMTAP	55	288	6
EXTAP	56	0	1
EXTAP	56	0	5
NMTAP	56	192	2
NMTAP	56	288	2
NMTAP	57	0	1
NMTAP	57	96	1
NMTAP	57	192	0
NMTAP	57	288	0
NMHLD	58	0	1	96
NMHLD	58	0	7	96
NMTAP	58	192	6
NMTAP	58	288	6
NMTAP	59	0	5
NMTAP	59	96	5
NMTAP	59	192	4
NMTAP	59	288	4
NMHLD	60	0	3	96
NMHLD	60	0	5	96
NMTAP	60	192	6
NMTAP	60	288	6
NMTAP	61	0	7
NMTAP	61	96	7
NMTAP	61	192	0
NMTAP	61	192	6
NMTAP	61	288	0
NMTAP	61	288	6
BRTAP	62	0	1
BRTAP	62	0	5
NMHLD	62	192	0	96
NMHLD	62	192	7	96
NMTAP	63	0	0
NMTAP	63	96	0
NMTAP	63	192	1
NMTAP	63	192	7
NMTAP	63	288	1
NMTAP	63	288	7
EXTAP	64	0	2
EXTAP	64	0	6
NMTAP	64	192	5
NMTAP	64	288	5
NMTAP	65	0	6
NMTAP	65	96	6
NMTAP	65	192	7
NMTAP	65	288	7
NMHLD	66	0	0	96
NMHLD	66	0	6	96
NMTTP	66	192	0	C	0	L1
NMTTP	66	288	4	E	0	L1
NMTTP	67	0	5	E	0	L1
NMTTP	67	96	6	E	0	L1
NMTTP	67	192	7	E	0	L1
NMTTP	67	288	0	E	0	L1
NMTTP	68	0	1	E	0	L1
NMTTP	68	96	2	E	0	L1
NMTTP	68	192	3	E	0	L1
NMTTP	68	288	4	E	0	L1
NMTTP	69	0	0	C	1	L1
NMTAP	71	0	1
NMTAP	71	96	1
NMTAP	71	192	2
NMTAP	71	288	2
NMTAP	72	0	3
NMTAP	72	96	3
NMTAP	72	192	2
NMTAP	72	192	4
NMHLD	73	0	1	192
NMHLD	73	192	0	192
NMHLD	74	0	7	192
NMTAP	74	192	6
NMTAP	75	0	6
NMTAP	75	96	6
NMTAP	75	192	5
NMTAP	75	288	5
NMTAP	76	0	4
NMTAP	76	96	4
NMTAP	76	192	3
NMTAP	76	192	5
NMHLD	77	0	6	192
NMHLD	77	192	7	192
NMHLD	78	0	0	192
NMTAP	78	192	1
NMTTP	79	0	3	B	0	L1
NMTTP	79	0	3	E	0	L1
NMTTP	79	192	5	B	0	L1
NMTTP	79	192	5	E	0	L1
NMTTP	80	0	7	B	0	L1
NMTTP	80	0	7	E	0	L1
NMTTP	80	192	1	B	0	L1
NMTTP	80	192	1	E	0	L1
NMTHO	81	0	0	384	C	1	L1
BXTAP	84	0	0
BXTAP	84	0	7
NMTAP	85	192	4
NMTAP	85	192	5
NMTAP	85	288	4
NMTAP	85	288	5
BRTAP	86	0	3
BRTAP	86	0	6
NMTAP	87	192	2
NMTAP	87	192	3
EXTAP	87	288	1
EXTAP	87	288	4
NMTAP	88	0	0
NMTAP	88	96	7
NMTAP	88	192	6
NMTAP	88	288	5
NMHLD	89	0	3	96
NMHLD	89	0	4	96
NMTAP	89	192	4
NMTAP	89	192	5
NMTAP	89	288	3
NMTAP	89	288	6
NMTAP	90	0	7
NMTAP	90	96	0
NMTAP	90	192	1
NMTAP	90	288	2
NMHLD	91	0	1	96
NMHLD	91	0	3	96
NMTAP	91	192	0
NMTAP	91	288	0
NMTAP	92	0	7
NMTAP	92	96	7
NMTAP	92	192	0
NMTAP	92	192	6
NMTAP	92	288	0
NMTAP	92	288	6
BRTAP	93	0	1
BRTAP	93	0	5
NMHLD	93	192	0	96
NMHLD	93	192	7	96
NMTAP	94	0	1
NMTAP	94	96	0
NMTAP	94	192	7
NMTAP	94	288	6
NMHLD	95	0	4	96
NMHLD	95	0	5	96
NMTAP	95	192	3
NMTAP	95	288	3
NMTAP	96	0	5
NMTAP	96	96	4
NMTAP	96	192	3
NMTAP	96	288	2
NMHLD	97	0	2	96
NMHLD	97	0	3	96
NMTAP	97	192	4
NMTAP	97	288	5
NMTAP	98	0	6
NMTAP	98	96	6
NMTAP	98	96	7
NMTAP	98	192	1
NMTAP	98	288	0
NMTAP	98	288	1
NMSTR	99	0	7
NMSI_	99	0	7	96	192	3
NMHLD	100	0	2	192
NMHLD	100	192	3	192
NMHLD	101	0	4	192
NMTAP	101	192	5
NMHLD	102	0	6	192
NMHLD	102	192	4	192
NMHLD	103	0	3	192
NMTAP	103	192	1
NMHLD	104	0	1	96
NMHLD	104	192	2	96
NMHLD	105	0	3	96
NMHLD	105	192	4	96
NMHLD	106	0	5	96
NMHLD	106	192	6	96
NMTAP	107	0	0
NMTAP	107	0	7
NMTAP	107	192	1
NMTAP	107	288	1
EXTAP	108	0	0
EXTAP	108	0	2
NMTAP	108	96	0
NMTAP	108	96	2
NMTAP	108	192	7
NMTAP	108	288	7
EXTAP	109	0	0
EXTAP	109	0	6
NMTAP	109	96	0
NMTAP	109	96	6
NMTAP	109	192	5
NMTAP	109	288	5
EXTAP	110	0	4
EXTAP	110	0	6
NMTAP	110	96	4
NMTAP	110	96	6
EXTAP	110	192	3
NMTAP	110	288	3
EXTAP	111	0	2
EXTAP	111	0	4
NMTAP	111	96	1
NMTAP	111	96	5
NMTAP	111	192	0
NMTAP	111	192	6
NMTAP	111	288	7
BXSTR	112	0	0
NMSXL	112	0	0	96	672	3
BXSTR	112	0	7
NMSXR	112	0	7	96	672	4
NMTAP	114	192	3
NMTAP	114	192	4
NMTAP	114	288	3
NMTAP	114	288	4
NMTAP	115	0	2
NMTAP	115	96	2
NMTAP	115	192	1
NMTAP	115	288	1
NMTAP	116	0	0
NMTAP	116	96	0
NMTAP	116	192	6
NMTAP	116	192	7
NMTAP	116	288	6
NMTAP	116	288	7
NMTAP	117	0	5
NMTAP	117	96	5
NMTAP	117	192	6
NMTAP	117	288	6
NMTAP	118	0	7
NMTAP	118	96	7
NMTAP	118	192	0
NMTAP	118	192	1
NMTAP	118	288	0
NMTAP	118	288	1
NMTAP	119	0	7
NMTAP	119	96	6
NMTAP	119	192	5
NMTAP	119	288	4
NMTAP	120	0	3
NMTAP	120	96	2
NMTAP	120	192	1
NMTAP	120	288	0
NMTHO	121	0	0	384	C	1	L1
NMTTP	121	0	1	B	0	L1
NMTTP	121	0	2	B	0	L1
NMTTP	121	0	5	B	0	L1
NMTTP	121	0	6	B	0	L1

T_REC_TAP	268
T_REC_BRK	10
T_REC_XTP	29
T_REC_HLD	44
T_REC_XHO	0
T_REC_STR	7
T_REC_BST	2
T_REC_XST	0
T_REC_TTP	23
T_REC_THO	2
T_REC_SLD	9
T_REC_ALL	394
T_NUM_TAP	327
T_NUM_BRK	12
T_NUM_HLD	46
T_NUM_SLD	9
T_NUM_ALL	394
T_JUDGE_TAP	339
T_JUDGE_HLD	140
T_JUDGE_SLD	9
T_JUDGE_ALL	488
TTM_EACHPAIRS	83
TTM_SCR_TAP	163500
TTM_SCR_BRK	31200
TTM_SCR_HLD	46000
TTM_SCR_SLD	13500
TTM_SCR_ALL	254200
TTM_SCR_S	245450
TTM_SCR_SS	253000
TTM_RAT_ACV	10047

