VERSION	0.00.00	1.04.00
FES_MODE	0
BPM_DEF	162.000	162.000	180.000	162.000
MET_DEF	4	4
RESOLUTION	384
CLK_DEF	384
COMPATIBLE_CODE	MA2

BPM	0	0	162.000
BPM	61	0	162.000
BPM	62	0	164.000
BPM	63	0	168.000
BPM	64	0	170.000
BPM	65	0	172.000
BPM	84	0	180.000
MET	0	0	4	4

NMTHO	1	0	0	384	C	1	M1
BRTAP	2	0	7
NMHLD	2	192	0	480
NMHLD	2	192	6	288
NMHLD	3	192	2	288
NMHLD	4	0	4	480
NMHLD	4	192	6	480
NMTHO	5	192	0	192	C	1	M1
NMTAP	6	0	7
NMTAP	6	96	6
NMTAP	6	192	5
NMSTR	6	288	4
NMSCR	6	288	4	96	48	7
BRTAP	7	0	0
NMTAP	7	48	0
NMTAP	7	96	0
NMTAP	7	144	0
NMTAP	7	192	0
NMTAP	7	192	7
NMTAP	7	240	0
NMTAP	7	240	7
NMTAP	7	288	0
NMTAP	7	288	7
NMTAP	7	336	0
NMTAP	7	336	7
BRTAP	8	0	0
NMTAP	8	24	6
NMTAP	8	48	0
NMTAP	8	72	6
NMTAP	8	96	1
NMTAP	8	120	5
NMTAP	8	144	1
NMTAP	8	168	5
NMTAP	8	192	2
NMTAP	8	216	4
NMTAP	8	240	3
NMTAP	8	264	5
NMTAP	8	288	2
NMTAP	8	312	6
NMTAP	8	336	1
NMTAP	8	360	7
BRSTR	9	0	0
NMSLR	9	0	0	96	96	6
NMTAP	9	96	6
NMTAP	9	144	7
NMSTR	9	192	0
BRSF_	9	192	0	96	48	4
NMTTP	9	288	0	C	1	M1
BRTAP	10	0	2
BRTAP	10	0	6
NMTAP	10	96	2
NMTAP	10	96	7
NMTAP	10	144	7
NMTAP	10	192	2
NMTAP	10	192	6
NMTAP	10	240	5
NMSTR	10	288	2
NMSI_	10	288	2	96	48	0
NMTAP	10	288	4
NMTAP	10	336	1
NMTAP	11	0	2
NMTAP	11	0	3
NMTAP	11	48	4
NMTAP	11	96	2
NMTAP	11	96	3
NMTAP	11	192	2
NMTAP	11	192	6
NMTAP	11	240	5
NMTAP	11	288	2
NMSTR	11	288	4
NMSI_	11	288	4	96	48	0
NMTAP	11	336	3
NMTAP	12	0	2
NMTAP	12	0	4
NMTAP	12	96	2
NMTAP	12	96	7
NMTAP	12	144	7
NMTAP	12	192	2
NMTAP	12	240	5
NMTAP	12	288	2
NMTAP	12	336	3
NMTAP	13	0	2
NMSTR	13	0	5
NMSCR	13	0	5	96	96	2
NMTAP	13	96	2
NMTAP	13	144	3
BRSTR	13	192	4
NMSI_	13	192	4	96	48	0
EXTAP	13	288	7
NMTTP	13	292	0	C	1	M1
NMTAP	14	0	2
NMTAP	14	0	6
NMTAP	14	96	3
NMTAP	14	96	5
NMTAP	14	144	4
NMTAP	14	192	3
NMTAP	14	192	5
NMSTR	14	240	2
NMSI_	14	240	2	96	48	4
NMTAP	14	288	1
NMTAP	14	288	5
NMSTR	14	336	2
NMSI_	14	336	2	96	48	6
NMTAP	15	0	5
NMTAP	15	48	2
NMTAP	15	96	5
NMTAP	15	144	0
NMSTR	15	192	1
NMSI_	15	192	1	96	48	4
NMSTR	15	192	5
NMSI_	15	192	5	96	48	0
EXTAP	15	288	1
EXTAP	15	288	5
EXTAP	16	0	3
EXTAP	16	0	7
NMTAP	16	96	5
NMTAP	16	128	5
NMTAP	16	160	4
EXHLD	16	192	3	32
EXHLD	16	192	6	32
EXHLD	16	256	2	32
EXHLD	16	256	5	32
EXHLD	16	320	1	32
EXHLD	16	320	4	32
BRSTR	17	0	0
NMSSL	17	0	0	96	96	4
BRTAP	17	0	3
NMSTR	17	96	6
NMSI_	17	96	6	96	48	2
BRTAP	17	192	6
EXTAP	17	288	0
EXTAP	17	288	4
NMHLD	18	0	1	96
BRSTR	18	0	5
NMSI_	18	0	5	96	96	1
NMTAP	18	144	2
CNSCL	18	192	1	0	96	6
NMTAP	18	192	3
NMTAP	18	240	4
NMTAP	18	288	5
NMTAP	18	336	4
NMSTR	19	0	3
NMSI_	19	0	3	96	48	7
NMSCL	19	0	3	96	48	0
NMTAP	19	96	3
NMTAP	19	192	4
NMTAP	19	192	6
NMTAP	19	240	5
NMTAP	19	288	1
NMTAP	19	288	3
NMTAP	19	336	2
NMTAP	20	0	3
NMSTR	20	0	5
NMSCL	20	0	5	96	48	2
NMTAP	20	48	6
NMSTR	20	96	1
NMSI_	20	96	1	96	48	5
NMTAP	20	96	5
NMSTR	20	192	1
NMSI_	20	192	1	96	48	3
NMSTR	20	192	7
NMSI_	20	192	7	96	48	3
NMTAP	20	288	1
NMTAP	20	288	7
EXTAP	21	0	1
EXTAP	21	0	5
NMTAP	21	48	7
NMTAP	21	72	0
NMTAP	21	96	7
NMTAP	21	120	0
NMTAP	21	144	7
NMTAP	21	168	0
NMTAP	21	192	6
NMTAP	21	224	4
NMTAP	21	256	5
NMTAP	21	288	1
NMTAP	21	320	3
NMTAP	21	352	2
NMSTR	22	0	4
NMSI_	22	0	4	96	48	0
NMSTR	22	96	1
NMSI_	22	96	1	96	48	3
NMTAP	22	96	4
NMTAP	22	192	1
NMSTR	22	192	7
NMSI_	22	192	7	96	48	5
NMSTR	22	288	4
NMSI_	22	288	4	96	48	0
NMTAP	22	288	7
NMSTR	23	0	1
NMSI_	23	0	1	96	48	5
NMTAP	23	0	4
NMTAP	23	96	1
NMTAP	23	96	7
NMTAP	23	192	4
NMTAP	23	192	6
NMHLD	23	288	2	96
NMTAP	23	288	3
BRTAP	24	0	0
NMTAP	24	32	0
NMTAP	24	64	0
NMTAP	24	96	2
NMTAP	24	128	3
NMTAP	24	160	1
BRTAP	24	192	5
NMTAP	24	224	5
NMTAP	24	256	5
NMTAP	24	288	1
NMTAP	24	320	3
NMTAP	24	352	2
BRTAP	25	0	7
NMTAP	25	32	7
NMTAP	25	64	7
NMTAP	25	96	5
NMTAP	25	128	5
NMTAP	25	160	5
BRTAP	25	192	3
NMTAP	25	224	3
NMTAP	25	256	3
NMSTR	25	288	1
NMSCR	25	288	1	96	768	1
BRTAP	26	0	1
NMTHO	28	0	0	576	C	1	M1
CNSCL	28	0	1	0	600	3
NMTAP	30	0	1
NMTAP	30	24	0
NMTAP	30	48	1
NMTAP	30	72	0
NMSTR	30	96	2
NMSLR	30	96	2	96	120	7
NMTAP	30	120	7
NMTAP	30	144	2
NMTAP	30	168	7
NMTAP	31	0	6
NMTAP	31	24	7
NMTAP	31	48	6
NMTAP	31	72	7
NMSTR	31	96	5
NMSLL	31	96	5	96	120	0
NMTAP	31	120	0
NMTAP	31	144	5
NMTAP	31	168	0
NMTAP	32	0	1
NMTAP	32	24	3
NMTAP	32	48	2
NMTAP	32	72	5
NMTAP	32	96	4
NMTAP	32	120	6
NMTAP	32	144	2
NMTAP	32	168	3
NMTAP	32	192	1
NMTAP	32	216	6
NMTAP	32	240	7
NMTAP	32	264	5
NMTAP	32	288	0
NMTAP	32	312	4
NMTAP	32	336	1
NMTAP	32	360	3
NMSTR	33	0	2
NMSSL	33	0	2	96	96	6
NMSTR	33	96	4
NMSI_	33	96	4	96	48	0
NMTTP	33	196	0	C	1	M1
EXTAP	33	288	7
BRHLD	34	0	0	48
BRHLD	34	0	7	48
BXSTR	34	72	1
NMSI_	34	72	1	96	48	6
BXHLD	34	72	6	312
CNSI_	34	216	6	0	48	3
CNSI_	34	264	3	0	48	0
CNSI_	34	312	0	0	48	5
CNSI_	34	360	5	0	48	2
CNSI_	35	24	2	0	48	7
CNSI_	35	72	7	0	48	4
NMTTP	35	192	3	B	0	M1
NMTTP	35	192	3	A	0	M1
NMTTP	35	192	4	B	0	M1
NMTTP	35	192	4	E	0	M1
NMTTP	35	192	4	A	0	M1
NMTTP	35	192	4	D	0	M1
NMTTP	35	192	5	B	1	M1
NMTTP	35	192	5	E	0	M1
NMTTP	35	192	5	A	0	M1
NMTTP	35	192	5	D	0	M1
NMTTP	35	192	6	B	0	M1
NMTTP	35	192	6	E	0	M1
NMTTP	35	192	6	A	0	M1
NMTTP	35	192	6	D	0	M1
BRTAP	35	288	0
BRHLD	36	0	0	48
BRHLD	36	0	1	48
BXHLD	36	72	2	312
BXSTR	36	72	7
NMSI_	36	72	7	96	48	2
CNSI_	36	216	2	0	48	5
CNSI_	36	264	5	0	48	0
CNSI_	36	312	0	0	48	3
CNSI_	36	360	3	0	48	6
CNSI_	37	24	6	0	48	1
CNSI_	37	72	1	0	48	4
NMTTP	37	192	1	B	0	M1
NMTTP	37	192	1	A	0	M1
NMTTP	37	192	2	B	0	M1
NMTTP	37	192	2	E	0	M1
NMTTP	37	192	2	A	0	M1
NMTTP	37	192	2	D	0	M1
NMTTP	37	192	3	B	0	M1
NMTTP	37	192	3	E	1	M1
NMTTP	37	192	3	A	0	M1
NMTTP	37	192	3	D	0	M1
NMTTP	37	192	4	B	0	M1
NMTTP	37	192	4	E	0	M1
NMTTP	37	192	4	A	0	M1
NMTTP	37	192	4	D	0	M1
BRTAP	37	288	7
BRHLD	38	0	6	48
BRHLD	38	0	7	48
BXSTR	38	72	0
BRSI_	38	72	0	96	48	5
BXHLD	38	72	5	312
CNSI_	38	216	5	0	48	2
CNSI_	38	264	2	0	48	7
CNSI_	38	312	7	0	48	4
CNSI_	38	360	4	0	48	1
CNSI_	39	24	1	0	48	6
CNSI_	39	72	6	0	48	3
NMTTP	39	192	3	B	0	M1
NMTTP	39	192	3	E	0	M1
NMTTP	39	192	3	A	0	M1
NMTTP	39	192	3	D	0	M1
NMTTP	39	192	4	B	1	M1
NMTTP	39	192	4	E	0	M1
NMTTP	39	192	4	A	0	M1
NMTTP	39	192	4	D	0	M1
NMTTP	39	192	5	B	0	M1
NMTTP	39	192	5	E	0	M1
NMTTP	39	192	5	A	0	M1
NMTTP	39	192	5	D	0	M1
NMTTP	39	192	6	E	0	M1
NMTTP	39	192	6	D	0	M1
BRTAP	39	288	0
NMSTR	40	0	1
NMSI_	40	0	1	96	48	5
NMSTR	40	0	7
NMSI_	40	0	7	96	48	3
NMTAP	40	96	1
NMTAP	40	96	7
NMTAP	40	192	0
NMTAP	40	192	6
NMTAP	40	240	1
NMTAP	40	264	3
NMTAP	40	288	2
NMTAP	40	336	3
NMTAP	40	336	4
NMTAP	41	0	1
NMTAP	41	0	7
NMTAP	41	48	6
NMTAP	41	72	4
NMTAP	41	96	5
NMTAP	41	144	3
NMTAP	41	144	4
NMSTR	41	192	2
NMSI_	41	192	2	96	48	4
NMSTR	41	192	5
NMSI_	41	192	5	96	48	3
NMTAP	41	240	1
NMTAP	41	240	6
BRTAP	41	288	2
BRTAP	41	288	5
NMSTR	42	0	0
NMSI_	42	0	0	96	48	4
NMSTR	42	0	7
NMSI_	42	0	7	96	48	3
NMTAP	42	96	0
NMTAP	42	96	7
BRTAP	42	192	1
BRTAP	42	192	6
NMHLD	42	288	2	24
NMHLD	42	288	3	24
NMHLD	42	336	3	24
NMHLD	42	336	4	24
NMHLD	43	0	4	24
NMHLD	43	0	5	24
NMHLD	43	48	1	24
NMHLD	43	48	4	24
NMHLD	43	96	3	24
NMHLD	43	96	7	24
NMHLD	43	144	0	24
NMHLD	43	144	2	24
NMTTP	43	192	4	B	0	M1
NMTTP	43	192	4	E	0	M1
NMTTP	43	192	4	A	0	M1
NMTTP	43	192	4	D	0	M1
NMTTP	43	192	5	B	0	M1
NMTTP	43	192	5	E	0	M1
NMTTP	43	192	5	A	0	M1
NMTTP	43	192	5	D	1	M1
NMTTP	43	192	6	B	0	M1
NMTTP	43	192	6	E	0	M1
NMTTP	43	192	6	A	0	M1
NMTTP	43	192	6	D	0	M1
NMTTP	43	192	7	E	0	M1
NMTTP	43	192	7	D	0	M1
NMTAP	43	288	0
NMTAP	43	336	0
NMHLD	44	0	1	24
NMHLD	44	0	7	24
NMHLD	44	48	2	24
NMHLD	44	48	3	24
NMHLD	44	96	0	24
NMHLD	44	96	6	24
NMHLD	44	144	4	24
NMHLD	44	144	5	24
NMTTP	44	192	0	C	1	M1
NMTAP	44	288	0
NMTAP	44	320	0
NMTAP	44	352	0
NMTAP	45	0	7
NMTAP	45	32	7
NMTAP	45	64	7
NMTAP	45	96	0
NMTAP	45	128	6
NMTAP	45	160	4
NMTAP	45	192	7
NMTAP	45	224	1
NMTAP	45	256	3
NMTAP	45	288	2
NMTAP	45	320	4
NMTAP	45	352	1
NMTTP	46	0	0	C	1	M1
NMSTR	46	96	0
NMSI_	46	96	0	96	48	3
NMSTR	46	96	6
NMSI_	46	96	6	96	48	3
BRTAP	46	192	0
BRTAP	46	192	6
NMTAP	46	288	2
NMTAP	46	288	4
NMTAP	46	320	2
NMTAP	46	320	4
NMTAP	46	352	2
NMTAP	46	352	4
NMTAP	47	0	3
NMTAP	47	0	5
NMTAP	47	32	3
NMTAP	47	32	5
NMTAP	47	64	3
NMTAP	47	64	5
NMTAP	47	96	2
NMTAP	47	96	6
NMTAP	47	128	2
NMTAP	47	128	6
NMTAP	47	160	2
NMTAP	47	160	6
NMTTP	47	192	0	C	1	M1
NMTTP	47	192	1	B	0	M1
NMTTP	47	192	1	A	0	M1
NMTTP	47	192	3	B	0	M1
NMTTP	47	192	3	A	0	M1
NMTTP	47	192	5	B	0	M1
NMTTP	47	192	5	A	0	M1
NMTTP	47	192	7	B	0	M1
NMTTP	47	192	7	A	0	M1
EXSTR	47	288	0
NMSF_	47	288	0	96	48	4
BRTAP	48	0	0
NMTAP	48	144	2
NMTAP	48	144	6
NMTAP	48	192	2
NMTAP	48	192	6
NMTAP	48	288	3
NMTAP	48	336	4
NMTAP	49	0	3
NMTAP	49	0	5
NMTAP	49	48	1
NMSTR	49	96	7
NMSCL	49	96	7	96	48	4
NMSTR	49	144	0
NMSCR	49	144	0	96	48	3
NMSTR	49	192	7
NMSV_	49	192	7	96	48	4
NMSTR	49	240	0
NMSV_	49	240	0	96	48	3
NMTAP	49	288	7
NMTAP	49	336	0
BRTAP	50	0	7
NMTAP	50	192	0
NMHLD	50	192	6	384
NMTHO	51	192	0	192	C	0	M1
NMHLD	52	0	5	192
NMSTR	52	192	7
NMSCR	52	192	7	96	288	5
NMTAP	53	192	7
NMHLD	54	0	6	96
NMHLD	54	0	7	96
NMHLD	54	192	0	384
NMTAP	54	192	5
NMTTP	54	288	5	E	0	M1
NMTTP	54	320	4	B	0	M1
NMTTP	54	352	5	B	0	M1
NMTTP	55	0	0	C	0	M1
NMHLD	55	192	7	96
NMHLD	56	0	0	96
NMHLD	56	0	6	96
NMHLD	56	192	1	96
NMHLD	56	192	5	96
NMTAP	57	0	2
NMTAP	57	48	2
NMTAP	57	96	4
NMTAP	57	144	4
NMTAP	57	192	3
NMTAP	57	208	4
NMTAP	57	224	3
NMTAP	57	256	6
NMTAP	57	288	4
NMTAP	57	320	5
NMTAP	57	352	1
NMSTR	58	0	7
NMSCL	58	0	7	96	48	4
NMTAP	58	48	0
NMTAP	58	96	7
NMTAP	58	192	2
NMSTR	58	240	3
NMSI_	58	240	3	96	48	7
NMTAP	58	288	4
NMHLD	58	336	5	96
NMHLD	59	48	0	96
NMTAP	59	144	2
NMTAP	59	192	2
NMTAP	59	240	1
NMTAP	59	288	7
NMTAP	59	336	6
NMTAP	60	0	4
NMTAP	60	0	5
NMSTR	60	48	3
NMSI_	60	48	3	96	96	7
NMSTR	60	144	7
NMSCL	60	144	7	96	96	4
NMSTR	60	240	4
NMSI_	60	240	4	96	96	0
NMTAP	60	336	0
NMTAP	61	48	4
NMTAP	61	144	6
NMTAP	61	168	0
BRTAP	61	192	6
BRTAP	61	264	4
BRTAP	61	264	5
BRTAP	61	336	2
BRTAP	61	336	3
NMTAP	62	0	1
NMTAP	62	24	0
NMTAP	62	48	1
NMTAP	62	72	0
NMTAP	62	96	2
NMTAP	62	120	3
NMTAP	62	144	2
NMTAP	62	168	3
NMTAP	62	192	1
NMTAP	62	216	4
NMTAP	62	240	1
NMTAP	62	264	4
NMTAP	62	288	0
NMTAP	62	312	5
NMTAP	62	336	0
NMTAP	62	360	5
NMTAP	63	0	1
NMTAP	63	24	7
NMTAP	63	48	1
NMTAP	63	72	7
NMTAP	63	96	2
NMTAP	63	120	6
NMTAP	63	144	2
NMTAP	63	168	6
NMTAP	63	192	3
NMTAP	63	216	5
NMTAP	63	240	3
NMTAP	63	264	5
NMTAP	63	288	2
NMTAP	63	312	4
NMTAP	63	336	2
NMTAP	63	360	4
NMTAP	64	0	3
NMTAP	64	24	4
NMTAP	64	48	3
NMTAP	64	72	4
NMTAP	64	96	2
NMTAP	64	120	5
NMTAP	64	144	2
NMTAP	64	168	5
NMTAP	64	192	1
NMTAP	64	216	6
NMTAP	64	240	1
NMTAP	64	264	6
NMTAP	64	288	0
NMTAP	64	312	7
NMTAP	64	336	0
NMTAP	64	360	7
NMTAP	65	0	0
NMTAP	65	12	1
NMTAP	65	24	2
NMTAP	65	36	3
NMTAP	65	48	4
NMTAP	65	60	5
NMTAP	65	72	6
NMTAP	65	84	7
NMSTR	65	96	0
BRSF_	65	96	0	96	48	4
NMTAP	65	108	1
NMTAP	65	120	2
NMTAP	65	132	3
NMTAP	65	144	4
NMTAP	65	156	5
NMTAP	65	168	6
NMTAP	65	180	7
BRTAP	65	288	2
BRTAP	65	288	6
NMSTR	66	0	1
NMSCR	66	0	1	96	48	4
NMTAP	66	0	4
NMTAP	66	48	0
NMTAP	66	96	1
NMTAP	66	96	5
NMSTR	66	192	6
NMSI_	66	192	6	96	48	2
NMSTR	66	240	7
NMSI_	66	240	7	96	48	3
NMTAP	66	288	6
NMSTR	66	336	7
NMSCL	66	336	7	96	48	4
NMTAP	67	48	2
NMTAP	67	48	7
NMTAP	67	144	2
NMTAP	67	144	3
NMSTR	67	192	1
NMSI_	67	192	1	96	48	5
NMTAP	67	240	0
NMTAP	67	240	7
NMTAP	67	288	1
NMTAP	67	336	0
EXTAP	68	0	7
NMSTR	68	48	0
NMSCR	68	48	0	96	48	2
NMSTR	68	48	6
NMSI_	68	48	6	96	48	2
NMSTR	68	144	0
NMSI_	68	144	0	96	48	4
NMSTR	68	144	6
NMSCL	68	144	6	96	48	4
NMTAP	68	240	0
NMTAP	68	240	6
EXTAP	68	336	7
NMTAP	69	0	7
NMTAP	69	48	1
NMTAP	69	72	0
NMTAP	69	96	2
NMTAP	69	120	7
NMTAP	69	144	3
NMTAP	69	168	6
BRSTR	69	192	4
NMSI_	69	192	4	96	48	0
NMTAP	69	288	4
NMTAP	69	288	5
CNSI_	69	336	0	0	48	2
NMSTR	70	0	6
NMSCL	70	0	6	96	48	3
NMSTR	70	48	3
NMSI_	70	48	3	96	48	7
NMTAP	70	96	6
NMSTR	70	192	1
NMSI_	70	192	1	96	48	5
NMSTR	70	240	0
NMSI_	70	240	0	96	48	4
NMTAP	70	288	1
NMSTR	70	336	0
NMSCR	70	336	0	96	48	3
NMTAP	71	48	0
NMTAP	71	48	5
NMTAP	71	144	4
NMTAP	71	144	5
NMSTR	71	192	3
NMSI_	71	192	3	96	48	7
NMSTR	71	192	6
NMSI_	71	192	6	96	48	3
NMTAP	71	288	3
NMTAP	71	288	6
NMTAP	72	0	0
NMTAP	72	48	1
NMTAP	72	96	2
NMTAP	72	96	4
NMSTR	72	144	3
NMSI_	72	144	3	96	48	7
NMTAP	72	144	5
NMTAP	72	240	3
NMSTR	72	240	6
NMSI_	72	240	6	96	72	4
NMTAP	72	336	0
NMTAP	72	336	6
NMTTP	73	0	0	C	1	M1
CNSI_	73	24	4	0	72	2
CNSI_	73	96	2	0	72	0
BXSTR	73	192	7
BRSF_	73	192	7	96	48	3
BRTAP	73	288	7
EXTAP	74	0	1
EXTAP	74	0	5
NMTAP	74	48	1
NMTAP	74	96	6
NMTAP	74	120	4
NMTAP	74	168	2
NMTAP	74	192	3
NMTAP	74	240	1
NMTAP	74	264	0
NMTAP	74	288	1
NMTAP	74	336	2
NMTAP	74	336	7
NMSTR	75	0	6
NMSI_	75	0	6	96	48	4
NMTAP	75	48	6
NMSTR	75	96	3
NMSCL	75	96	3	96	48	0
NMTAP	75	144	3
NMSTR	75	192	7
NMSI_	75	192	7	96	48	3
NMSTR	75	240	6
NMSI_	75	240	6	96	48	2
NMTAP	75	288	7
NMTAP	75	336	6
NMTAP	76	0	1
NMSTR	76	48	0
NMSI_	76	48	0	96	48	4
NMTAP	76	96	1
NMTAP	76	96	7
EXTAP	76	144	0
NMTAP	76	192	5
NMTAP	76	240	6
NMTAP	76	264	7
NMTAP	76	288	5
NMTAP	76	336	0
NMTAP	76	336	4
NMSTR	77	0	1
BRSI_	77	0	1	96	48	5
NMTAP	77	24	3
NMTAP	77	48	1
NMTAP	77	72	3
NMTAP	77	96	1
CNSI_	77	144	5	0	48	3
BXSTR	77	192	7
NMSF_	77	192	7	96	48	3
NMTTP	77	288	7	B	0	M1
NMTTP	77	312	0	C	0	M1
NMTTP	77	336	3	B	0	M1
EXSTR	78	0	1
NMSCR	78	0	1	96	48	3
EXSTR	78	0	5
NMSCR	78	0	5	96	48	7
NMTAP	78	96	1
NMTAP	78	96	5
NMSTR	78	192	0
NMSI_	78	192	0	96	48	5
NMSTR	78	192	4
NMSI_	78	192	4	96	48	1
NMTAP	78	288	0
NMTAP	78	288	4
NMTAP	79	0	0
NMTAP	79	0	4
NMTAP	79	48	1
NMTAP	79	48	5
NMSTR	79	96	2
NMSV_	79	96	2	96	48	7
NMSTR	79	96	6
NMSV_	79	96	6	96	48	3
NMTAP	79	192	2
NMTAP	79	192	6
NMTAP	79	288	0
NMTAP	79	288	4
BXHLD	80	0	3	96
BXSTR	80	0	6
NMSCL	80	0	6	96	48	3
EXTAP	80	108	2
EXTAP	80	120	1
EXTAP	80	132	0
BXHLD	80	192	3	96
BXSTR	80	192	7
NMSCR	80	192	7	96	48	2
EXTAP	80	300	4
EXTAP	80	312	5
EXTAP	80	324	6
BXHLD	81	0	3	96
BXHLD	81	0	7	96
EXTAP	81	108	2
EXTAP	81	108	6
EXTAP	81	120	1
EXTAP	81	120	5
EXTAP	81	132	0
EXTAP	81	132	4
EXTAP	81	144	3
EXTAP	81	144	7
EXTAP	81	192	3
EXTAP	81	192	7
NMSTR	81	288	1
NMSV_	81	288	1	96	48	4
NMSTR	81	288	5
NMSV_	81	288	5	96	48	0
EXTAP	82	0	1
EXTAP	82	0	5
NMTTP	82	4	0	C	1	M1
EXTAP	82	96	3
EXSTR	82	96	7
NMSSR	82	96	7	96	96	3
BRTAP	82	192	2
NMTAP	82	288	0
NMSTR	83	0	2
NMSCL	83	0	2	96	96	5
NMTAP	83	48	3
NMTAP	83	48	4
NMSTR	83	96	5
NMSCR	83	96	5	96	96	2
NMSTR	83	192	4
NMSI_	83	192	4	96	48	0
NMSTR	84	0	2
NMSI_	84	0	2	96	48	4
NMSTR	84	0	6
NMSI_	84	0	6	96	48	4
NMSTR	84	96	2
NMSI_	84	96	2	96	48	0
NMSTR	84	96	6
NMSI_	84	96	6	96	48	0
EXTAP	84	192	2
EXTAP	84	192	6
BRTAP	84	288	2
BRTAP	84	288	6
NMTAP	85	0	1
NMTAP	85	24	7
NMTAP	85	48	1
NMTAP	85	72	7
NMTAP	85	96	2
NMTAP	85	120	6
NMTAP	85	144	3
NMTAP	85	168	5
NMHLD	85	192	4	96
NMSTR	85	288	6
NMSLL	85	288	6	96	96	0
NMSTR	86	0	0
NMSLR	86	0	0	96	96	6
NMTAP	86	96	3
BRTAP	86	192	0
NMTAP	86	288	5
NMTAP	86	336	4
NMTAP	86	336	6
NMTAP	87	0	2
NMTAP	87	48	1
NMTAP	87	48	3
NMSTR	87	96	0
NMSI_	87	96	0	96	48	4
NMHLD	87	96	4	96
BRTAP	87	192	0
NMSTR	87	288	3
NMSCL	87	288	3	96	48	0
NMSTR	87	288	5
NMSCR	87	288	5	96	48	0
NMSTR	88	0	5
NMSI_	88	0	5	96	48	3
EXSTR	88	96	0
NMSI_	88	96	0	96	48	4
BRTAP	88	192	0
NMTAP	88	192	7
NMTAP	88	288	3
NMTAP	88	288	5
NMTAP	89	0	2
NMTAP	89	24	4
NMTAP	89	48	2
NMTAP	89	72	4
NMTAP	89	96	1
NMTAP	89	120	5
NMTAP	89	144	0
NMTAP	89	168	6
NMHLD	89	192	7	96
NMSTR	89	288	5
NMSI_	89	288	5	96	48	1
NMTAP	90	0	1
NMTAP	90	0	5
NMSTR	90	96	0
NMSI_	90	96	0	96	48	3
NMSI_	90	96	0	96	48	5
BRTAP	90	192	0
BXHLD	90	288	3	24
BRHLD	90	288	4	24
NMHLD	90	336	2	24
NMHLD	90	336	3	24
NMHLD	91	0	3	24
NMHLD	91	0	4	24
NMHLD	91	48	4	24
NMHLD	91	48	5	24
NMHLD	91	96	1	24
NMHLD	91	96	4	24
NMHLD	91	144	3	24
NMHLD	91	144	7	24
NMTTP	91	192	0	C	1	M1
NMTTP	91	192	2	B	0	M1
NMTTP	91	192	2	A	0	M1
NMTTP	91	192	3	B	0	M1
NMTTP	91	192	3	E	0	M1
NMTTP	91	192	3	A	0	M1
NMTTP	91	192	3	D	0	M1
NMTTP	91	192	5	B	0	M1
NMTTP	91	192	5	A	0	M1
NMTTP	91	192	6	B	0	M1
NMTTP	91	192	6	E	0	M1
NMTTP	91	192	6	A	0	M1
NMTTP	91	192	6	D	0	M1
NMSTR	91	288	1
NMSCR	91	288	1	96	384	7
NMSTR	91	288	7
NMSCL	91	288	7	96	384	1
BRTAP	92	0	1
BRTAP	92	0	7
NMSTR	93	192	1
NMSI_	93	192	1	96	48	5
NMTAP	93	288	7
NMTTP	93	292	0	C	1	M1
NMTAP	94	0	6
NMTAP	94	0	7
NMTAP	94	48	6
NMTAP	94	48	7
NMTAP	94	96	4
NMTAP	94	96	5
NMTAP	94	144	4
NMTAP	94	144	5
NMTAP	94	192	2
NMTAP	94	192	3
NMTAP	94	240	2
NMTAP	94	240	3
NMTAP	94	288	0
NMTAP	94	288	1
NMTAP	94	336	0
NMTAP	94	336	1
NMTAP	95	0	2
NMTAP	95	0	3
NMTAP	95	48	4
NMTAP	95	48	5
NMTAP	95	96	6
NMTAP	95	96	7
NMTAP	95	144	0
NMTAP	95	144	1
NMTAP	95	192	1
NMTAP	95	192	3
NMTAP	95	240	3
NMTAP	95	240	4
NMTAP	95	288	4
NMTAP	95	288	6
NMTAP	95	336	4
NMTAP	95	336	6
NMTAP	96	0	2
NMTAP	96	24	3
NMTAP	96	48	1
NMTAP	96	72	4
NMSTR	96	96	0
BRSI_	96	96	0	96	48	5
NMTAP	96	120	5
NMTAP	96	144	1
NMTAP	96	168	4
BRTAP	96	192	0
CNSI_	96	240	5	0	48	1
CNSI_	96	288	1	0	48	4
NMTAP	97	0	5
NMTAP	97	24	4
NMTAP	97	48	6
NMTAP	97	72	3
NMSTR	97	96	7
BRSI_	97	96	7	96	48	2
NMTAP	97	120	2
NMTAP	97	144	6
NMTAP	97	168	3
BRTAP	97	192	7
CNSI_	97	240	2	0	48	6
CNSI_	97	288	6	0	48	3
BRTAP	98	0	1
NMTAP	98	24	3
NMTAP	98	48	2
BRTAP	98	72	6
NMTAP	98	96	4
NMTAP	98	120	5
BRTAP	98	144	0
NMTAP	98	168	2
NMTAP	98	192	1
BRTAP	98	216	7
NMTAP	98	240	5
NMTAP	98	264	6
NMTTP	98	288	0	A	0	M1
NMTTP	98	294	1	D	0	M1
NMTTP	98	300	1	A	0	M1
NMTTP	98	306	2	D	0	M1
NMTTP	98	312	2	A	0	M1
NMTTP	98	318	3	D	0	M1
NMTTP	98	324	3	A	0	M1
NMTTP	98	330	4	D	0	M1
NMTTP	98	336	4	A	0	M1
NMTTP	98	342	5	D	0	M1
NMTTP	98	348	5	A	0	M1
NMTTP	98	354	6	D	0	M1
NMTTP	98	360	6	A	0	M1
NMTTP	98	366	7	D	0	M1
NMTTP	98	372	7	A	0	M1
NMTTP	98	378	0	D	0	M1
NMTTP	99	0	0	C	1	M1
NMTTP	99	0	0	A	0	M1
BXTAP	99	1	1
BXTAP	99	12	2
BXTAP	99	24	3
BXTAP	99	36	4
BXTAP	99	48	5
BXTAP	99	60	6
BXTAP	99	72	7
BXTAP	99	84	0
EXSTR	99	96	1
NMSI_	99	96	1	96	48	5
EXTAP	99	108	2
EXTAP	99	120	3
EXTAP	99	132	4
EXTAP	99	144	5
EXTAP	99	156	6
EXTAP	99	168	7
EXTAP	99	180	0
BRSTR	99	192	1
NMSV_	99	192	1	96	48	3
NMSV_	99	192	1	96	48	7

T_REC_TAP	485
T_REC_BRK	46
T_REC_XTP	43
T_REC_BXX	8
T_REC_HLD	52
T_REC_XHO	6
T_REC_BHO	7
T_REC_BXH	8
T_REC_STR	94
T_REC_BST	6
T_REC_XST	6
T_REC_XBS	7
T_REC_TTP	111
T_REC_THO	4
T_REC_SLD	109
T_REC_BSL	7
T_REC_ALL	999
T_NUM_TAP	739
T_NUM_BRK	89
T_NUM_HLD	62
T_NUM_SLD	109
T_NUM_ALL	999
T_JUDGE_TAP	806
T_JUDGE_HLD	191
T_JUDGE_SLD	116
T_JUDGE_ALL	1113
TTM_EACHPAIRS	171
TTM_SCR_TAP	369500
TTM_SCR_BRK	231400
TTM_SCR_HLD	62000
TTM_SCR_SLD	163500
TTM_SCR_ALL	826400
TTM_SCR_S	793000
TTM_SCR_SS	817500
TTM_RAT_ACV	10108

