VERSION	0.00.00	1.04.00
FES_MODE	0
BPM_DEF	162.000	162.000	180.000	162.000
MET_DEF	4	4
RESOLUTION	384
CLK_DEF	384
COMPATIBLE_CODE	MA2

BPM	0	0	162.000
BPM	61	0	162.000
BPM	62	0	164.000
BPM	63	0	168.000
BPM	64	0	170.000
BPM	65	0	172.000
BPM	84	0	180.000
MET	0	0	4	4

BRSTR	2	0	1
NMSI_	2	0	1	96	480	5
BRTAP	2	0	6
CNSCR	3	192	5	0	192	6
CNSI_	4	0	6	0	480	2
CNSCL	5	96	2	0	192	1
NMTTP	6	0	0	E	1	M1
NMTTP	6	96	1	E	0	M1
NMTTP	6	192	2	E	0	M1
NMTTP	6	288	3	E	0	M1
NMTTP	7	0	4	E	1	M1
NMTTP	7	96	5	E	0	M1
NMTTP	7	192	6	E	0	M1
NMTTP	7	288	7	E	0	M1
NMTTP	8	0	0	C	1	M1
NMTTP	8	0	0	D	0	M1
NMTTP	8	96	1	D	0	M1
NMTTP	8	96	7	D	0	M1
NMTTP	8	192	2	D	0	M1
NMTTP	8	192	6	D	0	M1
NMTTP	8	288	3	D	0	M1
NMTTP	8	288	5	D	0	M1
NMTHO	9	0	0	288	C	1	M1
NMTTP	9	0	4	D	0	M1
EXTAP	10	0	0
EXTAP	10	0	7
NMTAP	10	96	1
NMTAP	10	144	1
NMTAP	10	240	2
NMTAP	10	240	3
NMTAP	10	336	5
NMTAP	11	0	5
NMTAP	11	48	4
NMHLD	11	96	6	96
NMTAP	11	192	7
NMTAP	11	288	0
NMTAP	11	288	5
NMTAP	12	0	2
NMTAP	12	0	3
NMTAP	12	96	6
NMTAP	12	144	6
NMTAP	12	240	4
NMTAP	12	240	5
NMTAP	12	336	3
NMTAP	12	336	6
EXTAP	13	0	3
EXTAP	13	0	6
NMTAP	13	96	1
NMTAP	13	96	4
EXTAP	13	144	1
EXTAP	13	144	4
NMTAP	13	240	0
NMTAP	13	240	7
NMSTR	13	288	0
NMSI_	13	288	0	96	48	4
NMTAP	13	288	7
EXTAP	14	0	5
NMTAP	14	96	6
NMTAP	14	144	6
NMTAP	14	240	4
NMTAP	14	240	5
NMTAP	14	336	2
NMTAP	15	0	2
NMTAP	15	48	3
NMHLD	15	96	1	96
NMTAP	15	192	0
NMSTR	15	288	2
NMSCL	15	288	2	96	192	4
NMTAP	15	288	7
EXTAP	16	192	7
EXTAP	16	256	0
EXTAP	16	256	6
EXTAP	16	320	1
EXTAP	16	320	5
EXSTR	17	0	2
NMSI_	17	0	2	96	48	4
EXSTR	17	0	4
NMSI_	17	0	4	96	48	6
NMSTR	17	192	0
NMSI_	17	192	0	96	48	3
NMSI_	17	192	0	96	48	5
NMTAP	18	0	4
NMTAP	18	96	2
NMTAP	18	96	6
NMTAP	18	144	2
NMTAP	18	144	6
NMTAP	18	240	1
NMTAP	18	240	3
NMTAP	18	288	1
NMSTR	18	288	3
NMSI_	18	288	3	96	48	7
NMTAP	19	0	0
NMTAP	19	96	1
NMTAP	19	96	5
NMTAP	19	144	1
NMTAP	19	144	5
NMTAP	19	240	4
NMTAP	19	240	6
NMSTR	19	288	4
NMSI_	19	288	4	96	48	0
NMTAP	19	288	6
NMTAP	20	0	7
NMTAP	20	96	2
NMTAP	20	96	6
NMTAP	20	144	2
NMTAP	20	144	6
NMTAP	20	240	1
NMTAP	20	240	3
NMTAP	20	288	1
NMTAP	20	288	3
NMTAP	21	0	7
NMTAP	21	48	7
NMSTR	21	96	0
NMSXL	21	96	0	96	144	0
NMSTR	21	96	6
NMSXR	21	96	6	96	144	6
NMHLD	22	0	7	192
NMTAP	22	96	5
NMHLD	22	192	0	192
NMTAP	22	288	2
NMTAP	23	0	4
NMTAP	23	96	1
NMTAP	23	96	5
NMTAP	23	192	2
NMSTR	23	192	6
NMSI_	23	192	6	96	48	2
EXTAP	23	288	0
EXSTR	24	0	0
NMSI_	24	0	0	96	48	2
EXSTR	24	0	4
NMSI_	24	0	4	96	48	6
EXSTR	24	192	3
NMSI_	24	192	3	96	48	0
EXSTR	24	192	7
NMSI_	24	192	7	96	48	4
EXSTR	25	0	0
NMSCR	25	0	0	96	48	3
EXSTR	25	0	4
NMSCR	25	0	4	96	48	7
EXSTR	25	192	3
NMSV_	25	192	3	96	48	1
EXSTR	25	192	7
NMSV_	25	192	7	96	48	5
BRTAP	26	0	2
BRSTR	26	0	6
NMSI_	26	0	6	96	480	2
CNSCL	27	192	2	0	192	1
CNSI_	28	0	1	0	480	5
CNSCR	29	96	5	0	192	6
EXTAP	30	0	1
EXTAP	30	24	0
EXTAP	30	48	1
EXTAP	30	72	0
EXTAP	30	96	1
EXTAP	30	120	0
EXTAP	30	144	1
EXTAP	30	168	0
NMTTP	30	192	2	B	0	M1
NMTTP	30	192	2	E	1	M1
NMTTP	30	192	3	B	0	M1
EXTAP	31	0	6
EXTAP	31	24	7
EXTAP	31	48	6
EXTAP	31	72	7
EXTAP	31	96	6
EXTAP	31	120	7
EXTAP	31	144	6
EXTAP	31	168	7
NMTTP	31	192	4	B	0	M1
NMTTP	31	192	5	B	0	M1
NMTTP	31	192	6	E	1	M1
EXTAP	32	0	0
EXTAP	32	24	7
EXTAP	32	48	0
EXTAP	32	72	7
EXTAP	32	96	0
EXTAP	32	120	7
EXTAP	32	144	0
EXTAP	32	168	7
EXTAP	32	192	1
EXTAP	32	216	6
EXTAP	32	240	1
EXTAP	32	264	6
EXTAP	32	288	1
EXTAP	32	312	6
EXTAP	32	336	1
EXTAP	32	360	6
NMTHO	33	0	0	96	C	1	M1
NMTAP	34	0	0
NMTAP	34	0	7
NMTAP	34	72	0
NMTAP	34	72	7
NMTAP	34	144	0
NMTAP	34	168	7
NMTAP	34	216	7
NMTAP	34	240	0
NMTAP	34	288	0
NMTAP	34	312	1
NMTAP	34	360	1
NMTAP	35	0	2
NMTAP	35	48	2
NMTAP	35	72	3
NMTAP	35	120	3
NMTAP	35	144	4
EXSTR	35	192	4
NMSI_	35	192	4	96	48	0
EXTAP	35	192	5
NMHLD	36	0	1	160
NMHLD	36	0	7	160
EXTAP	36	192	0
NMTAP	36	224	0
NMTAP	36	256	0
EXTAP	36	288	7
NMTAP	36	320	7
NMTAP	36	352	7
EXTAP	37	0	1
NMTAP	37	32	1
NMTAP	37	64	1
EXTAP	37	96	6
NMTAP	37	128	6
NMTAP	37	160	6
EXTAP	37	192	2
NMTAP	37	224	2
NMTAP	37	256	2
EXTAP	37	288	5
NMTAP	37	320	5
NMTAP	37	352	5
EXTAP	38	0	3
EXTAP	38	0	4
EXTAP	38	72	0
EXTAP	38	72	7
NMTAP	38	144	7
NMTAP	38	168	0
NMTAP	38	216	0
NMTAP	38	240	7
NMTAP	38	288	7
NMTAP	38	312	6
NMTAP	38	360	6
NMTAP	39	0	5
NMTAP	39	48	5
NMTAP	39	72	4
NMTAP	39	120	4
NMTAP	39	144	3
EXTAP	39	192	2
EXSTR	39	192	3
NMSI_	39	192	3	96	48	7
NMHLD	40	0	0	48
NMHLD	40	0	6	48
NMHLD	40	96	1	48
NMHLD	40	96	5	48
NMHLD	40	192	2	48
NMHLD	40	192	3	48
NMHLD	40	288	4	48
NMHLD	40	288	5	48
NMHLD	41	0	6	48
NMHLD	41	0	7	48
NMHLD	41	96	0	48
NMHLD	41	96	1	48
NMHLD	41	192	2	48
NMHLD	41	192	6	48
NMHLD	41	288	3	48
NMHLD	41	288	5	48
NMSTR	42	0	4
NMSI_	42	0	4	96	48	0
NMTAP	42	192	2
NMTAP	42	192	6
NMTTP	42	288	1	E	0	M1
NMTTP	42	312	7	E	0	M1
NMTTP	42	336	3	E	0	M1
NMTTP	42	360	5	E	0	M1
NMTTP	43	0	1	D	0	M1
NMTTP	43	24	7	D	0	M1
NMTTP	43	48	3	D	0	M1
NMTTP	43	72	5	D	0	M1
NMTTP	43	96	1	B	0	M1
NMTTP	43	120	6	B	0	M1
NMTTP	43	144	2	B	0	M1
NMTTP	43	168	5	B	0	M1
NMTTP	43	192	0	C	1	M1
NMTTP	44	0	1	B	0	M1
NMTTP	44	24	6	B	0	M1
NMTTP	44	48	2	B	0	M1
NMTTP	44	72	5	B	0	M1
NMTTP	44	96	1	D	0	M1
NMTTP	44	120	7	D	0	M1
NMTTP	44	144	3	D	0	M1
NMTTP	44	168	5	D	0	M1
NMTTP	44	192	0	C	1	M1
NMHLD	45	0	1	96
NMHLD	45	96	3	96
NMHLD	45	192	4	96
NMSTR	45	288	6
NMSUL	45	288	6	96	144	4
NMTAP	46	192	2
NMTAP	46	192	3
NMHLD	46	288	4	96
NMTAP	46	288	5
NMHLD	47	0	3	96
NMSTR	47	96	1
NMSUR	47	96	1	96	144	3
NMTAP	48	0	4
NMTAP	48	0	5
NMTAP	48	96	3
NMTAP	48	144	3
NMTAP	48	192	4
NMTAP	48	288	2
NMTAP	48	288	3
NMTAP	49	0	1
NMTAP	49	48	1
NMTAP	49	96	0
NMTAP	49	144	0
NMTAP	49	192	7
NMTAP	49	240	7
NMTAP	49	288	6
NMTAP	49	336	6
NMSTR	50	0	5
NMSI_	50	0	5	96	48	3
NMSTR	50	192	2
NMSCL	50	192	2	96	216	5
NMSTR	50	192	6
NMSCR	50	192	6	96	216	3
NMTAP	51	192	3
NMTAP	51	192	5
NMSTR	52	0	2
NMSI_	52	0	2	96	48	4
NMTAP	52	0	4
NMSTR	52	192	1
NMSCL	52	192	1	96	216	4
NMSTR	52	192	5
NMSCR	52	192	5	96	216	2
NMTAP	53	192	2
NMTAP	53	192	4
NMSTR	54	0	3
NMSI_	54	0	3	96	48	7
NMTAP	54	0	5
NMTAP	54	192	0
NMTAP	54	192	6
NMTAP	54	288	1
NMTAP	54	288	5
NMTAP	54	336	1
NMTAP	54	336	5
NMHLD	55	0	1	288
NMHLD	55	0	5	288
NMTAP	56	0	2
NMSTR	56	0	4
NMSI_	56	0	4	96	48	0
NMSTR	56	192	1
NMSCR	56	192	1	96	240	7
NMSTR	56	192	7
NMSCL	56	192	7	96	240	1
NMTAP	58	0	0
NMTAP	58	48	0
NMTAP	58	96	1
NMTAP	58	96	7
NMTAP	58	192	6
NMTAP	58	240	6
NMTAP	58	288	4
NMHLD	58	336	5	96
NMHLD	59	48	4	96
NMHLD	59	144	3	96
NMTAP	59	240	2
NMTAP	59	288	2
NMTAP	60	0	1
NMTAP	60	0	3
NMTAP	60	48	1
NMTAP	60	48	3
NMSTR	60	144	4
NMSI_	60	144	4	96	48	0
NMTAP	60	144	6
NMTAP	60	336	1
NMTAP	60	336	7
NMTAP	61	48	2
NMTAP	61	48	6
EXTAP	61	144	5
EXTAP	61	168	4
EXTAP	61	192	5
EXTAP	61	264	2
EXTAP	61	264	3
EXTAP	61	336	3
EXTAP	61	336	4
EXTAP	62	0	2
NMTAP	62	48	2
NMTAP	62	96	3
NMTAP	62	144	3
NMTAP	62	192	1
NMTAP	62	240	1
NMTAP	62	288	7
NMTAP	62	336	7
EXTAP	63	0	0
NMTAP	63	48	0
NMTAP	63	96	6
NMTAP	63	144	6
NMTAP	63	192	4
NMTAP	63	240	4
NMTAP	63	288	5
NMTAP	63	336	5
EXTAP	64	0	3
NMTAP	64	24	4
NMTAP	64	48	3
NMTAP	64	72	4
NMTAP	64	96	3
NMTAP	64	120	4
NMTAP	64	144	3
NMTAP	64	168	4
NMTAP	64	192	2
NMTAP	64	216	5
NMTAP	64	240	2
NMTAP	64	264	5
NMTAP	64	288	2
NMTAP	64	312	5
NMTAP	64	336	2
NMTAP	64	360	5
NMSTR	65	0	1
NMSXR	65	0	1	96	192	6
NMTAP	66	0	7
NMTAP	66	48	7
NMTAP	66	96	0
NMTAP	66	96	6
NMTAP	66	192	1
NMTAP	66	240	1
NMTAP	66	288	3
NMHLD	66	336	2	96
NMHLD	67	48	3	96
NMHLD	67	144	4	96
NMTAP	67	240	5
NMTAP	67	288	5
NMTAP	68	0	6
NMTAP	68	0	7
NMTAP	68	48	6
NMTAP	68	48	7
NMTAP	68	144	0
NMSTR	68	144	1
NMSCR	68	144	1	96	48	4
NMTAP	68	240	5
NMSTR	68	336	6
NMSUL	68	336	6	96	48	2
NMTAP	69	48	1
NMSTR	69	144	0
NMSI_	69	144	0	96	48	4
NMTAP	69	240	7
NMTAP	70	0	5
NMTAP	70	48	5
NMTAP	70	96	4
NMTAP	70	96	6
NMTAP	70	192	2
NMTAP	70	240	2
NMTAP	70	288	3
NMHLD	70	336	1	96
NMHLD	71	48	0	96
NMHLD	71	144	7	96
NMTAP	71	240	6
NMTAP	71	288	6
NMTAP	72	0	0
NMTAP	72	48	0
NMTAP	72	96	7
NMTAP	72	144	1
NMTAP	72	144	6
NMTAP	72	240	2
NMSTR	72	240	5
NMSXR	72	240	5	96	240	2
NMTAP	73	288	0
NMTAP	73	288	7
NMTAP	74	0	2
NMTAP	74	48	2
NMTAP	74	96	1
NMTAP	74	96	3
NMTAP	74	192	5
NMTAP	74	240	5
NMTAP	74	288	4
NMHLD	74	336	6	96
NMHLD	75	48	7	96
NMHLD	75	144	0	96
NMHLD	75	240	1	96
NMTAP	75	336	6
NMTAP	76	0	1
NMTAP	76	0	6
NMTAP	76	48	2
NMTAP	76	48	5
NMTAP	76	96	3
NMTAP	76	96	4
EXHLD	76	144	3	48
EXHLD	76	144	4	48
NMTAP	76	240	3
NMTAP	76	240	4
NMTAP	76	336	1
NMTAP	76	336	6
NMSTR	77	0	1
NMSSR	77	0	1	96	144	5
NMSTR	77	0	6
NMSSL	77	0	6	96	144	2
EXTAP	78	0	0
EXTAP	78	0	7
NMTAP	78	96	0
NMTAP	78	96	1
NMTAP	78	192	1
NMTAP	78	192	2
NMTAP	78	288	2
NMTAP	78	288	3
NMTAP	79	0	3
NMTAP	79	0	4
NMTAP	79	96	4
NMTAP	79	96	5
NMTAP	79	192	5
NMTAP	79	192	6
NMTAP	79	288	6
NMTAP	79	288	7
EXSTR	80	0	0
NMSI_	80	0	0	96	48	2
EXSTR	80	0	7
NMSI_	80	0	7	96	48	3
EXSTR	80	192	4
NMSI_	80	192	4	96	48	0
EXSTR	80	192	5
NMSI_	80	192	5	96	48	7
EXSTR	81	0	1
NMSI_	81	0	1	96	48	6
EXSTR	81	0	2
NMSI_	81	0	2	96	48	5
NMTAP	81	192	4
NMTAP	81	192	7
NMTAP	81	288	0
NMSTR	81	288	3
NMSCL	81	288	3	96	240	4
EXHLD	82	288	1	96
NMHLD	82	288	3	96
NMHLD	83	48	4	96
EXHLD	83	48	6	96
EXTAP	83	192	2
EXTAP	83	192	5
BRTAP	83	288	0
BRTAP	83	288	7
NMHLD	84	0	3	96
NMHLD	84	0	4	96
NMTAP	84	192	2
NMSTR	84	192	3
NMSCR	84	192	3	96	48	5
CNSI_	84	336	5	0	144	1
CNSCL	85	96	1	0	48	7
NMTAP	85	192	2
NMTAP	85	192	6
NMTAP	85	288	3
NMTAP	85	288	5
NMHLD	86	0	2	96
NMTAP	86	0	4
NMHLD	86	96	3	96
NMHLD	86	192	4	96
NMTAP	86	288	5
NMTAP	86	336	5
NMTAP	87	0	4
NMTAP	87	48	6
NMTAP	87	96	6
NMTAP	87	192	5
NMTAP	87	192	7
NMTAP	87	288	0
NMTAP	87	288	2
NMHLD	88	0	3	96
NMHLD	88	0	4	96
NMSTR	88	192	4
NMSCL	88	192	4	96	48	2
NMTAP	88	192	5
CNSI_	88	336	2	0	144	6
CNSCR	89	96	6	0	48	0
NMTAP	89	192	1
NMTAP	89	192	5
NMTAP	89	288	2
NMTAP	89	288	4
NMTAP	90	0	0
NMHLD	90	0	6	96
NMHLD	90	96	7	96
NMHLD	90	192	0	96
EXHLD	90	288	1	24
EXHLD	90	336	2	24
EXHLD	91	0	3	24
EXHLD	91	48	4	24
EXHLD	91	96	5	24
EXHLD	91	144	6	24
EXTAP	91	192	0
EXTAP	91	192	7
NMTAP	91	288	3
NMSTR	91	288	4
NMSCR	91	288	4	96	672	3
NMTHO	92	0	0	672	C	1	M1
NMTAP	94	0	0
NMTAP	94	48	0
NMTAP	94	96	0
NMTAP	94	144	0
NMTAP	94	192	7
NMTAP	94	240	7
NMTAP	94	288	7
NMTAP	94	336	7
NMTAP	95	0	0
NMTAP	95	48	0
NMTAP	95	96	5
NMTAP	95	144	5
NMTAP	95	192	2
NMTAP	95	240	2
NMTAP	95	288	7
NMTAP	95	336	7
EXTAP	96	0	1
NMTAP	96	24	0
EXTAP	96	48	1
NMTAP	96	72	0
EXTAP	96	96	1
NMTAP	96	120	0
EXTAP	96	144	1
NMTAP	96	168	0
NMTTP	96	192	2	B	0	M1
NMTTP	96	192	2	E	1	M1
NMTTP	96	192	3	B	0	M1
EXTAP	97	0	6
NMTAP	97	24	7
EXTAP	97	48	6
NMTAP	97	72	7
EXTAP	97	96	6
NMTAP	97	120	7
EXTAP	97	144	6
NMTAP	97	168	7
NMTTP	97	192	4	B	0	M1
NMTTP	97	192	5	B	0	M1
NMTTP	97	192	6	E	1	M1
BRTAP	98	0	0
NMTAP	98	24	7
NMTAP	98	48	0
NMTAP	98	72	7
BRTAP	98	96	1
NMTAP	98	120	6
NMTAP	98	144	1
NMTAP	98	168	6
BRTAP	98	192	2
NMTAP	98	216	5
NMTAP	98	240	2
NMTAP	98	264	5
BRTAP	98	288	3
NMTAP	98	312	4
NMTAP	98	336	3
NMTAP	98	360	4
NMTTP	99	0	0	B	0	M1
NMTTP	99	0	0	E	1	M1
NMTHO	99	0	0	336	C	0	M1
NMTTP	99	0	3	B	0	M1
NMTTP	99	0	4	B	0	M1
NMTTP	99	0	4	E	0	M1
NMTTP	99	0	7	B	0	M1

T_REC_TAP	312
T_REC_BRK	8
T_REC_XTP	81
T_REC_HLD	54
T_REC_XHO	10
T_REC_STR	33
T_REC_BST	2
T_REC_XST	18
T_REC_TTP	57
T_REC_THO	4
T_REC_SLD	54
T_REC_ALL	633
T_NUM_TAP	501
T_NUM_BRK	10
T_NUM_HLD	68
T_NUM_SLD	54
T_NUM_ALL	633
T_JUDGE_TAP	511
T_JUDGE_HLD	149
T_JUDGE_SLD	54
T_JUDGE_ALL	714
TTM_EACHPAIRS	124
TTM_SCR_TAP	250500
TTM_SCR_BRK	26000
TTM_SCR_HLD	68000
TTM_SCR_SLD	81000
TTM_SCR_ALL	425500
TTM_SCR_S	411800
TTM_SCR_SS	424500
TTM_RAT_ACV	10023

