VERSION	0.00.00	1.04.00
FES_MODE	0
BPM_DEF	162.000	162.000	180.000	162.000
MET_DEF	4	4
RESOLUTION	384
CLK_DEF	384
COMPATIBLE_CODE	MA2

BPM	0	0	162.000
BPM	61	0	162.000
BPM	62	0	164.000
BPM	63	0	168.000
BPM	64	0	170.000
BPM	65	0	172.000
BPM	84	0	180.000
MET	0	0	4	4

NMHLD	2	0	4	576
NMHLD	2	192	2	384
NMHLD	4	0	3	576
NMHLD	4	192	5	384
EXTAP	6	0	3
EXTAP	6	0	4
NMTAP	6	96	2
NMTAP	6	192	2
NMTAP	6	288	2
EXTAP	7	0	3
EXTAP	7	0	4
NMTAP	7	96	5
NMTAP	7	192	5
NMTAP	7	288	5
EXTAP	8	0	3
EXTAP	8	0	4
NMTAP	8	96	2
NMTAP	8	192	3
NMTAP	8	288	4
EXSTR	9	0	2
NMSV_	9	0	2	96	192	1
EXSTR	9	0	5
NMSV_	9	0	5	96	192	6
EXTAP	10	0	2
NMTAP	10	96	2
NMTAP	10	192	3
NMTAP	10	288	3
NMTAP	11	0	4
NMHLD	11	96	3	192
NMHLD	11	96	5	192
NMTAP	12	0	4
NMTAP	12	96	4
NMTAP	12	192	3
NMTAP	12	288	3
NMHLD	13	0	3	96
NMHLD	13	192	2	96
NMHLD	13	192	4	96
NMTAP	14	0	5
NMTAP	14	96	5
NMTAP	14	192	4
NMTAP	14	288	4
NMTAP	15	0	3
NMTAP	15	96	3
NMTAP	15	192	2
NMSTR	15	288	2
NMSUL	15	288	2	96	240	5
NMHLD	17	0	4	96
NMHLD	17	192	3	96
NMHLD	17	192	5	96
NMTAP	18	0	4
NMTAP	18	0	6
NMTAP	18	96	4
NMTAP	18	96	6
NMTAP	18	192	5
NMTAP	18	288	4
NMTAP	19	0	3
NMTAP	19	96	2
NMTAP	19	192	0
NMTAP	19	192	1
NMTAP	20	0	1
NMTAP	20	0	3
NMTAP	20	96	1
NMTAP	20	96	3
NMTAP	20	192	2
NMTAP	20	288	3
NMTAP	21	0	4
NMTAP	21	96	5
NMTAP	21	192	6
NMTAP	21	192	7
NMTAP	22	0	5
NMTAP	22	96	5
NMTAP	22	192	4
NMTAP	22	288	4
NMTAP	23	0	3
NMTAP	23	96	3
NMTAP	23	192	2
NMTAP	23	288	2
NMHLD	24	0	1	96
NMHLD	24	0	3	96
NMHLD	24	192	2	96
NMHLD	24	192	4	96
NMHLD	25	0	3	96
NMHLD	25	0	5	96
NMHLD	25	192	4	96
NMHLD	25	192	6	96
NMSTR	26	0	7
NMSCL	26	0	7	96	480	0
NMTHO	28	0	0	384	C	0	L1
NMTAP	30	0	7
NMSTR	30	96	7
NMSI_	30	96	7	96	144	4
NMTAP	31	0	3
NMSTR	31	96	3
NMSI_	31	96	3	96	144	0
NMTAP	32	0	7
NMTAP	32	96	7
NMTAP	32	192	0
NMTAP	32	288	0
NMSTR	33	0	0
NMSCR	33	0	0	96	192	3
NMSTR	33	0	7
NMSCL	33	0	7	96	192	4
NMHLD	34	0	3	72
NMHLD	34	0	4	72
NMTTP	34	192	2	E	0	L1
NMTTP	34	288	1	E	0	L1
NMTTP	35	0	0	E	0	L1
NMTTP	35	96	7	E	0	L1
NMTTP	35	192	6	E	0	L1
NMTAP	36	0	3
NMTAP	36	0	4
NMTAP	36	96	3
NMTAP	36	96	4
EXHLD	36	192	2	96
NMTAP	36	288	3
EXHLD	37	0	5	96
NMTAP	37	96	4
NMTAP	37	192	3
NMTAP	37	288	3
NMTAP	37	288	4
NMHLD	38	0	3	72
NMHLD	38	0	4	72
NMTTP	38	192	2	E	0	L1
NMTTP	38	288	1	E	0	L1
NMTTP	39	0	0	E	0	L1
NMTTP	39	96	7	E	0	L1
NMTTP	39	192	6	E	0	L1
NMTAP	40	0	6
NMTAP	40	96	6
NMTAP	40	192	7
NMTAP	40	288	7
NMTAP	41	0	0
NMTAP	41	96	0
NMTAP	41	192	1
NMSTR	41	288	1
NMSCR	41	288	1	96	192	4
NMTTP	42	288	7	E	0	L1
NMTTP	43	0	6	E	0	L1
NMTTP	43	96	5	E	0	L1
NMTTP	43	192	4	E	0	L1
NMTTP	43	288	3	E	0	L1
NMTTP	44	0	2	E	0	L1
NMTTP	44	96	1	E	0	L1
NMTTP	44	192	0	E	0	L1
NMTAP	45	0	1
NMTAP	45	96	0
NMTAP	45	192	7
NMSTR	45	288	6
NMSCL	45	288	6	96	192	3
NMTTP	46	288	2	E	0	L1
NMTTP	47	0	4	E	0	L1
NMTTP	47	96	6	E	0	L1
NMTTP	47	192	0	B	0	L1
NMTTP	47	192	7	B	0	L1
NMTAP	48	0	6
NMTAP	48	96	5
NMTAP	48	192	4
NMTAP	48	288	3
NMTAP	49	0	2
NMTAP	49	96	3
NMTAP	49	192	4
NMTAP	49	288	5
NMHLD	50	0	6	192
NMHLD	50	192	4	192
NMTAP	51	0	5
NMTAP	51	96	5
NMTAP	51	192	3
NMTAP	51	192	4
NMHLD	52	0	1	192
NMHLD	52	192	3	192
NMTAP	53	0	2
NMTAP	53	96	2
NMTAP	53	192	3
NMTAP	53	192	4
NMHLD	54	0	5	192
NMHLD	54	192	4	192
NMTAP	55	0	3
NMTAP	55	96	3
NMTAP	55	192	3
NMTAP	55	192	4
NMHLD	56	0	2	192
NMHLD	56	192	3	192
NMTAP	57	0	4
NMTAP	57	96	4
NMTAP	57	192	3
NMTAP	57	192	4
NMTAP	58	0	5
NMTAP	58	96	5
NMTAP	58	192	4
NMTAP	58	288	3
NMTAP	58	288	5
NMTAP	59	0	2
NMTAP	59	96	2
NMTAP	59	192	3
NMTAP	59	288	2
NMTAP	59	288	4
NMTAP	60	0	1
NMTAP	60	96	0
NMTAP	60	192	7
NMTAP	60	288	6
NMTAP	61	0	0
NMTAP	61	0	5
NMSTR	61	96	1
NMSI_	61	96	1	96	144	5
NMTAP	61	96	4
EXTAP	62	0	6
NMTAP	62	96	5
NMTAP	62	192	4
NMTAP	62	288	2
NMTAP	62	288	3
EXTAP	63	0	1
NMTAP	63	96	2
NMTAP	63	192	3
NMTAP	63	288	4
NMTAP	63	288	5
EXTAP	64	0	3
NMTAP	64	96	2
NMTAP	64	96	4
NMTAP	64	192	1
NMTAP	64	192	5
NMSTR	64	288	0
NMSSL	64	288	0	96	288	4
NMTAP	64	288	6
BXTAP	66	0	6
NMTAP	66	96	5
NMTAP	66	192	4
NMTAP	66	288	3
NMTAP	67	0	2
NMTAP	67	96	1
NMTAP	67	192	0
NMTAP	67	288	0
NMTAP	67	288	7
EXTAP	68	0	6
NMTAP	68	96	5
NMTAP	68	96	7
EXTAP	68	192	1
NMTAP	68	288	0
NMTAP	68	288	2
EXTAP	69	0	7
NMTAP	69	96	0
NMTAP	69	96	7
BRTAP	69	192	1
BRTAP	69	192	6
EXTAP	70	0	2
NMTAP	70	96	1
NMTAP	70	192	0
NMTAP	70	288	7
EXTAP	71	0	6
NMTAP	71	96	5
NMTAP	71	192	4
NMTAP	71	288	3
NMTAP	71	288	4
EXTAP	72	0	2
NMTAP	72	96	1
NMTAP	72	96	3
EXTAP	72	192	5
EXTAP	72	288	4
EXSTR	72	288	6
NMSSL	72	288	6	96	288	2
EXTAP	74	0	1
NMTAP	74	96	0
NMTAP	74	192	1
NMTAP	74	288	2
NMTAP	74	288	7
NMTAP	75	0	6
NMTAP	75	96	7
NMTAP	75	192	6
NMTAP	75	288	0
NMTAP	75	288	5
EXTAP	76	0	1
BRTAP	76	96	2
NMTAP	76	192	1
NMTAP	76	192	3
EXTAP	76	288	1
EXTAP	76	288	3
NMSTR	77	0	0
NMSCR	77	0	0	96	144	3
NMSTR	77	0	4
NMSCR	77	0	4	96	144	7
NMTAP	78	0	7
NMTAP	78	96	6
NMTAP	78	96	7
NMTAP	78	192	5
NMTAP	78	288	4
NMTAP	78	288	5
NMTAP	79	0	3
NMTAP	79	96	2
NMTAP	79	96	3
NMTAP	79	192	1
NMTAP	79	288	0
NMTAP	79	288	1
EXHLD	80	0	6	96
EXHLD	80	0	7	96
EXHLD	80	192	4	96
EXHLD	80	192	5	96
EXHLD	81	0	2	96
EXHLD	81	0	3	96
EXHLD	81	192	0	96
EXHLD	81	192	1	96
NMSTR	82	0	7
NMSUR	82	0	7	96	384	0
EXTAP	83	192	0
EXTAP	83	192	7
NMHLD	84	0	6	192
NMHLD	84	192	5	192
NMTAP	85	0	4
NMTAP	85	96	4
NMTAP	85	192	3
NMTAP	85	192	5
NMTAP	85	288	2
NMTAP	86	0	1
NMTAP	86	96	2
NMTAP	86	192	3
NMTAP	86	288	4
NMTAP	87	0	5
NMTAP	87	96	6
NMTAP	87	192	0
NMTAP	87	192	7
NMHLD	88	0	1	192
NMHLD	88	192	2	192
NMTAP	89	0	3
NMTAP	89	96	3
NMTAP	89	192	2
NMTAP	89	192	4
NMTAP	89	288	5
NMTAP	90	0	6
NMTAP	90	96	5
NMTAP	90	192	4
NMTAP	90	288	3
NMTAP	91	0	2
NMTAP	91	96	1
NMTAP	91	192	0
NMTAP	91	192	7
NMTHO	92	0	0	384	C	1	L1
NMTAP	94	0	0
NMTAP	94	96	1
NMTAP	94	192	2
NMTAP	94	288	3
NMTAP	95	0	4
NMTAP	95	96	5
NMTAP	95	192	6
NMTAP	95	288	7
NMTAP	96	0	0
NMTAP	96	0	1
NMTAP	96	96	0
NMTAP	96	96	1
BRTAP	96	192	2
BRTAP	96	192	7
NMTAP	97	0	6
NMTAP	97	0	7
NMTAP	97	96	6
NMTAP	97	96	7
BRTAP	97	192	0
BRTAP	97	192	5
NMTAP	98	0	0
NMTAP	98	0	7
NMTAP	98	96	1
NMTAP	98	96	6
NMTAP	98	192	2
NMTAP	98	192	5
NMSTR	98	288	3
NMSXR	98	288	3	96	384	0
NMSTR	98	288	4
NMSXL	98	288	4	96	384	7

T_REC_TAP	226
T_REC_BRK	7
T_REC_XTP	24
T_REC_HLD	36
T_REC_XHO	10
T_REC_STR	15
T_REC_BST	0
T_REC_XST	3
T_REC_TTP	23
T_REC_THO	2
T_REC_SLD	18
T_REC_ALL	364
T_NUM_TAP	291
T_NUM_BRK	7
T_NUM_HLD	48
T_NUM_SLD	18
T_NUM_ALL	364
T_JUDGE_TAP	298
T_JUDGE_HLD	168
T_JUDGE_SLD	18
T_JUDGE_ALL	484
TTM_EACHPAIRS	72
TTM_SCR_TAP	145500
TTM_SCR_BRK	18200
TTM_SCR_HLD	48000
TTM_SCR_SLD	27000
TTM_SCR_ALL	238700
TTM_SCR_S	230900
TTM_SCR_SS	238000
TTM_RAT_ACV	10029

