VERSION	0.00.00	1.04.00
FES_MODE	0
BPM_DEF	180.000	180.000	180.000	180.000
MET_DEF	4	4
RESOLUTION	384
CLK_DEF	384
COMPATIBLE_CODE	MA2

BPM	0	0	180.000
MET	0	0	4	4

NMSTR	1	0	5
NMSI_	1	0	5	96	32	7
NMTAP	1	192	3
NMTAP	1	192	4
NMTAP	1	288	1
NMTAP	1	288	6
NMHLD	2	0	2	96
NMTAP	2	96	3
NMTAP	2	128	3
NMTAP	2	160	2
NMTHO	2	192	0	192	C	0	M1
NMTTP	2	256	0	B	0	M1
NMTTP	2	320	7	B	0	M1
NMTTP	3	0	0	E	0	M1
NMTTP	3	0	0	D	1	M1
NMTAP	3	288	2
NMTAP	3	336	2
NMTAP	4	0	1
NMTAP	4	0	3
NMTAP	4	288	5
NMTAP	4	336	5
NMHLD	5	0	4	48
NMHLD	5	0	6	48
NMTAP	5	72	3
NMTAP	5	72	7
NMHLD	5	144	1	48
NMHLD	5	144	3	48
NMTAP	5	216	0
NMTAP	5	216	4
NMTAP	5	288	2
NMTAP	5	288	5
NMTAP	5	336	1
NMTAP	5	336	6
NMTAP	6	0	0
NMTAP	6	24	7
NMTAP	6	48	0
NMTAP	6	72	7
NMTAP	6	96	0
NMTAP	6	120	7
NMSTR	6	144	0
NMSF_	6	144	0	96	36	4
NMTAP	6	168	7
NMTAP	6	192	0
BRTAP	6	240	0
NMHLD	7	0	2	96
NMTAP	7	48	0
NMHLD	7	96	3	96
NMTAP	7	144	0
NMTAP	7	192	2
NMTAP	7	240	2
NMTAP	7	264	3
NMTAP	7	312	3
NMTAP	7	336	2
NMHLD	8	0	5	96
NMTAP	8	48	7
NMHLD	8	96	4	96
NMTAP	8	144	7
NMTAP	8	192	5
NMTAP	8	240	5
NMTAP	8	264	4
NMTAP	8	312	4
NMTAP	8	336	5
NMTAP	9	0	6
NMTAP	9	24	7
NMTAP	9	48	6
NMTAP	9	72	7
NMTAP	9	96	5
NMTAP	9	120	0
NMTAP	9	144	5
NMTAP	9	168	0
NMTAP	9	192	4
NMTAP	9	216	1
NMTAP	9	240	4
NMTAP	9	264	1
NMTAP	9	288	3
NMTAP	9	312	2
NMSTR	9	336	3
NMSI_	9	336	3	96	48	5
NMTAP	9	360	2
BXHLD	10	0	4	288
CNSI_	10	96	5	0	48	2
CNSI_	10	144	2	0	48	6
CNSI_	10	192	6	0	48	1
CNSI_	10	240	1	0	48	7
NMSTR	11	0	5
NMSCR	11	0	5	96	48	7
NMTTP	11	48	4	E	0	M1
NMTTP	11	144	2	B	0	M1
NMSTR	11	192	4
NMSCR	11	192	4	96	48	6
NMTTP	11	240	3	B	0	M1
NMTTP	11	336	1	B	0	M1
NMSTR	12	0	2
NMSCL	12	0	2	96	48	0
NMTTP	12	48	4	E	0	M1
NMTTP	12	144	5	B	0	M1
NMSTR	12	192	3
NMSCL	12	192	3	96	48	1
NMTTP	12	240	4	B	0	M1
NMTTP	12	336	6	B	0	M1
NMSTR	13	0	5
NMSI_	13	0	5	96	48	7
NMSTR	13	48	2
NMSI_	13	48	2	96	48	0
NMSTR	13	192	6
NMSI_	13	192	6	96	48	4
NMSTR	13	240	1
NMSI_	13	240	1	96	48	3
NMTTP	14	0	0	E	0	M1
NMTTP	14	48	6	E	0	M1
NMTTP	14	96	4	E	0	M1
NMTTP	14	144	2	E	0	M1
NMTHO	14	192	0	72	C	0	M1
NMHLD	15	0	0	48
NMHLD	15	0	7	48
NMHLD	15	96	0	48
NMHLD	15	96	6	48
NMHLD	15	192	1	48
NMHLD	15	192	7	48
NMTAP	15	288	0
NMTAP	15	288	2
NMTAP	15	336	1
NMTAP	15	336	6
NMHLD	16	0	5	48
NMHLD	16	0	7	48
NMHLD	16	96	0	48
NMHLD	16	96	1	48
NMHLD	16	192	6	48
NMHLD	16	192	7	48
NMTAP	16	288	5
NMTAP	16	288	7
NMTAP	16	336	1
NMTAP	16	336	6
NMTAP	17	0	0
NMTAP	17	0	7
NMTAP	17	48	1
NMTAP	17	48	6
NMTAP	17	96	2
NMTAP	17	96	5
NMTAP	17	144	3
NMTAP	17	144	4
NMTAP	17	192	1
NMTAP	17	192	6
NMTHO	17	288	0	96	C	0	M1
NMTTP	18	0	0	B	0	M1
NMTTP	18	0	1	B	0	M1
NMTTP	18	0	6	B	0	M1
NMTTP	18	0	7	B	0	M1
NMTAP	18	288	3
NMTAP	18	288	4
NMTAP	18	336	3
NMTAP	18	336	4
NMTAP	19	0	2
NMTAP	19	24	3
NMTAP	19	48	2
NMTAP	19	72	3
NMTAP	19	96	1
NMTAP	19	144	1
NMTAP	19	192	4
NMTAP	19	216	3
NMTAP	19	240	4
NMTAP	19	264	3
NMTAP	19	288	5
NMTAP	19	336	5
NMTAP	20	0	2
NMTAP	20	24	3
NMTAP	20	48	2
NMTAP	20	72	3
NMTAP	20	96	1
NMTAP	20	120	4
NMTAP	20	144	1
NMTAP	20	168	4
NMHLD	20	192	2	48
NMTAP	20	240	3
NMHLD	20	288	5	48
NMTAP	20	336	4
NMTAP	21	0	5
NMTAP	21	24	4
NMTAP	21	48	5
NMTAP	21	72	4
NMTAP	21	96	6
NMTAP	21	120	3
NMTAP	21	144	6
NMTAP	21	168	3
NMTAP	21	192	5
NMTAP	21	240	4
NMTAP	21	264	4
NMTAP	21	312	5
BRTAP	22	0	2
BRTAP	22	0	7
BRTAP	22	48	3
BRTAP	22	48	4
BRTAP	22	96	0
BRTAP	22	96	5
BRTAP	22	144	3
BRTAP	22	144	4
NMTHO	22	192	0	72	C	0	M1
EXSTR	23	0	5
NMSI_	23	0	5	96	36	7
NMTTP	23	96	4	B	0	M1
NMTTP	23	144	0	C	0	M1
EXSTR	23	192	0
NMSI_	23	192	0	96	36	2
EXSTR	23	192	7
NMSI_	23	192	7	96	36	3
EXTAP	24	0	2
NMTAP	24	24	3
NMTAP	24	48	2
NMTAP	24	72	3
NMHLD	24	96	2	96
NMSTR	24	144	4
NMSI_	24	144	4	96	48	0
NMHLD	24	192	6	96
NMTAP	25	0	5
NMTAP	25	48	6
NMTAP	25	48	7
NMTAP	25	96	0
NMTAP	25	96	1
NMTAP	25	144	2
NMTAP	25	144	3
NMTAP	25	192	4
NMSTR	25	192	5
NMSCR	25	192	5	96	96	2
NMTHO	25	288	0	96	C	0	M1
NMSTR	26	192	0
NMSSL	26	192	0	96	96	4
NMTAP	26	192	7
NMTAP	27	0	6
NMTAP	27	48	5
NMTAP	27	96	4
NMTAP	27	144	2
NMTAP	27	168	3
NMTAP	27	216	3
NMTAP	27	240	2
NMSTR	27	288	2
NMSLL	27	288	2	96	120	3
NMTAP	27	288	3
EXTAP	28	0	2
EXTAP	28	0	5
NMTAP	28	96	6
CNSXL	28	120	3	0	168	3
NMTAP	28	192	7
NMTAP	28	240	7
NMTAP	28	288	7
NMTAP	29	0	1
NMTAP	29	48	2
NMTAP	29	96	3
NMTAP	29	144	5
NMTAP	29	168	4
NMTAP	29	216	4
NMTAP	29	240	5
NMSTR	29	288	4
BRSI_	29	288	4	96	36	1
NMSTR	29	288	5
BRSI_	29	288	5	96	36	0
EXTAP	30	0	4
EXTAP	30	0	5
NMTAP	30	144	7
NMTAP	30	192	6
NMTAP	30	240	5
NMTAP	30	288	3
NMTAP	30	288	4
NMTAP	30	336	2
BRTAP	31	0	1
BRTAP	31	0	6
NMTAP	31	96	3
NMTAP	31	120	4
NMTAP	31	144	3
NMTAP	31	168	4
NMTAP	31	192	2
NMTAP	31	216	5
NMTAP	31	240	2
NMTAP	31	288	3
NMTAP	31	288	4
NMTAP	31	336	2
NMHLD	32	0	1	48
NMHLD	32	0	3	48
NMHLD	32	72	4	48
NMHLD	32	72	6	48
NMTHO	32	144	0	96	C	0	M1
NMTTP	32	240	0	B	0	M1
NMTTP	32	240	0	E	0	M1
NMTTP	32	240	7	B	0	M1
EXTAP	33	0	1
EXTAP	33	0	6
BRSTR	33	288	2
NMSUR	33	288	2	96	96	7
BRTAP	33	288	5
NMSTR	34	0	7
NMSCR	34	0	7	96	96	2
NMSTR	34	96	2
NMSXR	34	96	2	96	120	1
NMTAP	34	192	7
NMTAP	34	240	6
NMSTR	34	288	5
NMSUL	34	288	5	96	96	0
NMSTR	35	0	0
NMSCL	35	0	0	96	96	5
NMSTR	35	96	5
NMSXL	35	96	5	96	120	6
NMTAP	35	192	0
NMTAP	35	240	1
NMSTR	35	288	2
NMSUL	35	288	2	96	96	5
NMSTR	36	0	5
NMSCL	36	0	5	96	96	2
NMSTR	36	96	2
NMSXL	36	96	2	96	120	3
NMTAP	36	192	5
NMTAP	36	240	6
NMTAP	36	288	7
NMTAP	37	0	6
NMTAP	37	24	0
NMTAP	37	48	6
NMTAP	37	72	0
NMTAP	37	96	7
NMTAP	37	120	1
NMTAP	37	144	7
NMTAP	37	168	1
NMTAP	37	192	4
NMTAP	37	216	3
NMTAP	37	240	4
NMTAP	37	264	3
EXTAP	37	288	5
NMTAP	37	300	6
NMTAP	37	312	7
NMTAP	37	324	0
NMTAP	37	336	1
NMTAP	37	348	2
NMTAP	37	360	3
NMTAP	37	372	4
BXSTR	38	0	5
NMSXL	38	0	5	96	288	1
NMSXR	38	0	5	96	288	1
CNSCL	39	0	1	0	144	7
CNSCR	39	0	1	0	144	3
NMTAP	39	288	5
NMTAP	39	312	3
NMTAP	39	336	5
NMTAP	39	360	3
NMHLD	40	0	4	48
NMHLD	40	0	5	48
NMTAP	40	72	3
NMTAP	40	72	6
NMHLD	40	144	2	48
NMHLD	40	144	3	48
NMTAP	40	216	1
NMTAP	40	216	4
NMHLD	40	288	0	48
NMHLD	40	288	1	48
NMTAP	40	360	2
NMTAP	40	360	7
NMHLD	41	48	6	48
NMHLD	41	48	7	48
NMTAP	41	120	0
NMTAP	41	120	5
NMSTR	41	192	7
NMSI_	41	192	7	96	36	3
NMTAP	41	240	7
NMHLD	42	0	4	192
NMTAP	42	0	5
NMTAP	42	48	5
NMTAP	42	96	6
NMTAP	42	120	7
NMTAP	42	144	0
NMTAP	42	168	1
NMSTR	42	192	2
NMSCL	42	192	2	96	36	0
NMTAP	42	288	2
NMTAP	42	288	5
NMTAP	43	0	2
NMHLD	43	0	3	192
NMTAP	43	48	2
NMTAP	43	96	1
NMTAP	43	120	0
NMTAP	43	144	7
NMTAP	43	168	6
NMSTR	43	192	5
NMSCR	43	192	5	96	36	7
NMTAP	43	288	2
NMTAP	43	288	5
EXTAP	44	0	1
NMTTP	44	0	5	E	0	M1
NMTAP	44	48	1
NMTTP	44	96	3	E	0	M1
EXTAP	44	96	6
NMTAP	44	144	6
EXTAP	44	192	2
NMTTP	44	192	4	E	0	M1
NMTHO	44	288	0	288	C	1	M1
EXTAP	44	288	5
NMTTP	45	0	5	D	0	M1
NMTTP	45	24	6	D	0	M1
NMTTP	45	48	7	D	0	M1
NMTTP	45	72	0	D	0	M1
NMTTP	45	96	1	D	0	M1
NMTTP	45	120	2	D	0	M1
NMTTP	45	144	3	D	0	M1
EXTAP	46	0	0
EXTAP	46	0	5
NMTAP	46	48	4
NMTAP	46	72	3
NMTAP	46	120	2
NMTAP	46	144	3
NMSTR	46	192	1
NMSI_	46	192	1	96	48	3
NMSTR	46	240	0
NMSI_	46	240	0	96	48	4
BXTAP	46	288	1
BXTAP	46	336	0
NMTAP	47	0	3
NMTAP	47	48	6
NMSTR	47	72	7
NMSCR	47	72	7	96	48	3
NMTAP	47	120	0
NMTAP	47	168	1
NMTAP	47	168	7
CNSI_	47	216	3	0	48	5
NMTAP	47	288	0
NMTAP	47	312	1
NMTAP	47	336	2
NMTAP	47	360	3
EXTAP	48	0	4
EXTAP	48	0	5
NMTAP	48	48	6
NMTAP	48	72	6
NMTAP	48	72	7
NMTAP	48	120	3
NMTAP	48	144	4
NMTAP	48	168	2
NMTAP	48	192	3
NMTAP	48	240	1
NMTAP	48	264	0
NMTAP	48	264	1
NMTAP	48	312	4
NMTAP	48	336	3
NMTAP	48	360	5
NMSTR	49	0	4
NMSI_	49	0	4	96	48	0
NMSTR	49	48	6
NMSI_	49	48	6	96	48	2
NMTAP	49	96	4
NMTAP	49	144	6
BXHLD	49	192	0	96
NMTTP	49	240	3	D	0	M1
NMTTP	49	252	3	A	0	M1
NMTTP	49	264	4	D	0	M1
NMTTP	49	276	4	A	0	M1
NMTTP	49	288	5	D	1	M1
EXTAP	50	0	2
EXTAP	50	0	7
NMTAP	50	48	3
NMTAP	50	72	4
NMTAP	50	120	5
NMTAP	50	144	4
NMSTR	50	192	6
NMSI_	50	192	6	96	48	4
NMSTR	50	240	7
NMSI_	50	240	7	96	48	3
BXTAP	50	288	6
BXTAP	50	336	7
NMTAP	51	0	4
NMTAP	51	48	1
NMSTR	51	72	0
NMSI_	51	72	0	96	48	4
NMTAP	51	120	7
NMTAP	51	168	0
NMTAP	51	168	6
NMTAP	51	240	5
NMSTR	51	288	0
NMSCR	51	288	0	96	96	6
NMTAP	51	288	6
NMTAP	51	336	1
NMTAP	51	336	7
EXTAP	52	0	0
BXHLD	52	0	2	96
NMTAP	52	120	1
NMTAP	52	144	0
NMTAP	52	168	1
NMTAP	52	192	2
NMTAP	52	192	7
NMTAP	52	240	6
NMTAP	52	288	0
NMTAP	52	288	5
NMTAP	52	336	1
NMTAP	53	0	2
NMTAP	53	0	3
NMTAP	53	48	4
NMTAP	53	96	3
NMTAP	53	96	5
NMTAP	53	144	6
NMTAP	53	192	0
NMTAP	53	192	7
NMTAP	53	240	1
NMTAP	53	240	6
NMTAP	53	264	2
NMTAP	53	264	5
BXTAP	53	288	3
BXTAP	53	288	4
EXTAP	54	0	3
BXTAP	54	0	6
NMTAP	54	48	3
NMTAP	54	96	3
NMTAP	54	144	2
NMTAP	54	168	3
BXTAP	54	192	1
EXTAP	54	192	4
NMTAP	54	240	4
NMTAP	54	288	4
NMTAP	54	336	5
NMTAP	54	360	4
EXTAP	55	0	3
EXTAP	55	0	6
NMTAP	55	48	7
EXTAP	55	96	1
EXTAP	55	96	4
NMTAP	55	144	0
NMSTR	55	192	2
NMSI_	55	192	2	96	48	7
NMSTR	55	192	5
NMSI_	55	192	5	96	48	0
BRTAP	55	288	2
BRTAP	55	288	5
NMTTP	55	289	0	D	1	M1
NMTAP	56	0	1
NMTAP	56	48	2
NMTAP	56	96	3
NMTAP	56	144	5
NMTAP	56	168	4
NMTAP	56	216	2
NMTAP	56	240	3
NMSTR	56	288	1
NMSCR	56	288	1	96	288	7
NMSTR	56	288	6
NMSCL	56	288	6	96	288	0
NMTAP	56	336	0
NMTAP	56	336	7
BRTAP	57	0	1
BRTAP	57	0	6
CNSXL	57	288	0	0	384	3
CNSXR	57	288	7	0	384	4
EXTAP	59	0	2
NMTAP	59	24	3
NMTAP	59	48	2
NMTAP	59	72	3
NMTAP	59	96	1
NMTAP	59	120	4
NMTAP	59	144	1
NMTAP	59	168	4
NMTAP	59	192	0
NMTAP	59	216	5
NMTAP	59	240	0
NMTAP	59	264	5
NMTAP	59	288	7
NMTAP	59	312	6
NMTAP	59	336	7
NMTAP	59	360	6
NMTTP	60	0	2	A	0	M1
NMTTP	60	0	2	D	0	M1
NMTTP	60	48	5	A	0	M1
NMTTP	60	48	6	D	0	M1
NMTTP	60	96	3	E	0	M1
NMTTP	60	120	3	B	0	M1
NMTTP	60	144	4	B	0	M1
NMTTP	60	168	5	E	0	M1
NMSTR	60	192	0
BRSSL	60	192	0	96	96	4
NMTAP	60	240	7
NMTAP	60	288	0
NMTAP	60	288	6
NMTAP	61	0	5
NMTAP	61	48	5
NMTAP	61	96	6
NMTAP	61	144	3
NMHLD	61	168	3	72
NMTAP	61	240	4
NMTAP	61	288	5
NMTAP	61	312	4
NMTAP	61	336	5
NMTAP	62	0	0
NMTAP	62	24	7
NMTAP	62	48	0
NMTAP	62	72	7
NMTAP	62	96	1
NMTAP	62	120	0
NMHLD	62	168	2	48
NMTAP	62	216	3
NMTAP	62	240	2
NMTAP	62	264	4
NMTAP	62	288	3
NMTAP	62	312	5
NMTAP	62	336	4
NMTAP	62	360	6
NMTAP	63	48	1
NMTAP	63	72	0
NMTAP	63	96	1
NMTAP	63	120	0
NMTAP	63	144	1
NMTAP	63	192	6
NMTAP	63	216	7
NMTAP	63	240	6
NMTAP	63	264	7
NMTAP	63	288	6
NMTAP	63	336	3
NMTAP	63	360	4
NMTAP	64	0	0
NMTAP	64	24	1
NMTAP	64	48	2
NMTAP	64	72	3
NMTAP	64	96	7
NMTAP	64	120	6
NMTAP	64	144	5
NMTAP	64	168	4
NMTAP	64	192	1
NMTAP	64	216	2
NMTAP	64	240	3
NMTAP	64	264	4
NMTAP	64	288	6
NMTAP	64	312	5
NMTAP	64	336	4
NMTAP	64	360	3
EXSTR	65	0	2
NMSSL	65	0	2	96	96	6
NMTTP	65	192	1	E	0	M1
NMTTP	65	216	1	B	0	M1
NMTTP	65	240	2	B	0	M1
NMTTP	65	264	3	E	0	M1
NMTTP	65	288	7	E	0	M1
NMTTP	65	312	6	B	0	M1
NMTTP	65	336	5	B	0	M1
NMTTP	65	360	5	E	0	M1
NMTTP	66	0	0	A	0	M1
NMTTP	66	16	1	D	0	M1
NMTTP	66	32	1	A	0	M1
NMTTP	66	48	2	D	0	M1
NMTTP	66	64	2	A	0	M1
NMTTP	66	80	3	D	0	M1
NMTTP	66	144	7	A	0	M1
NMTTP	66	160	7	D	0	M1
NMTTP	66	176	6	A	0	M1
NMTTP	66	192	6	D	0	M1
NMTTP	66	208	5	A	0	M1
NMTTP	66	224	5	D	0	M1
NMTTP	66	288	0	C	1	M1
NMTTP	67	0	0	D	0	M1
NMTTP	67	24	7	A	0	M1
NMTTP	67	48	7	D	0	M1
NMTTP	67	72	0	E	0	M1
NMTTP	67	96	7	B	0	M1
NMTTP	67	120	6	B	0	M1
NMTTP	67	144	1	B	0	M1
NMTTP	67	168	0	C	0	M1
NMTTP	67	192	5	B	0	M1
NMTTP	67	216	2	B	0	M1
NMTTP	67	240	3	B	0	M1
NMTTP	67	264	4	E	0	M1
NMTTP	67	288	3	D	0	M1
NMTTP	67	312	3	A	0	M1
NMTTP	67	336	4	D	0	M1
NMTTP	68	0	0	B	0	M1
NMTTP	68	24	0	A	0	M1
NMTTP	68	48	1	B	0	M1
NMTTP	68	72	1	A	0	M1
NMTTP	68	96	2	B	0	M1
NMTTP	68	120	2	A	0	M1
NMTTP	68	144	3	B	0	M1
NMTTP	68	168	3	A	0	M1
NMTTP	68	192	4	B	0	M1
NMTTP	68	216	4	A	0	M1
NMTTP	68	240	5	B	0	M1
NMTTP	68	264	5	A	0	M1
NMTTP	68	288	0	C	1	M1
EXTAP	69	0	6
EXTAP	69	0	7
NMTAP	69	48	0
NMTAP	69	48	1
NMHLD	69	72	0	72
NMHLD	69	72	1	72
NMTAP	69	192	3
NMTAP	69	192	4
NMTAP	69	240	4
NMTAP	69	240	5
NMSTR	69	288	3
NMSI_	69	288	3	96	48	7
NMSTR	69	288	4
NMSI_	69	288	4	96	48	6
NMTAP	69	336	2
NMTAP	69	336	3
NMTAP	70	0	3
NMTAP	70	0	4
EXHLD	70	96	6	24
EXHLD	70	96	7	24
EXHLD	70	144	0	24
EXHLD	70	144	5	24
EXSTR	70	192	1
NMSCR	70	192	1	96	48	4
EXSTR	70	192	4
NMSCR	70	192	4	96	48	7
EXTAP	71	0	2
EXTAP	71	0	6
NMTAP	71	48	2
NMTAP	71	48	6
EXTAP	71	96	3
EXTAP	71	96	7
NMTAP	71	144	0
NMTAP	71	144	4
EXTAP	71	192	1
EXTAP	71	192	5
NMTAP	71	216	0
NMTAP	71	216	4
NMTAP	71	240	3
NMTAP	71	240	7
NMTAP	71	264	2
NMTAP	71	264	6
NMTAP	71	288	1
NMTAP	71	288	5
NMTAP	71	312	0
NMTAP	71	312	4
NMTAP	71	336	3
NMTAP	71	336	7
NMTAP	71	360	2
NMTAP	71	360	6
EXSTR	72	0	1
NMSLR	72	0	1	96	192	6
EXSTR	72	0	5
NMSLR	72	0	5	96	192	2
NMHLD	73	0	5	192
NMHLD	73	192	4	192
NMHLD	74	0	3	192
NMHLD	74	192	2	192
NMTAP	75	0	3
NMTAP	75	72	3
NMTAP	75	192	4
NMTAP	75	264	4
NMTAP	76	0	3
NMTAP	76	0	5
NMTAP	76	96	2
NMTAP	76	96	4
NMTAP	76	192	3
NMHLD	76	192	5	96
NMTAP	76	288	4
NMSTR	77	0	7
NMSCL	77	0	7	96	192	4
NMTTP	77	96	4	E	0	M1
NMTTP	77	192	0	C	0	M1
NMTTP	77	288	0	E	0	M1
NMSTR	78	0	0
NMSCR	78	0	0	96	192	3
NMTTP	78	96	4	D	0	M1
NMTTP	78	192	0	C	0	M1
NMTTP	78	288	0	D	0	M1
EXHLD	79	0	4	96
EXHLD	79	0	6	96
EXHLD	79	192	1	96
EXHLD	79	192	3	96
NMTAP	80	0	4
NMTAP	80	0	6
NMTAP	80	48	5
NMTAP	80	96	1
NMTAP	80	96	3
NMTAP	80	144	2
NMTAP	80	192	4
NMTAP	80	192	7
NMTAP	80	240	5
NMTAP	80	288	0
NMTAP	80	288	3
NMTAP	80	336	2
NMSTR	81	0	3
NMSCL	81	0	3	96	48	0
NMSTR	81	0	4
NMSCR	81	0	4	96	48	7
BXTAP	81	96	3
BXTAP	81	96	4
EXTAP	81	192	1
NMSTR	81	192	6
NMSI_	81	192	6	96	48	3
NMSTR	81	240	7
NMSI_	81	240	7	96	48	2
BXTAP	81	288	6
BXTAP	81	336	7
NMTAP	82	0	3
NMTAP	82	48	1
NMSTR	82	72	0
NMSCL	82	72	0	96	48	4
NMTAP	82	120	7
NMTAP	82	168	0
NMTAP	82	168	6
CNSI_	82	216	4	0	48	1
NMTAP	82	288	7
NMTAP	82	312	6
NMTAP	82	336	5
NMTAP	82	360	4
EXTAP	83	0	2
EXTAP	83	0	3
NMTAP	83	48	1
NMTAP	83	72	0
NMTAP	83	72	1
NMTAP	83	120	3
NMTAP	83	144	2
NMTAP	83	168	5
NMTAP	83	192	4
NMTAP	83	240	6
NMTAP	83	264	6
NMTAP	83	264	7
NMTAP	83	312	4
NMTAP	83	336	5
NMTAP	83	360	2
NMSTR	84	0	3
NMSI_	84	0	3	96	48	7
NMSTR	84	48	1
NMSI_	84	48	1	96	48	5
NMTAP	84	96	3
NMTAP	84	144	1
BXHLD	84	192	7	96
NMTTP	84	240	5	D	0	M1
NMTTP	84	252	4	A	0	M1
NMTTP	84	264	4	D	0	M1
NMTTP	84	276	3	A	0	M1
NMTTP	84	288	3	D	1	M1
EXTAP	85	0	0
EXTAP	85	0	6
NMTAP	85	48	5
NMTAP	85	72	4
NMTAP	85	120	2
NMTAP	85	144	3
EXSTR	85	192	1
BRSI_	85	192	1	96	48	4
EXTAP	85	192	7
EXSTR	85	240	0
BRSI_	85	240	0	96	48	5
BXTAP	85	288	1
BXTAP	85	336	0
NMTAP	86	0	4
NMTAP	86	48	6
NMSTR	86	72	7
NMSI_	86	72	7	96	48	3
NMTAP	86	120	0
NMTAP	86	168	1
NMTAP	86	168	7
NMTAP	86	240	2
NMTAP	86	288	1
NMSTR	86	288	7
NMSCL	86	288	7	96	96	1
NMTAP	86	336	0
NMTAP	86	336	6
BXHLD	87	0	5	96
EXTAP	87	0	7
NMTAP	87	120	6
NMTAP	87	144	7
NMTAP	87	168	6
NMTAP	87	192	0
NMTAP	87	192	5
NMTAP	87	240	1
NMTAP	87	288	2
NMTAP	87	288	7
NMTAP	87	336	6
NMTAP	88	0	4
NMTAP	88	0	5
NMTAP	88	48	3
NMTAP	88	96	2
NMTAP	88	96	4
NMTAP	88	144	1
NMTAP	88	192	0
NMTAP	88	192	7
NMTAP	88	240	1
NMTAP	88	240	6
NMTAP	88	264	2
NMTAP	88	264	5
BXTAP	88	288	3
BXTAP	88	288	4
BXTAP	89	0	1
EXTAP	89	0	4
BXTAP	89	48	1
NMTAP	89	48	4
BXTAP	89	96	1
NMTAP	89	96	4
NMTAP	89	144	5
NMTAP	89	168	4
EXTAP	89	192	3
BXTAP	89	192	6
NMTAP	89	240	3
BXTAP	89	240	6
NMTAP	89	288	3
BXTAP	89	288	6
NMTAP	89	336	2
NMTAP	89	360	3
EXTAP	90	0	1
EXTAP	90	0	4
NMTAP	90	48	0
EXTAP	90	96	3
EXTAP	90	96	6
NMTAP	90	144	7
NMSTR	90	192	2
NMSI_	90	192	2	96	48	7
NMSTR	90	192	5
NMSI_	90	192	5	96	48	0
BRTAP	90	288	2
BRTAP	90	288	5
NMTTP	90	289	0	D	1	M1
NMTAP	91	0	6
NMTAP	91	48	5
NMTAP	91	96	4
NMTAP	91	144	2
NMTAP	91	168	3
NMTAP	91	216	5
NMTAP	91	240	4
NMTAP	91	288	0
NMTAP	91	288	7
NMTAP	91	336	1
NMTAP	91	336	6
NMTAP	92	0	2
NMHLD	92	0	5	128
NMTAP	92	64	2
NMTAP	92	128	2
NMHLD	92	192	1	128
NMTAP	92	192	4
NMTAP	92	256	4
NMTAP	92	320	4
NMTAP	93	0	3
NMHLD	93	0	6	128
NMTAP	93	64	3
NMTAP	93	128	3
NMHLD	93	192	0	128
NMTAP	93	192	7
NMTAP	93	256	7
NMTAP	93	320	7
BRTAP	94	0	1
BRTAP	94	0	6
NMTAP	94	192	2
NMTAP	94	192	5
NMHLD	94	320	3	1216
NMSTR	94	320	4
NMSCL	94	320	4	96	736	5
CNSUL	97	0	5	0	288	4
BXTAP	98	0	4
NMTTP	98	1	4	E	1	M1

T_REC_TAP	509
T_REC_BRK	20
T_REC_XTP	47
T_REC_BXX	23
T_REC_HLD	53
T_REC_XHO	8
T_REC_BHO	0
T_REC_BXH	5
T_REC_STR	58
T_REC_BST	1
T_REC_XST	10
T_REC_XBS	1
T_REC_TTP	111
T_REC_THO	7
T_REC_SLD	66
T_REC_BSL	5
T_REC_ALL	924
T_NUM_TAP	735
T_NUM_BRK	55
T_NUM_HLD	68
T_NUM_SLD	66
T_NUM_ALL	924
T_JUDGE_TAP	780
T_JUDGE_HLD	161
T_JUDGE_SLD	71
T_JUDGE_ALL	1012
TTM_EACHPAIRS	160
TTM_SCR_TAP	367500
TTM_SCR_BRK	143000
TTM_SCR_HLD	68000
TTM_SCR_SLD	99000
TTM_SCR_ALL	677500
TTM_SCR_S	651850
TTM_SCR_SS	672000
TTM_RAT_ACV	10081

