VERSION	0.00.00	1.04.00
FES_MODE	0
BPM_DEF	180.000	180.000	180.000	180.000
MET_DEF	4	4
RESOLUTION	384
CLK_DEF	384
COMPATIBLE_CODE	MA2

BPM	0	0	180.000
MET	0	0	4	4

NMHLD	1	0	0	96
NMHLD	1	0	1	96
NMHLD	1	192	2	96
NMHLD	1	192	3	96
NMHLD	2	0	4	96
NMHLD	2	0	5	96
NMHLD	2	192	6	96
NMHLD	2	192	7	96
NMTTP	3	0	0	A	0	M1
NMTTP	3	0	1	E	1	M1
NMTTP	3	0	1	A	0	M1
NMTTP	4	0	6	A	0	M1
NMTTP	4	0	7	E	1	M1
NMTTP	4	0	7	A	0	M1
EXHLD	5	0	1	72
NMHLD	5	72	0	72
EXHLD	5	144	7	72
NMHLD	5	216	6	72
EXSTR	5	288	5
NMSCR	5	288	5	96	192	3
EXHLD	6	240	4	96
EXTAP	7	0	2
EXTAP	7	0	6
NMTAP	7	96	5
NMTAP	7	192	3
NMTAP	7	192	4
NMTAP	7	288	2
NMTAP	7	336	2
NMTAP	8	0	3
NMTAP	8	96	1
NMTAP	8	192	3
NMTAP	8	192	4
NMTAP	8	288	5
NMTAP	8	336	5
NMTAP	9	0	4
NMTAP	9	96	6
NMTAP	9	192	3
NMTAP	9	192	4
NMSTR	9	288	2
NMSUR	9	288	2	96	192	4
EXTAP	10	192	7
NMTAP	10	288	0
NMTAP	10	288	6
NMTAP	11	0	1
NMTAP	11	96	2
NMTAP	11	96	3
NMTAP	11	192	4
NMTAP	11	288	5
NMTAP	11	336	5
NMTAP	12	0	4
NMTAP	12	96	3
NMTAP	12	96	5
NMHLD	12	192	6	96
NMTAP	12	288	7
NMTAP	13	0	1
NMTAP	13	96	2
NMTAP	13	96	3
NMTAP	13	192	4
NMTAP	13	288	2
NMTAP	13	288	3
NMTAP	14	0	1
NMTAP	14	48	1
NMTAP	14	96	7
NMTAP	14	144	7
NMSTR	14	192	0
NMSI_	14	192	0	96	48	4
NMTAP	15	0	5
NMTAP	15	96	4
NMTAP	15	96	6
NMTAP	15	192	7
NMTAP	15	288	0
NMTAP	15	288	6
NMHLD	16	0	1	96
NMTAP	16	96	0
NMHLD	16	192	6	96
NMTAP	16	288	7
NMTAP	17	0	5
NMTAP	17	48	5
NMTAP	17	96	4
NMTAP	17	144	4
NMTAP	17	192	6
NMTAP	17	288	3
NMTAP	17	288	4
NMSTR	18	0	2
NMSXL	18	0	2	96	240	5
NMTAP	19	0	6
NMTAP	19	96	4
NMTAP	19	96	5
NMTAP	19	192	3
NMTAP	19	288	2
NMTAP	19	336	2
NMTAP	20	0	3
NMTAP	20	96	2
NMTAP	20	96	4
NMHLD	20	192	1	96
NMTAP	20	288	0
NMTAP	21	0	6
NMTAP	21	96	4
NMTAP	21	96	5
NMTAP	21	192	3
NMTAP	21	288	4
NMTAP	21	288	5
NMTAP	22	0	6
NMTAP	22	48	6
NMTAP	22	96	0
NMTAP	22	144	0
NMSTR	22	192	7
NMSI_	22	192	7	96	48	3
NMTAP	23	0	2
NMTAP	23	96	1
NMTAP	23	96	3
NMTAP	23	192	0
NMTAP	23	288	1
NMTAP	23	288	7
NMHLD	24	0	6	96
NMTAP	24	96	7
NMHLD	24	192	1	96
NMTAP	24	288	0
NMTAP	25	0	2
NMTAP	25	48	2
NMTAP	25	96	3
NMTAP	25	144	3
NMTAP	25	192	1
NMTAP	25	288	3
NMTAP	25	288	4
NMSTR	26	0	5
NMSXR	26	0	5	96	240	0
NMHLD	27	0	1	192
NMHLD	27	192	3	96
NMSTR	27	288	4
NMSXR	27	288	4	96	144	3
CNSUR	28	144	3	0	144	0
NMHLD	29	0	6	192
NMHLD	29	192	4	96
NMSTR	29	288	3
NMSXL	29	288	3	96	144	4
CNSUL	30	144	4	0	144	7
NMHLD	31	0	0	96
NMHLD	31	0	1	96
NMHLD	31	192	6	96
NMHLD	31	192	7	96
EXTAP	32	0	2
EXTAP	32	0	3
EXTAP	32	72	3
EXTAP	32	72	4
EXSTR	32	144	4
NMSI_	32	144	4	96	48	0
EXTAP	32	144	5
NMHLD	33	0	7	384
NMTAP	34	0	0
NMTAP	34	96	1
NMTAP	34	96	7
NMTAP	34	192	2
NMTAP	34	192	6
NMTAP	34	288	5
NMTAP	34	336	5
NMTAP	35	0	4
NMTAP	35	96	6
NMTAP	35	96	7
NMTAP	35	192	0
NMTAP	35	192	1
NMTAP	35	288	2
NMTAP	35	336	2
NMTAP	36	0	3
NMTAP	36	96	0
NMTAP	36	96	1
NMTAP	36	192	6
NMTAP	36	192	7
NMTAP	36	288	3
NMTAP	36	288	4
NMHLD	37	0	1	96
NMHLD	37	96	3	96
NMHLD	37	192	4	96
EXSTR	37	288	6
NMSXL	37	288	6	96	288	5
CNSCL	38	288	5	0	96	2
CNSXL	39	0	2	0	288	1
NMTTP	40	0	1	E	0	M1
NMTTP	40	96	2	E	0	M1
NMTTP	40	192	3	E	0	M1
NMTTP	40	288	4	E	0	M1
NMTTP	41	0	5	E	0	M1
NMTTP	41	96	6	E	0	M1
NMTTP	41	192	7	E	0	M1
NMTAP	42	0	1
NMTAP	42	0	3
NMTAP	42	96	3
NMTAP	42	192	2
NMTAP	42	240	2
NMTAP	42	288	3
NMTAP	43	0	4
NMTAP	43	0	6
NMTAP	43	96	4
NMTAP	43	192	5
NMTAP	43	240	5
NMTAP	43	288	4
NMTAP	44	0	2
NMTAP	44	0	3
NMTAP	44	96	4
NMTAP	44	96	5
NMTAP	44	192	3
NMTAP	44	240	3
NMTAP	44	288	4
NMTTP	45	0	0	C	1	M1
NMTTP	45	0	2	E	0	M1
NMTTP	45	0	6	E	0	M1
BRTAP	46	0	0
BRTAP	46	0	7
NMTAP	46	96	2
NMTAP	46	96	5
NMTAP	46	192	6
NMTAP	46	240	6
NMTAP	46	288	4
NMTAP	46	336	4
NMTAP	47	0	5
NMTAP	47	48	5
NMSTR	47	96	3
NMSI_	47	96	3	96	48	0
NMSI_	47	96	3	96	48	6
EXTAP	47	288	7
NMHLD	48	0	0	48
NMHLD	48	0	6	48
NMTAP	48	96	3
NMTAP	48	96	4
NMHLD	48	192	1	48
NMHLD	48	192	7	48
NMTAP	48	288	3
NMTAP	48	288	4
NMTAP	49	0	0
NMTAP	49	48	1
NMTAP	49	96	7
NMTAP	49	144	6
NMSTR	49	192	1
NMSCR	49	192	1	96	48	4
NMTAP	50	0	7
NMTAP	50	96	0
NMTAP	50	96	6
NMTAP	50	192	2
NMTAP	50	240	2
NMTAP	50	288	3
NMTAP	50	336	3
NMTAP	51	0	1
NMTAP	51	48	1
NMTAP	51	96	7
NMTAP	51	144	7
NMSTR	51	192	0
NMSI_	51	192	0	96	48	4
NMSTR	51	288	6
NMSLL	51	288	6	96	96	2
NMTAP	52	192	0
NMTAP	52	192	1
NMTAP	52	288	2
NMTAP	52	288	3
NMTAP	53	0	0
NMTAP	53	0	5
NMTAP	53	96	1
NMTAP	53	96	7
NMTAP	53	144	1
NMTAP	53	144	7
NMSTR	53	192	0
NMSI_	53	192	0	96	48	4
EXTAP	53	288	5
EXTAP	54	0	7
NMTAP	54	48	7
NMTAP	54	96	7
NMTAP	54	144	7
EXTAP	54	192	0
NMTAP	54	240	0
NMTAP	54	288	0
NMTAP	54	336	0
EXTAP	55	0	7
NMTAP	55	48	7
EXTAP	55	96	0
NMTAP	55	144	0
EXSTR	55	192	1
NMSCR	55	192	1	96	48	4
EXSTR	55	192	7
NMSCL	55	192	7	96	48	4
NMTTP	56	0	0	C	1	M1
NMHLD	57	0	4	48
NMHLD	57	0	6	48
NMHLD	57	96	5	48
NMHLD	57	192	3	48
NMHLD	57	288	2	48
NMHLD	58	0	1	48
NMHLD	58	0	3	48
NMHLD	58	96	2	48
NMHLD	58	192	4	48
NMHLD	58	288	5	48
NMTAP	59	0	6
NMTAP	59	48	6
NMTAP	59	96	7
NMTAP	59	144	7
NMTAP	59	192	0
NMTAP	59	240	0
NMSTR	59	288	1
NMSXR	59	288	1	96	288	6
NMTAP	59	336	1
NMHLD	61	0	5	192
NMTAP	61	192	4
NMTAP	61	288	3
NMTAP	61	288	4
NMHLD	62	0	2	192
NMTAP	62	192	3
NMTAP	62	288	3
NMTAP	62	288	4
NMTAP	63	0	5
NMTAP	63	96	4
NMTAP	63	96	5
NMTAP	63	192	6
NMTAP	63	288	6
NMTAP	63	288	7
NMTAP	64	0	1
NMTAP	64	96	0
NMTAP	64	96	1
NMTAP	64	192	2
NMTAP	64	192	7
NMTAP	64	288	3
NMSTR	64	288	6
NMSUL	64	288	6	96	144	1
NMTAP	65	192	0
NMTAP	65	288	0
NMTAP	65	288	7
NMTAP	66	0	6
NMTAP	66	96	6
NMTAP	66	96	7
NMTAP	66	192	1
NMTAP	66	288	0
NMTAP	66	288	1
NMTAP	67	0	2
NMTAP	67	0	3
NMTAP	67	96	3
NMTAP	67	96	4
NMTAP	67	192	4
NMTAP	67	192	5
EXTAP	67	288	3
EXSTR	67	288	4
NMSUL	67	288	4	96	192	3
NMTAP	69	0	3
NMTAP	69	0	4
NMTAP	69	96	3
NMTAP	69	192	2
NMTAP	69	240	2
NMTAP	69	288	3
NMTAP	70	0	4
NMTAP	70	0	6
NMTAP	70	96	5
NMTAP	70	192	1
NMTAP	70	192	3
NMTAP	70	288	2
NMTAP	71	0	4
NMTAP	71	0	5
NMTAP	71	96	6
NMTAP	71	96	7
NMTAP	71	192	0
NMTAP	71	192	1
NMTAP	71	288	2
NMTAP	71	288	3
NMHLD	72	0	1	192
NMHLD	72	0	5	192
NMTTP	73	0	0	E	0	M1
NMTTP	73	0	0	D	0	M1
NMTTP	73	192	1	E	0	M1
NMTTP	73	192	1	D	0	M1
NMTTP	74	0	2	E	0	M1
NMTTP	74	0	2	D	0	M1
NMTTP	74	192	3	E	0	M1
NMTTP	74	192	3	D	0	M1
NMTTP	75	0	4	E	0	M1
NMTTP	75	0	4	D	0	M1
NMTTP	75	192	5	E	0	M1
NMTTP	75	192	5	D	0	M1
NMTTP	76	0	6	E	0	M1
NMTTP	76	0	6	D	0	M1
NMTTP	76	192	7	E	0	M1
NMTTP	76	192	7	D	0	M1
NMTAP	77	0	0
NMTAP	77	96	1
NMTAP	77	192	2
NMTAP	77	288	1
NMTAP	77	288	3
NMTAP	78	0	7
NMTAP	78	96	6
NMTAP	78	192	5
NMTAP	78	288	4
NMTAP	78	288	6
BRHLD	79	0	3	96
BRHLD	79	0	7	96
BRHLD	79	192	0	96
BRHLD	79	192	4	96
NMTAP	80	0	6
NMTAP	80	48	6
NMTAP	80	96	7
NMTAP	80	144	7
NMTAP	80	192	0
NMTAP	80	240	0
NMTAP	80	288	1
NMTAP	80	336	1
EXTAP	81	0	2
EXTAP	81	0	5
BRTAP	81	96	0
BRTAP	81	96	7
NMTAP	81	192	1
NMTAP	81	240	1
NMTAP	81	288	3
NMTAP	81	336	3
NMTAP	82	0	2
NMTAP	82	48	2
NMSTR	82	96	4
NMSI_	82	96	4	96	48	1
NMSI_	82	96	4	96	48	7
EXTAP	82	288	0
NMHLD	83	0	1	48
NMHLD	83	0	7	48
NMTAP	83	96	4
NMTAP	83	96	5
NMHLD	83	192	0	48
NMHLD	83	192	6	48
NMTAP	83	288	2
NMTAP	83	288	3
NMTAP	84	0	7
NMTAP	84	48	7
NMTAP	84	96	0
NMTAP	84	144	0
NMSTR	84	192	6
NMSCL	84	192	6	96	48	3
NMTAP	85	0	0
NMTAP	85	96	1
NMTAP	85	96	7
NMTAP	85	192	5
NMTAP	85	240	5
NMTAP	85	288	4
NMTAP	85	336	4
NMTAP	86	0	6
NMTAP	86	48	6
NMTAP	86	96	0
NMTAP	86	144	0
NMSTR	86	192	7
NMSI_	86	192	7	96	48	3
NMSTR	86	288	1
NMSLR	86	288	1	96	96	5
NMTAP	87	192	6
NMTAP	87	192	7
NMTAP	87	288	0
NMTAP	87	288	1
NMTAP	88	0	2
NMSTR	88	0	6
NMSI_	88	0	6	96	48	4
NMSTR	88	96	0
NMSI_	88	96	0	96	48	2
NMSTR	88	192	7
NMSI_	88	192	7	96	48	3
BRTAP	88	288	0
EXTAP	89	0	0
NMTAP	89	48	0
NMTAP	89	96	0
NMTAP	89	144	0
EXTAP	89	192	7
NMTAP	89	240	7
NMTAP	89	288	7
NMTAP	89	336	7
EXTAP	90	0	0
NMTAP	90	48	0
EXTAP	90	96	7
NMTAP	90	144	7
EXSTR	90	192	0
NMSCR	90	192	0	96	48	3
EXSTR	90	192	6
NMSCL	90	192	6	96	48	3
NMTTP	91	0	0	B	0	M1
NMTTP	91	0	0	C	1	M1
NMTTP	91	0	6	B	0	M1
NMTTP	91	0	7	B	0	M1
EXTAP	92	0	2
NMTAP	92	64	2
NMTAP	92	128	2
EXTAP	92	192	3
NMTAP	92	256	3
NMTAP	92	320	3
EXTAP	93	0	4
NMTAP	93	64	4
NMTAP	93	128	4
EXTAP	93	192	5
NMTAP	93	256	5
NMTAP	93	320	5
EXTAP	94	0	3
EXTAP	94	0	4
NMTAP	94	192	3
NMTAP	94	192	4
NMTHO	94	336	0	1200	C	0	M1

T_REC_TAP	298
T_REC_BRK	5
T_REC_XTP	28
T_REC_HLD	54
T_REC_XHO	3
T_REC_STR	21
T_REC_BST	0
T_REC_XST	8
T_REC_TTP	37
T_REC_THO	1
T_REC_SLD	31
T_REC_ALL	486
T_NUM_TAP	392
T_NUM_BRK	5
T_NUM_HLD	58
T_NUM_SLD	31
T_NUM_ALL	486
T_JUDGE_TAP	397
T_JUDGE_HLD	139
T_JUDGE_SLD	31
T_JUDGE_ALL	567
TTM_EACHPAIRS	93
TTM_SCR_TAP	196000
TTM_SCR_BRK	13000
TTM_SCR_HLD	58000
TTM_SCR_SLD	46500
TTM_SCR_ALL	313500
TTM_SCR_S	303650
TTM_SCR_SS	313000
TTM_RAT_ACV	10015

