VERSION	0.00.00	1.04.00
FES_MODE	0
BPM_DEF	200.000	200.000	200.000	200.000
MET_DEF	4	4
RESOLUTION	384
CLK_DEF	384
COMPATIBLE_CODE	MA2

BPM	0	0	200.000
MET	0	0	4	4

NMTHO	2	0	0	1056	C	0	M1
EXSTR	2	0	2
NMSUL	2	0	2	96	192	5
CNSCR	2	288	5	0	384	1
NMSTR	4	0	2
NMSI_	4	0	2	96	48	5
NMSTR	4	192	6
NMSI_	4	192	6	96	48	3
EXTAP	5	0	0
NMTTP	5	0	6	B	1	M1
NMTTP	5	96	1	B	1	M1
EXTAP	5	96	7
BXTAP	5	192	2
BXTAP	5	192	5
EXSTR	6	0	6
NMSI_	6	0	6	96	48	2
NMSTR	6	96	7
NMSI_	6	96	7	96	48	3
NMSTR	6	192	0
NMSI_	6	192	0	96	48	4
NMSTR	6	288	1
NMSI_	6	288	1	96	48	5
NMSTR	7	0	7
NMSCL	7	0	7	96	96	4
NMSTR	7	96	4
NMSCR	7	96	4	96	96	7
NMTAP	7	192	2
NMTAP	7	240	1
NMTAP	7	288	0
EXSTR	8	0	1
NMSI_	8	0	1	96	48	5
NMSTR	8	96	0
NMSI_	8	96	0	96	48	4
NMSTR	8	192	7
NMSI_	8	192	7	96	48	3
NMSTR	8	288	6
NMSI_	8	288	6	96	48	2
NMSTR	9	0	0
NMSCR	9	0	0	96	96	3
NMSTR	9	96	3
NMSCL	9	96	3	96	96	0
NMTAP	9	192	5
NMTAP	9	240	6
NMTAP	9	288	7
EXSTR	10	0	2
NMSI_	10	0	2	96	48	4
EXSTR	10	0	6
NMSI_	10	0	6	96	48	4
EXTAP	10	192	3
EXSTR	10	192	5
NMSI_	10	192	5	96	48	7
NMTAP	10	240	2
NMTAP	10	288	1
EXSTR	11	0	1
NMSI_	11	0	1	96	48	3
EXSTR	11	0	5
NMSI_	11	0	5	96	48	3
EXSTR	11	192	2
NMSI_	11	192	2	96	48	0
EXTAP	11	192	4
NMTAP	11	240	5
NMTAP	11	288	6
EXSTR	12	0	6
NMSCL	12	0	6	96	96	2
NMSTR	12	96	2
NMSCL	12	96	2	96	96	6
NMSTR	12	192	6
NMSCL	12	192	6	96	96	2
NMTAP	12	288	2
NMTAP	13	0	6
NMTAP	13	48	7
NMTAP	13	96	0
NMTAP	13	144	1
NMTAP	13	192	2
NMTAP	13	192	5
BRTAP	13	288	6
BRTAP	13	288	7
NMHLD	14	0	2	384
NMTTP	14	96	3	B	0	M1
NMTTP	14	96	3	A	0	M1
NMTTP	14	288	6	B	0	M1
NMTTP	14	288	6	A	0	M1
NMHLD	15	0	5	384
NMTTP	15	96	4	B	0	M1
NMTTP	15	96	4	A	0	M1
NMTTP	15	288	1	B	0	M1
NMTTP	15	288	1	A	0	M1
NMHLD	16	0	2	288
NMTTP	16	96	3	B	0	M1
NMTTP	16	96	3	A	0	M1
NMTAP	16	288	5
EXTAP	17	0	6
EXTAP	17	0	7
EXTAP	17	48	6
EXTAP	17	48	7
EXTAP	17	144	2
EXTAP	17	144	5
EXTAP	17	240	0
EXTAP	17	240	1
EXTAP	17	288	0
EXTAP	17	288	1
NMSTR	18	0	2
NMSXR	18	0	2	96	192	7
NMTAP	18	96	4
NMTAP	18	192	5
NMTAP	18	288	6
NMSTR	19	0	5
NMSXL	19	0	5	96	192	0
NMTAP	19	96	3
NMTAP	19	192	2
NMTAP	19	288	1
NMSTR	20	0	2
NMSV_	20	0	2	96	48	7
NMTAP	20	96	4
NMSTR	20	192	5
NMSV_	20	192	5	96	48	0
NMTAP	20	288	3
NMSTR	21	0	1
NMSI_	21	0	1	96	48	4
NMTAP	21	96	1
NMSTR	21	96	6
NMSI_	21	96	6	96	48	3
NMTAP	21	192	2
NMTAP	21	192	6
NMTAP	21	288	0
NMTAP	21	288	1
NMTAP	22	0	2
NMHLD	22	0	7	96
NMTAP	22	96	2
NMHLD	22	192	0	96
NMTAP	22	192	2
NMTAP	22	288	2
NMTAP	23	0	2
NMTAP	23	0	7
NMTAP	23	48	6
NMTAP	23	96	2
NMTAP	23	96	5
NMTAP	23	144	6
NMTAP	23	192	2
NMTAP	23	192	7
NMTAP	23	288	1
NMTAP	23	288	5
NMHLD	24	0	0	96
NMTAP	24	0	5
NMTAP	24	96	5
NMTAP	24	192	5
NMHLD	24	192	7	96
NMTAP	24	288	5
NMTAP	25	0	0
NMTAP	25	0	5
NMTAP	25	48	1
NMTAP	25	96	2
NMSTR	25	144	3
NMSI_	25	144	3	96	48	0
NMTAP	25	144	4
NMTAP	25	240	3
NMTAP	25	240	4
NMTAP	25	336	7
EXHLD	26	0	2	192
EXSTR	26	0	7
NMSI_	26	0	7	96	48	3
NMTAP	26	192	4
NMTAP	26	240	5
NMTAP	26	288	6
EXSTR	27	0	1
NMSI_	27	0	1	96	48	5
EXSTR	27	0	7
NMSI_	27	0	7	96	48	3
NMTAP	27	192	2
NMTAP	27	240	1
NMTAP	27	288	0
EXSTR	28	0	1
NMSUR	28	0	1	96	48	5
EXTAP	28	0	7
NMTAP	28	96	6
EXTAP	28	192	4
EXSTR	28	192	5
NMSUR	28	192	5	96	48	1
NMTAP	28	288	2
NMTAP	28	336	2
NMTAP	29	48	3
NMTAP	29	48	4
NMTAP	29	144	5
NMTAP	29	144	6
NMTAP	29	240	0
NMTAP	29	264	7
BXTAP	29	288	1
BXTAP	29	288	6
NMTHO	30	0	0	288	C	0	M1
NMHLD	30	0	2	288
NMTAP	31	0	0
NMTAP	31	0	1
NMHLD	31	48	0	96
NMTAP	31	48	1
NMHLD	31	144	7	96
NMTAP	31	240	6
NMTAP	31	264	5
NMTAP	31	288	4
NMTHO	32	0	0	288	C	0	M1
NMHLD	32	0	5	288
NMTAP	33	0	6
NMTAP	33	0	7
NMTAP	33	48	6
NMHLD	33	48	7	96
NMHLD	33	144	0	96
NMTAP	33	240	1
NMTAP	33	264	2
NMTAP	33	288	3
NMTAP	34	0	4
NMTAP	34	0	5
NMTAP	34	48	6
NMTAP	34	96	4
NMTAP	34	96	5
NMTAP	34	144	3
NMTAP	34	192	5
NMTAP	34	216	4
NMTAP	34	240	5
NMTAP	34	264	4
NMTAP	34	288	5
NMTAP	34	336	3
NMTAP	35	0	2
NMTAP	35	0	4
NMTAP	35	48	1
NMTAP	35	96	2
NMTAP	35	96	3
NMTAP	35	144	4
NMTAP	35	192	2
NMTAP	35	216	3
NMTAP	35	240	2
NMTAP	35	264	3
NMTAP	35	288	2
NMTAP	35	336	5
EXTAP	36	0	4
EXSTR	36	0	6
NMSCR	36	0	6	96	48	1
NMTAP	36	96	1
EXSTR	36	192	2
NMSCR	36	192	2	96	48	5
NMTAP	36	288	5
EXTAP	37	0	6
EXTAP	37	0	7
NMTAP	37	96	0
NMTAP	37	144	1
NMTAP	37	192	2
NMTAP	37	240	3
BXTAP	37	288	3
BXTAP	37	288	4
EXSTR	38	0	2
NMSUL	38	0	2	96	48	6
EXTAP	38	0	3
NMTAP	38	96	2
NMSTR	38	96	3
NMSUR	38	96	3	96	48	7
NMSTR	38	192	2
NMSCL	38	192	2	96	48	7
NMTAP	38	192	3
NMTAP	38	288	2
NMTAP	38	288	6
NMTAP	39	0	4
NMTAP	39	0	5
NMTAP	39	96	6
NMTAP	39	96	7
NMTAP	39	144	6
NMSTR	39	144	7
NMSI_	39	144	7	96	48	3
NMTAP	39	240	4
NMTAP	39	336	5
EXTAP	40	0	4
EXSTR	40	0	5
NMSUR	40	0	5	96	48	1
NMSTR	40	96	4
NMSUL	40	96	4	96	48	0
NMTAP	40	96	5
NMTAP	40	192	4
NMSTR	40	192	5
NMSCR	40	192	5	96	48	0
NMTAP	40	288	1
NMTAP	40	288	5
BRTAP	41	0	2
BRTAP	41	0	3
NMTAP	41	96	0
NMTAP	41	96	7
BRTAP	41	144	0
BRTAP	41	144	7
NMTAP	41	240	4
NMTAP	41	240	5
BRTAP	41	288	4
BRSTR	41	288	5
NMSI_	41	288	5	96	48	3
NMTAP	42	0	2
BXTAP	42	0	5
NMTAP	42	96	1
NMTAP	42	120	0
NMTAP	42	144	1
NMTAP	42	192	6
NMTAP	42	216	7
NMTAP	42	240	6
NMTAP	42	288	4
NMSTR	42	288	5
NMSI_	42	288	5	96	48	3
NMTAP	43	0	2
BXTAP	43	0	5
NMTAP	43	96	1
NMTAP	43	120	0
NMTAP	43	144	1
NMTAP	43	192	6
NMTAP	43	216	7
NMTAP	43	240	6
NMTAP	43	288	4
NMTAP	43	288	5
EXSTR	44	0	2
NMSI_	44	0	2	96	48	7
EXTAP	44	0	3
NMTAP	44	96	7
NMTAP	44	144	6
EXTAP	44	192	4
EXSTR	44	192	5
NMSI_	44	192	5	96	48	0
NMTAP	44	288	0
NMTAP	44	336	1
NMTAP	45	0	2
NMSTR	45	0	3
NMSI_	45	0	3	96	48	0
NMSI_	45	0	3	96	48	6
BRTAP	45	96	3
BRTAP	45	192	1
BRTAP	45	192	5
BRTAP	45	288	3
BRTAP	45	288	4
EXTAP	46	0	4
EXSTR	46	0	5
NMSUR	46	0	5	96	48	1
NMSTR	46	96	4
NMSUL	46	96	4	96	48	0
NMTAP	46	96	5
NMTAP	46	192	4
NMSTR	46	192	5
NMSCR	46	192	5	96	48	0
NMTAP	46	288	1
NMTAP	46	288	5
NMTAP	47	0	2
NMTAP	47	0	3
NMTAP	47	96	0
NMTAP	47	96	1
NMSTR	47	144	0
NMSI_	47	144	0	96	48	4
NMTAP	47	144	1
NMTAP	47	240	3
NMTAP	47	336	2
EXSTR	48	0	2
NMSUL	48	0	2	96	48	6
EXTAP	48	0	3
NMTAP	48	96	2
NMSTR	48	96	3
NMSUR	48	96	3	96	48	7
NMSTR	48	192	2
NMSCL	48	192	2	96	48	7
NMTAP	48	192	3
NMTAP	48	288	2
NMTAP	48	288	6
NMTAP	49	0	4
NMTAP	49	0	5
NMTAP	49	96	2
NMTAP	49	96	3
NMSTR	49	144	2
NMSI_	49	144	2	96	48	0
NMSTR	49	144	3
NMSI_	49	144	3	96	48	5
NMTAP	49	240	2
NMTAP	49	240	3
NMTAP	49	336	6
NMTAP	49	336	7
BRTAP	50	0	6
BRTAP	50	0	7
EXTAP	50	96	0
EXTAP	50	96	4
NMTAP	50	120	1
NMTAP	50	144	2
NMTAP	50	168	3
EXTAP	50	192	0
NMTAP	50	216	7
NMTAP	50	240	6
NMTAP	50	264	5
EXTAP	50	288	2
EXTAP	50	288	4
BRTAP	51	0	0
BRTAP	51	0	1
EXTAP	51	96	3
EXTAP	51	96	7
NMTAP	51	120	6
NMTAP	51	144	5
NMTAP	51	168	4
EXTAP	51	192	7
NMTAP	51	216	0
NMTAP	51	240	1
NMTAP	51	264	2
EXTAP	51	288	3
EXSTR	51	288	5
NMSI_	51	288	5	96	48	7
EXTAP	52	0	4
EXTAP	52	12	3
EXTAP	52	24	2
BXSTR	52	96	1
NMSI_	52	96	1	96	48	3
EXTAP	52	192	0
EXTAP	52	204	7
EXTAP	52	216	6
EXTAP	52	288	4
EXTAP	52	288	5
BRHLD	52	336	3	144
BRHLD	52	336	6	144
NMTAP	53	192	1
NMTAP	53	192	5
BRSTR	53	240	1
NMSXL	53	240	1	96	336	4
BRSTR	53	240	5
NMSXL	53	240	5	96	336	0
NMTAP	53	336	1
NMTAP	53	336	5
NMTAP	55	0	3
NMTAP	55	0	7
NMTAP	55	96	2
NMTAP	55	96	7
NMTAP	55	192	1
NMTAP	55	192	7
NMTAP	55	288	0
NMTAP	55	288	7
NMHLD	56	0	1	48
NMHLD	56	48	2	48
NMHLD	56	96	3	48
NMHLD	56	144	4	48
NMHLD	56	192	5	48
NMHLD	56	240	6	48
NMHLD	56	288	7	48
NMHLD	56	336	0	48
EXTAP	57	0	1
EXTAP	57	96	3
EXTAP	57	96	4
EXTAP	57	144	3
EXTAP	57	144	4
EXTAP	57	240	6
EXTAP	57	240	7
EXTAP	57	288	6
EXTAP	57	288	7
NMHLD	58	0	5	192
NMTAP	58	48	4
NMTAP	58	96	4
NMTAP	58	144	4
NMHLD	58	192	2	192
NMTAP	58	240	3
NMTAP	58	288	3
NMTAP	58	336	3
NMHLD	59	0	6	192
NMTAP	59	48	5
NMTAP	59	96	5
NMTAP	59	144	5
NMTAP	59	192	2
NMTAP	59	240	4
NMTAP	59	264	3
NMTAP	59	288	4
NMTAP	59	336	2
EXTAP	60	0	1
EXTAP	60	0	5
NMTAP	60	48	6
NMTAP	60	96	2
NMTAP	60	96	7
NMTAP	60	144	1
NMTAP	60	192	0
NMTAP	60	192	5
NMTAP	60	240	6
NMTAP	60	288	2
NMTAP	60	288	7
NMTAP	60	336	1
EXSTR	61	0	0
NMSCR	61	0	0	96	48	3
EXSTR	61	96	0
NMSCL	61	96	0	96	48	5
NMSTR	61	192	0
NMSI_	61	192	0	96	48	4
BXTAP	61	288	0
EXHLD	62	0	7	384
NMTTP	62	96	1	B	0	M1
NMTTP	62	120	2	B	0	M1
NMTTP	62	144	3	B	0	M1
NMTTP	62	168	4	B	0	M1
NMTTP	62	192	5	B	0	M1
NMTTP	62	288	1	A	0	M1
NMTTP	62	312	2	A	0	M1
NMTTP	62	336	3	A	0	M1
NMTTP	62	360	4	A	0	M1
NMTTP	63	0	5	A	0	M1
NMTAP	63	96	0
NMTAP	63	96	6
NMTAP	63	192	0
NMTAP	63	192	7
NMTAP	63	240	1
NMTAP	63	288	0
NMTAP	63	288	7
NMTAP	63	336	6
EXHLD	64	0	0	384
NMTTP	64	96	6	B	0	M1
NMTTP	64	120	5	B	0	M1
NMTTP	64	144	4	B	0	M1
NMTTP	64	168	3	B	0	M1
NMTTP	64	192	2	B	0	M1
NMTTP	64	288	6	A	0	M1
NMTTP	64	312	5	A	0	M1
NMTTP	64	336	4	A	0	M1
NMTTP	64	360	3	A	0	M1
NMTTP	65	0	2	A	0	M1
EXTAP	65	96	1
EXTAP	65	96	7
EXSTR	65	144	2
BRSI_	65	144	2	96	48	6
EXSTR	65	144	6
BRSI_	65	144	6	96	48	2
NMTAP	66	0	0
NMTAP	66	0	7
NMTAP	66	96	1
NMTAP	66	120	0
NMTAP	66	144	1
NMTAP	66	168	0
NMTAP	66	192	1
NMTAP	66	240	7
NMTAP	66	288	2
NMTAP	66	288	6
NMTAP	66	336	3
EXTAP	67	0	4
EXTAP	67	0	5
NMTAP	67	48	6
NMTAP	67	96	3
NMTAP	67	96	5
NMTAP	67	144	2
NMTAP	67	192	3
NMTAP	67	192	4
NMTAP	67	240	5
NMTAP	67	288	2
NMTAP	67	288	4
NMTAP	67	336	1
EXTAP	68	0	4
NMHLD	68	48	4	96
EXTAP	68	96	6
NMHLD	68	144	6	96
EXTAP	68	192	0
NMHLD	68	240	0	96
EXTAP	68	288	2
NMTAP	68	336	2
EXSTR	69	0	4
NMSI_	69	0	4	96	48	0
NMTAP	69	48	3
NMTAP	69	96	2
NMTAP	69	144	1
NMTTP	69	192	7	A	0	M1
NMTTP	69	216	6	A	0	M1
NMTTP	69	240	5	A	0	M1
NMTTP	69	264	4	A	0	M1
NMTTP	69	288	0	A	0	M1
NMTTP	69	312	1	A	0	M1
NMTTP	69	336	2	A	0	M1
NMTTP	69	360	3	A	0	M1
EXSTR	70	0	6
NMSI_	70	0	6	96	96	0
CNSV_	70	192	0	0	96	3
NMSTR	71	0	1
NMSCR	71	0	1	96	192	6
EXTAP	71	192	7
EXTAP	71	240	7
EXTAP	71	288	7
EXTAP	71	336	7
EXSTR	72	0	7
NMSUL	72	0	7	96	192	4
NMTAP	73	0	2
NMTAP	73	0	3
EXTAP	73	48	2
EXTAP	73	48	3
EXTAP	73	144	0
EXTAP	73	144	1
EXTAP	73	240	6
EXTAP	73	240	7
EXTAP	73	336	4
EXTAP	73	336	5
NMSTR	74	0	4
NMSUL	74	0	4	96	96	6
NMHLD	74	0	5	672
NMTAP	74	288	6
NMSTR	75	0	6
NMSCR	75	0	6	96	96	2
NMSTR	75	288	1
NMSI_	75	288	1	96	48	5
NMTTP	76	0	1	A	1	M1
NMSTR	76	0	7
NMSI_	76	0	7	96	48	3
NMSTR	76	96	2
NMSI_	76	96	2	96	48	6
NMTTP	76	96	7	A	1	M1
NMTTP	76	192	2	A	1	M1
NMSTR	76	192	4
NMSI_	76	192	4	96	48	0
NMTAP	76	288	1
NMTTP	76	288	4	A	1	M1
NMTAP	77	0	7
NMTAP	77	48	7
BRTAP	77	144	1
BRTAP	77	144	6
NMTAP	77	240	4
NMTAP	77	240	5
NMTAP	77	288	4
NMTAP	77	288	5
EXSTR	78	0	2
NMSUL	78	0	2	96	48	6
EXTAP	78	0	3
NMTAP	78	96	2
NMSTR	78	96	3
NMSUR	78	96	3	96	48	7
NMSTR	78	192	2
NMSCL	78	192	2	96	48	7
NMTAP	78	192	3
NMTAP	78	288	2
NMTAP	78	288	6
NMTAP	79	0	4
NMTAP	79	0	5
NMTAP	79	96	6
NMTAP	79	96	7
NMTAP	79	144	6
NMSTR	79	144	7
NMSI_	79	144	7	96	48	3
NMTAP	79	240	4
NMTAP	79	336	5
EXTAP	80	0	4
EXSTR	80	0	5
NMSUR	80	0	5	96	48	1
NMSTR	80	96	4
NMSUL	80	96	4	96	48	0
NMTAP	80	96	5
NMTAP	80	192	4
NMSTR	80	192	5
NMSCR	80	192	5	96	48	0
NMTAP	80	288	1
NMTAP	80	288	5
NMTAP	81	0	2
NMTAP	81	0	3
NMTAP	81	96	4
NMTAP	81	96	5
NMSTR	81	144	4
NMSI_	81	144	4	96	48	2
NMSTR	81	144	5
NMSI_	81	144	5	96	48	7
NMTAP	81	240	4
NMTAP	81	240	5
NMTAP	81	336	0
NMTAP	81	336	1
BRTAP	82	0	0
BRTAP	82	0	1
EXTAP	82	96	3
EXTAP	82	96	7
NMTAP	82	120	6
NMTAP	82	144	5
NMTAP	82	168	4
EXTAP	82	192	7
NMTAP	82	216	0
NMTAP	82	240	1
NMTAP	82	264	2
EXTAP	82	288	3
EXTAP	82	288	5
BRTAP	83	0	6
BRTAP	83	0	7
EXTAP	83	96	0
EXTAP	83	96	4
NMTAP	83	120	1
NMTAP	83	144	2
NMTAP	83	168	3
EXTAP	83	192	0
NMTAP	83	216	7
NMTAP	83	240	6
NMTAP	83	264	5
EXSTR	83	288	2
NMSI_	83	288	2	96	48	0
EXTAP	83	288	4
EXTAP	84	0	3
EXTAP	84	12	4
EXTAP	84	24	5
BXSTR	84	96	6
NMSI_	84	96	6	96	48	4
EXTAP	84	192	7
EXTAP	84	204	0
EXTAP	84	216	1
EXTAP	84	288	2
EXTAP	84	288	3
BRHLD	84	336	1	144
BRHLD	84	336	4	144
NMTAP	85	192	2
NMTAP	85	192	6
BRSTR	85	240	2
NMSXL	85	240	2	96	336	5
BRSTR	85	240	6
NMSXL	85	240	6	96	336	1
NMTAP	85	336	2
NMTAP	85	336	6
NMSTR	87	0	2
NMSCL	87	0	2	96	96	6
NMSTR	87	96	6
NMSCR	87	96	6	96	96	2
NMTAP	87	192	3
NMTAP	87	240	4
NMTAP	87	288	5
NMTAP	88	0	1
NMTAP	88	0	6
NMSTR	88	96	0
NMSI_	88	96	0	96	48	4
NMTAP	88	96	5
NMSTR	88	192	7
NMSI_	88	192	7	96	48	3
NMSTR	88	288	6
NMSI_	88	288	6	96	48	2
NMSTR	89	0	5
NMSCR	89	0	5	96	96	1
NMSTR	89	96	1
NMSCL	89	96	1	96	96	5
NMTAP	89	192	4
NMTAP	89	240	3
BXTAP	89	288	2
BXTAP	89	336	2
EXTAP	90	0	0
EXTAP	90	0	1
EXTAP	90	96	2
EXTAP	90	96	7
NMTAP	90	120	6
NMTAP	90	144	5
NMTAP	90	168	4
EXTAP	90	192	7
NMTAP	90	216	0
NMTAP	90	240	1
NMTAP	90	264	2
NMTTP	90	288	7	A	0	M1
NMTTP	90	312	6	A	0	M1
NMTTP	90	336	5	A	0	M1
NMTTP	90	360	4	A	0	M1
NMTTP	91	0	3	A	0	M1
EXTAP	91	0	7
EXTAP	91	96	0
EXTAP	91	96	5
NMTAP	91	120	1
NMTAP	91	144	2
NMTAP	91	168	3
EXTAP	91	192	0
NMTAP	91	216	7
NMTAP	91	240	6
NMTAP	91	264	5
NMTTP	91	288	0	A	0	M1
NMTTP	91	312	1	A	0	M1
NMTTP	91	336	2	A	0	M1
NMTTP	91	360	3	A	0	M1
EXSTR	92	0	0
NMSUL	92	0	0	96	96	4
NMTTP	92	0	4	A	0	M1
NMSTR	92	96	4
NMSUL	92	96	4	96	96	0
NMSTR	92	192	0
NMSCL	92	192	0	96	96	4
NMSTR	92	288	4
NMSCL	92	288	4	96	96	0
NMTAP	93	0	0
BRTAP	93	96	4
BRTAP	93	192	2
BRTAP	93	192	6
BRTAP	93	288	0
BRTAP	93	288	7
EXTAP	94	0	3
EXTAP	94	0	6
NMTAP	94	48	5
EXTAP	94	96	1
EXTAP	94	96	4
NMTAP	94	144	2
NMTAP	94	192	5
NMTAP	94	216	4
NMTAP	94	240	6
NMTAP	94	264	4
NMTAP	94	288	5
NMTAP	94	312	4
NMTAP	94	336	6
EXTAP	95	0	2
EXTAP	95	0	7
NMTAP	95	48	1
EXTAP	95	96	0
EXTAP	95	96	5
NMTAP	95	144	6
NMTAP	95	192	1
NMTAP	95	216	0
NMTAP	95	240	2
NMTAP	95	264	0
NMTAP	95	288	1
NMTAP	95	312	0
NMTAP	95	336	2
EXTAP	96	0	3
EXTAP	96	0	6
NMTAP	96	48	5
EXTAP	96	96	1
EXTAP	96	96	4
NMTAP	96	144	2
NMTAP	96	192	5
NMTAP	96	216	4
NMTAP	96	240	6
NMTAP	96	264	4
NMTAP	96	288	5
NMTAP	96	312	4
NMTAP	96	336	6
EXTAP	97	0	2
EXTAP	97	0	7
NMTAP	97	48	1
NMTAP	97	72	0
NMTAP	97	96	1
NMTAP	97	120	0
NMTAP	97	144	1
EXTAP	97	192	2
EXTAP	97	192	7
NMTAP	97	240	1
NMTAP	97	264	0
NMTAP	97	288	1
NMTAP	97	312	0
NMTAP	97	336	1
EXTAP	98	0	2
EXTAP	98	0	3
EXTAP	98	96	1
EXTAP	98	96	4
NMTAP	98	120	5
NMTAP	98	144	6
NMTAP	98	168	7
EXTAP	98	192	4
NMTAP	98	216	3
NMTAP	98	240	2
NMTAP	98	264	1
NMTTP	98	288	4	A	0	M1
NMTTP	98	312	5	A	0	M1
NMTTP	98	336	6	A	0	M1
NMTTP	98	360	7	A	0	M1
NMTTP	99	0	0	A	0	M1
EXTAP	99	0	4
EXTAP	99	96	3
EXTAP	99	96	6
NMTAP	99	120	2
NMTAP	99	144	1
NMTAP	99	168	0
EXTAP	99	192	3
NMTAP	99	216	4
NMTAP	99	240	5
NMTAP	99	264	6
NMTTP	99	288	3	A	0	M1
NMTTP	99	312	2	A	0	M1
NMTTP	99	336	1	A	0	M1
NMTTP	99	360	0	A	0	M1
EXTAP	100	0	3
NMTTP	100	0	7	A	0	M1
NMHLD	100	48	3	96
NMTAP	100	96	2
NMHLD	100	144	2	96
NMTAP	100	192	1
NMHLD	100	240	1	96
NMTAP	100	288	0
NMHLD	100	336	0	96
EXTAP	101	0	7
EXTAP	101	24	6
EXTAP	101	48	5
EXTAP	101	72	4
EXTAP	101	96	3
EXTAP	101	120	2
EXTAP	101	144	1
EXTAP	101	168	0
BXTAP	101	192	3
BXTAP	101	204	4
BXTAP	101	216	5
BXTAP	101	228	6
BXTAP	101	240	7
BXTAP	101	252	0
BXTAP	101	264	1
BXTAP	101	276	2
BXTAP	101	288	3
NMSTR	102	0	6
NMSI_	102	0	6	96	48	3
NMSTR	102	0	7
NMSI_	102	0	7	96	48	2
NMTAP	102	96	6
NMTAP	102	96	7
NMSTR	102	192	0
NMSI_	102	192	0	96	48	5
NMSTR	102	192	1
NMSI_	102	192	1	96	48	4
NMTAP	102	288	0
NMTAP	102	288	1
NMSTR	103	0	6
NMSI_	103	0	6	96	48	2
NMSTR	103	0	7
NMSI_	103	0	7	96	48	3
NMTAP	103	96	6
NMTAP	103	96	7
NMSTR	103	192	0
NMSI_	103	192	0	96	48	4
NMSTR	103	192	1
NMSI_	103	192	1	96	48	5
NMTAP	103	288	0
NMTAP	103	288	1
NMSTR	104	0	0
NMSCR	104	0	0	96	384	7
NMSTR	104	0	7
NMSCL	104	0	7	96	384	0
BRTAP	104	96	0
BRTAP	104	96	7
CNSSL	105	96	0	0	288	4
CNSSR	105	96	7	0	288	3

T_REC_TAP	389
T_REC_BRK	29
T_REC_XTP	135
T_REC_BXX	20
T_REC_HLD	32
T_REC_XHO	3
T_REC_BHO	4
T_REC_BXH	0
T_REC_STR	70
T_REC_BST	5
T_REC_XST	35
T_REC_XBS	2
T_REC_TTP	64
T_REC_THO	3
T_REC_SLD	111
T_REC_BSL	2
T_REC_ALL	904
T_NUM_TAP	693
T_NUM_BRK	62
T_NUM_HLD	38
T_NUM_SLD	111
T_NUM_ALL	904
T_JUDGE_TAP	749
T_JUDGE_HLD	164
T_JUDGE_SLD	113
T_JUDGE_ALL	1026
TTM_EACHPAIRS	183
TTM_SCR_TAP	346500
TTM_SCR_BRK	161200
TTM_SCR_HLD	38000
TTM_SCR_SLD	166500
TTM_SCR_ALL	712200
TTM_SCR_S	684850
TTM_SCR_SS	706000
TTM_RAT_ACV	10087

