VERSION	0.00.00	1.04.00
FES_MODE	0
BPM_DEF	200.000	200.000	200.000	200.000
MET_DEF	4	4
RESOLUTION	384
CLK_DEF	384
COMPATIBLE_CODE	MA2

BPM	0	0	200.000
MET	0	0	4	4

NMSTR	2	0	2
NMSCR	2	0	2	96	192	5
NMSTR	3	0	6
NMSUL	3	0	6	96	192	2
NMSTR	4	0	1
NMSCL	4	0	1	96	192	6
NMTAP	5	0	4
NMTAP	5	96	4
BRTAP	5	192	2
BRTAP	5	192	6
NMTAP	6	0	7
NMTAP	6	96	7
NMTAP	6	192	6
NMTAP	6	288	5
NMTAP	7	0	3
NMTAP	7	96	4
NMTAP	7	192	2
NMTAP	7	288	1
NMTAP	7	288	3
NMTAP	8	0	0
NMTAP	8	96	0
NMTAP	8	192	1
NMTAP	8	288	2
NMTAP	9	0	4
NMTAP	9	96	3
NMTAP	9	192	5
NMTAP	9	288	4
NMTAP	9	288	6
NMHLD	10	0	7	96
NMTAP	10	192	0
NMTAP	10	192	6
NMTAP	11	0	2
NMTAP	11	0	3
NMTAP	11	96	4
NMTAP	11	96	5
BRTAP	11	192	1
BRTAP	11	192	7
NMTAP	12	0	0
NMTAP	12	96	0
NMTAP	12	192	7
NMTAP	12	288	7
NMTAP	13	0	0
NMTAP	13	0	6
NMTAP	13	96	1
NMTAP	13	96	5
NMTAP	13	192	2
NMTAP	13	192	4
BRTAP	13	288	3
NMHLD	14	0	2	384
NMHLD	15	0	3	384
NMHLD	16	0	4	384
NMTAP	17	0	5
NMTAP	17	96	4
NMTAP	17	96	5
NMTAP	17	192	3
NMTAP	17	192	4
NMTAP	17	288	2
NMTAP	17	288	3
NMSTR	18	0	1
NMSCR	18	0	1	96	96	4
NMSTR	19	0	6
NMSCL	19	0	6	96	96	3
NMSTR	20	0	0
NMSCR	20	0	0	96	96	3
NMSTR	20	192	7
NMSCL	20	192	7	96	96	4
NMTAP	21	0	0
NMTAP	21	96	0
NMTAP	21	192	1
NMTAP	21	192	7
BRTAP	21	288	2
BRTAP	21	288	6
NMTAP	22	0	5
NMTAP	22	96	5
NMHLD	22	192	3	96
NMHLD	22	192	4	96
NMTAP	23	0	2
NMTAP	23	96	2
NMTAP	23	192	3
NMTAP	23	288	1
NMTAP	23	288	4
NMHLD	24	0	0	96
NMTAP	24	96	7
NMHLD	24	192	6	96
NMTAP	24	288	7
NMHLD	25	0	1	96
NMTAP	25	96	0
NMTAP	25	144	0
NMTAP	25	240	1
NMTAP	25	240	7
NMTAP	25	336	2
NMTAP	25	336	6
NMHLD	26	0	2	192
NMHLD	26	0	6	192
NMTAP	26	288	3
NMTAP	26	288	5
NMTAP	27	0	2
NMTAP	27	96	3
NMTAP	27	192	4
NMTAP	27	288	5
NMSTR	28	0	6
NMSI_	28	0	6	96	96	3
NMSTR	28	192	1
NMSI_	28	192	1	96	96	4
NMTAP	29	0	6
NMTAP	29	96	7
NMTAP	29	192	0
BRTAP	29	288	1
BRTAP	29	288	6
NMSTR	30	0	2
NMSCR	30	0	2	96	192	5
NMHLD	31	0	6	144
NMTAP	31	144	4
NMTAP	31	288	3
NMTAP	31	288	4
NMSTR	32	0	5
NMSCL	32	0	5	96	192	2
NMHLD	33	0	1	144
NMTAP	33	144	3
NMTAP	33	288	3
NMTAP	33	288	4
EXTAP	34	0	2
NMTAP	34	96	2
NMTAP	34	192	3
NMTAP	34	288	1
NMTAP	34	288	4
EXTAP	35	0	5
NMTAP	35	96	5
NMTAP	35	192	4
NMTAP	35	288	3
NMTAP	35	288	6
EXTAP	36	0	7
NMTAP	36	96	7
EXTAP	36	192	0
EXTAP	36	192	7
NMSTR	36	288	1
NMSCR	36	288	1	96	48	3
NMSTR	36	288	6
NMSCL	36	288	6	96	48	4
NMTAP	37	192	3
NMTAP	37	192	4
BRTAP	37	288	1
BRTAP	37	288	6
NMTAP	38	0	0
NMTAP	38	96	1
NMTAP	38	96	7
NMTAP	38	192	6
NMTAP	38	288	5
NMTAP	38	288	7
NMTAP	39	0	4
NMTAP	39	96	3
NMTAP	39	96	5
NMTAP	39	192	2
NMTAP	39	192	6
NMTAP	39	288	1
NMTAP	39	288	7
NMSTR	40	0	0
NMSI_	40	0	0	96	96	4
NMSTR	40	192	7
NMSI_	40	192	7	96	96	3
NMTAP	41	0	2
EXTAP	41	96	0
NMTAP	41	96	1
EXTAP	41	144	0
NMTAP	41	144	1
NMTAP	41	240	6
EXTAP	41	240	7
NMTAP	41	288	6
EXTAP	41	288	7
NMTAP	42	0	0
NMTAP	42	96	2
NMTAP	42	192	4
NMSTR	42	288	6
NMSUL	42	288	6	96	240	3
NMTAP	43	288	2
NMTAP	44	0	2
NMTAP	44	0	3
NMTAP	44	96	1
NMTAP	44	192	0
NMTAP	44	192	1
NMTAP	44	288	6
NMTAP	45	0	6
NMTAP	45	0	7
NMTAP	45	96	4
NMTAP	45	96	5
NMTAP	45	192	2
NMTAP	45	192	3
BRTAP	45	288	0
BRTAP	45	288	1
NMTAP	46	0	7
NMTAP	46	96	0
NMTAP	46	96	6
NMTAP	46	192	1
NMTAP	46	288	0
NMTAP	46	288	2
NMTAP	47	0	3
NMTAP	47	96	2
NMTAP	47	96	4
NMTAP	47	192	1
NMTAP	47	192	5
NMTAP	47	288	0
NMTAP	47	288	6
NMSTR	48	0	7
NMSCL	48	0	7	96	96	4
NMSTR	48	192	0
NMSCR	48	192	0	96	96	3
NMTAP	49	0	5
NMTAP	49	96	4
NMTAP	49	96	6
NMTAP	49	144	4
NMTAP	49	144	6
NMSTR	49	240	3
NMSXR	49	240	3	96	288	0
NMSTR	49	240	7
NMSXR	49	240	7	96	288	4
NMTAP	51	0	7
NMTAP	51	96	6
NMTAP	51	192	5
NMTAP	51	288	4
NMTAP	52	0	1
NMTAP	52	0	3
NMTAP	52	96	2
NMTAP	52	192	4
NMTAP	52	192	6
NMTAP	52	288	5
EXHLD	53	0	3	192
EXHLD	53	0	4	192
EXTAP	53	240	3
EXTAP	53	240	4
EXTAP	53	336	1
EXTAP	53	336	6
BXSTR	54	0	1
NMSXL	54	0	1	96	480	0
BXSTR	54	0	6
NMSXR	54	0	6	96	480	7
NMTAP	56	0	0
NMTAP	56	96	1
NMTAP	56	192	2
NMTAP	56	288	3
EXTAP	57	0	2
EXTAP	57	0	4
NMTAP	57	96	3
NMTAP	57	144	3
NMTAP	57	240	4
NMTAP	57	288	4
NMTAP	58	0	3
EXTAP	58	0	5
NMTAP	58	96	6
NMTAP	58	192	7
NMTAP	58	288	0
EXTAP	59	0	2
NMTAP	59	0	4
NMTAP	59	96	1
NMTAP	59	192	0
NMTAP	59	288	7
NMTAP	60	0	4
EXTAP	60	0	6
NMTAP	60	96	0
EXTAP	60	192	1
NMTAP	60	192	3
NMTAP	60	288	7
NMTAP	61	0	0
NMTAP	61	0	6
NMTAP	61	96	1
NMTAP	61	96	5
NMTAP	61	192	2
NMTAP	61	192	4
BRTAP	61	288	3
NMTTP	62	0	5	B	0	M1
NMTTP	62	0	5	E	0	M1
NMTTP	62	0	6	B	0	M1
NMTTP	62	192	1	B	0	M1
NMTTP	62	192	1	E	0	M1
NMTTP	62	192	2	B	0	M1
NMTTP	63	0	7	E	0	M1
NMTTP	63	96	5	E	0	M1
NMTTP	63	192	3	E	0	M1
NMTTP	63	288	1	E	0	M1
NMTTP	64	0	5	B	0	M1
NMTTP	64	0	6	B	0	M1
NMTTP	64	0	7	E	0	M1
NMTTP	64	192	1	B	0	M1
NMTTP	64	192	2	B	0	M1
NMTTP	64	192	3	E	0	M1
NMTTP	65	0	4	E	0	M1
NMTTP	65	96	0	C	0	M1
NMTTP	65	192	0	E	0	M1
NMTAP	66	0	1
NMTAP	66	0	6
NMTAP	66	96	2
NMTAP	66	192	3
NMTAP	66	288	4
NMTAP	67	0	3
NMTAP	67	0	5
NMTAP	67	96	6
NMTAP	67	192	7
NMTAP	67	288	0
NMTAP	68	0	1
NMTAP	68	0	7
NMTAP	68	96	2
NMTAP	68	192	1
NMTAP	68	192	3
NMSTR	68	288	4
NMSCR	68	288	4	96	288	3
NMTTP	70	0	0	C	1	M1
NMTTP	70	0	1	B	0	M1
NMTTP	70	0	2	B	0	M1
NMTTP	70	0	5	B	0	M1
NMTTP	70	0	6	B	0	M1
EXTAP	71	192	3
EXTAP	71	240	3
EXTAP	71	288	4
EXTAP	71	336	4
NMTTP	72	0	0	C	1	M1
NMTAP	73	0	3
NMTAP	73	0	4
NMTAP	73	48	3
NMTAP	73	48	4
NMSTR	73	144	1
NMSCR	73	144	1	96	48	3
NMSTR	73	144	6
NMSCL	73	144	6	96	48	4
NMTTP	74	0	3	E	0	M1
NMTTP	74	0	4	E	1	M1
NMTTP	74	0	5	E	0	M1
NMTTP	75	0	0	E	1	M1
NMTTP	75	0	1	E	0	M1
NMTTP	75	0	7	E	0	M1
NMTTP	76	0	1	B	0	M1
NMTTP	76	0	2	E	1	M1
NMTTP	76	96	5	B	0	M1
NMTTP	76	96	6	E	1	M1
NMTTP	76	192	3	B	0	M1
NMTTP	76	192	4	E	1	M1
NMTTP	76	288	0	E	1	M1
NMTTP	76	288	7	B	0	M1
NMTHO	77	0	0	144	C	1	M1
NMTTP	77	0	3	B	0	M1
NMTTP	77	0	4	B	0	M1
NMTAP	78	0	0
NMTAP	78	96	1
NMTAP	78	96	7
NMTAP	78	192	6
NMTAP	78	288	5
NMTAP	78	288	7
NMTAP	79	0	4
NMTAP	79	96	3
NMTAP	79	96	5
NMTAP	79	192	2
NMTAP	79	192	6
NMTAP	79	288	1
NMTAP	79	288	7
NMSTR	80	0	0
NMSCR	80	0	0	96	96	3
NMSTR	80	192	7
NMSCL	80	192	7	96	96	4
NMTAP	81	0	2
NMTAP	81	96	1
NMTAP	81	96	3
NMTAP	81	144	1
NMTAP	81	144	3
NMSTR	81	240	0
NMSXL	81	240	0	96	288	3
NMSTR	81	240	4
NMSXL	81	240	4	96	288	7
NMTAP	83	0	0
NMTAP	83	96	1
NMTAP	83	192	2
NMTAP	83	288	3
NMTAP	84	0	4
NMTAP	84	0	6
NMTAP	84	96	5
NMTAP	84	192	1
NMTAP	84	192	3
NMTAP	84	288	2
EXHLD	85	0	3	192
EXHLD	85	0	4	192
EXTAP	85	240	3
EXTAP	85	240	4
EXTAP	85	336	1
EXTAP	85	336	6
BXSTR	86	0	1
NMSXR	86	0	1	96	672	4
BXSTR	86	0	6
NMSXL	86	0	6	96	672	3
CNSCL	88	0	3	0	576	4
CNSCR	88	0	4	0	576	3
BRTAP	89	288	1
BRTAP	89	288	6
NMTAP	90	0	3
NMTAP	90	0	4
NMTAP	90	96	1
NMTAP	90	192	7
NMTAP	90	288	5
NMTAP	91	0	3
NMTAP	91	0	4
NMTAP	91	96	6
NMTAP	91	192	0
NMTAP	91	288	2
EXTAP	92	0	4
EXTAP	92	0	5
NMTAP	92	96	6
EXTAP	92	192	0
EXTAP	92	192	7
NMTAP	92	288	1
NMTAP	93	0	2
EXTAP	93	0	3
EXTAP	93	96	4
NMTAP	93	96	5
NMTAP	93	192	1
EXTAP	93	192	3
EXSTR	93	288	4
NMSCR	93	288	4	96	288	3
NMTAP	93	288	6
NMTTP	94	0	0	C	1	M1
NMTAP	95	0	4
NMTAP	95	0	5
NMTAP	95	96	6
NMTAP	95	192	5
NMTAP	95	288	4
NMTAP	96	0	2
NMTAP	96	0	3
NMTAP	96	96	1
NMTAP	96	192	0
NMTAP	96	192	7
NMTAP	96	288	6
NMTAP	97	0	4
NMTAP	97	0	5
NMTAP	97	96	3
NMTAP	97	144	3
NMTAP	97	240	1
NMTAP	97	240	5
NMTAP	97	288	1
NMTAP	97	288	5
EXTAP	98	0	6
EXTAP	98	0	7
NMTAP	98	96	5
NMTAP	98	192	3
NMTAP	98	288	1
EXTAP	99	0	0
EXTAP	99	0	1
NMTAP	99	96	2
NMTAP	99	192	4
NMTAP	99	288	6
EXTAP	100	0	6
EXTAP	100	0	7
NMTAP	100	96	0
NMTAP	100	96	5
EXTAP	100	192	0
EXTAP	100	192	1
NMTAP	100	288	2
NMTAP	100	288	7
NMTAP	101	0	0
NMTAP	101	0	7
NMTAP	101	96	1
NMTAP	101	96	6
NMTAP	101	192	2
NMTAP	101	192	5
BRTAP	101	288	0
BRTAP	101	288	7
NMTAP	102	0	1
NMTAP	102	96	3
NMTAP	102	192	5
NMTAP	102	288	7
NMTAP	103	0	0
NMTAP	103	0	1
NMTAP	103	96	2
NMTAP	103	96	3
NMTAP	103	192	4
NMTAP	103	192	5
NMTAP	103	288	6
NMTAP	103	288	7
BXSTR	104	96	1
NMSV_	104	96	1	96	336	2
BXSTR	104	96	5
NMSV_	104	96	5	96	336	6
CNSI_	105	144	2	0	240	4
CNSI_	105	144	6	0	240	0

T_REC_TAP	286
T_REC_BRK	18
T_REC_XTP	42
T_REC_HLD	13
T_REC_XHO	4
T_REC_STR	27
T_REC_BST	6
T_REC_XST	1
T_REC_TTP	42
T_REC_THO	1
T_REC_SLD	34
T_REC_ALL	474
T_NUM_TAP	398
T_NUM_BRK	24
T_NUM_HLD	18
T_NUM_SLD	34
T_NUM_ALL	474
T_JUDGE_TAP	422
T_JUDGE_HLD	69
T_JUDGE_SLD	34
T_JUDGE_ALL	525
TTM_EACHPAIRS	118
TTM_SCR_TAP	199000
TTM_SCR_BRK	62400
TTM_SCR_HLD	18000
TTM_SCR_SLD	51000
TTM_SCR_ALL	330400
TTM_SCR_S	318200
TTM_SCR_SS	328000
TTM_RAT_ACV	10073

