VERSION	0.00.00	1.04.00
FES_MODE	0
BPM_DEF	182.000	182.000	182.000	182.000
MET_DEF	4	4
RESOLUTION	384
CLK_DEF	384
COMPATIBLE_CODE	MA2

BPM	0	0	182.000
MET	0	0	4	4

NMTTP	2	0	5	E	0	M1
NMTTP	2	0	5	D	0	M1
NMTTP	2	192	3	E	0	M1
NMTTP	2	192	3	D	0	M1
NMTTP	3	0	4	B	0	M1
NMTTP	3	0	4	A	0	M1
NMTTP	3	192	3	B	0	M1
NMTTP	3	192	3	A	0	M1
NMTTP	4	0	5	A	0	M1
NMTTP	4	0	6	D	0	M1
NMTHO	4	192	0	384	C	0	M1
NMTTP	4	192	2	A	0	M1
NMTTP	4	192	2	D	0	M1
NMTTP	5	0	1	E	0	M1
EXTAP	5	192	0
NMTAP	5	288	1
NMTAP	5	288	6
EXTAP	6	0	3
EXSTR	6	0	4
NMSI_	6	0	4	96	384	7
NMTAP	6	96	3
NMTAP	6	192	3
NMTAP	6	288	3
NMTAP	7	0	2
NMTAP	7	96	1
NMTAP	7	192	0
NMTAP	7	192	7
NMSTR	7	240	0
NMSI_	7	240	0	96	48	2
NMTAP	7	240	7
NMSTR	8	48	7
NMSI_	8	48	7	96	48	5
NMSTR	8	240	0
NMSI_	8	240	0	96	48	2
NMSI_	8	240	0	96	48	6
NMTAP	9	48	3
NMTAP	9	48	5
NMTAP	9	96	3
NMTAP	9	96	5
NMTAP	9	192	0
NMTAP	9	192	7
NMTAP	9	288	2
NMTAP	9	288	4
BXSTR	9	336	2
NMSXR	9	336	2	96	168	3
BXSTR	9	336	4
NMSXL	9	336	4	96	168	3
NMTAP	10	288	1
NMTAP	10	288	3
NMTAP	10	336	1
NMTAP	10	336	3
NMTAP	11	48	4
NMTAP	11	48	6
NMTAP	11	96	4
NMTAP	11	96	6
NMSTR	11	192	0
NMSI_	11	192	0	96	48	3
NMSTR	11	192	7
NMSI_	11	192	7	96	48	4
NMTAP	11	288	0
NMTAP	11	288	7
NMHLD	12	0	1	96
NMTAP	12	96	3
NMTAP	12	192	2
NMTAP	12	240	2
NMTAP	12	288	3
NMTAP	12	336	1
NMTAP	12	336	4
NMTAP	13	48	3
NMTAP	13	48	6
NMTAP	13	96	3
NMTAP	13	96	6
NMTAP	13	192	0
NMTAP	13	192	7
NMTAP	13	288	2
NMTAP	13	288	3
NMTAP	13	336	0
NMTAP	13	336	4
NMTAP	14	48	4
NMTAP	14	48	5
NMTAP	14	96	3
NMTAP	14	96	7
NMTAP	14	192	6
NMSTR	14	240	0
NMSCL	14	240	0	96	144	2
NMTAP	14	288	1
BXTAP	14	336	2
NMSTR	15	192	3
NMSCL	15	192	3	96	48	0
NMSTR	15	192	4
NMSCR	15	192	4	96	48	7
BXTAP	16	0	1
BXSTR	16	0	6
NMSI_	16	0	6	96	48	2
NMTAP	16	96	4
NMSTR	16	144	4
NMSCL	16	144	4	96	96	1
NMSTR	16	240	1
NMSCL	16	240	1	96	96	6
NMSTR	16	336	6
NMSCL	16	336	6	96	96	3
NMSTR	17	48	3
NMSCL	17	48	3	96	96	0
NMSTR	17	144	0
NMSSL	17	144	0	96	96	4
NMTAP	17	240	4
NMTAP	17	336	5
NMSTR	18	0	5
NMSI_	18	0	5	96	48	0
NMTAP	18	96	2
NMSTR	18	144	2
NMSI_	18	144	2	96	48	5
NMSTR	18	240	7
NMSI_	18	240	7	96	48	2
NMTAP	18	336	4
NMSTR	19	0	4
NMSI_	19	0	4	96	48	0
NMTAP	19	96	6
NMTAP	19	192	5
NMTAP	19	240	5
NMTAP	19	288	0
NMTAP	19	288	6
BXHLD	19	336	1	144
BXHLD	19	336	5	144
NMTAP	20	144	3
NMTAP	20	144	6
NMHLD	20	192	3	96
NMHLD	20	192	6	96
NMTAP	20	336	0
NMTAP	20	336	7
NMHLD	21	0	0	96
NMTAP	21	0	7
NMHLD	21	96	2	96
NMHLD	21	192	4	96
NMSTR	21	288	7
NMSCL	21	288	7	96	192	0
NMTTP	22	0	0	C	1	M1
NMTTP	22	352	1	D	0	M1
NMTTP	23	0	2	D	0	M1
NMTTP	23	32	3	D	0	M1
NMTTP	23	64	7	D	0	M1
NMTTP	23	96	6	D	0	M1
NMTTP	23	128	5	D	0	M1
EXTAP	23	192	3
EXTAP	23	240	3
NMTAP	23	288	4
BXTAP	23	336	2
BXTAP	23	336	5
NMTAP	24	48	3
NMTAP	24	48	4
NMTAP	24	96	3
NMTAP	24	96	4
NMTAP	24	144	2
NMTAP	24	144	5
NMTAP	24	192	2
NMTAP	24	192	5
NMTAP	24	240	1
NMTAP	24	240	6
NMTAP	24	288	1
NMTAP	24	288	6
BXTAP	24	336	0
BXSTR	24	336	7
NMSSR	24	336	7	96	96	3
NMTAP	25	48	2
NMTAP	25	96	2
NMTAP	25	144	2
NMTAP	25	240	1
NMTAP	25	240	5
NMTAP	25	288	1
NMTAP	25	288	5
NMTAP	26	0	3
NMTAP	26	0	4
NMTAP	26	96	3
NMTAP	26	192	3
NMTAP	26	288	3
NMTAP	27	0	3
NMTTP	27	0	4	A	0	M1
NMTAP	27	96	3
NMTTP	27	96	5	A	0	M1
NMTAP	27	192	3
NMTTP	27	192	6	A	0	M1
NMTAP	27	288	3
NMTAP	28	0	3
NMSTR	28	0	6
NMSCR	28	0	6	96	192	1
NMTAP	28	96	3
NMTAP	28	192	3
CNSUL	28	288	1	0	192	5
NMTAP	28	288	3
NMTAP	29	0	3
NMTAP	29	96	3
NMTAP	29	192	3
NMTAP	29	288	3
NMTAP	29	288	4
NMTAP	30	0	3
NMTAP	30	0	4
NMTAP	30	96	4
NMTAP	30	192	4
NMTAP	30	288	4
NMTTP	31	0	1	A	0	M1
NMTAP	31	0	4
NMTTP	31	96	2	A	0	M1
NMTAP	31	96	4
NMTTP	31	192	3	A	0	M1
NMTAP	31	192	4
NMTAP	31	288	4
NMTAP	32	0	3
NMTAP	32	0	5
NMTAP	32	96	2
NMTAP	32	96	4
NMTAP	32	192	1
NMTAP	32	192	5
NMTAP	32	240	2
NMTAP	32	264	4
NMTAP	32	288	2
EXTAP	32	336	1
EXTAP	32	336	5
NMTAP	33	48	3
NMTAP	33	48	4
NMTAP	33	96	2
NMTAP	33	96	5
NMTAP	33	144	1
NMTAP	33	144	6
NMSTR	33	192	0
NMSI_	33	192	0	96	48	4
NMSTR	33	192	7
NMSI_	33	192	7	96	48	3
BXTAP	33	288	0
BXTAP	33	288	7
EXHLD	34	0	5	192
NMTAP	34	96	7
NMHLD	34	192	4	192
NMTAP	34	288	7
NMTAP	35	0	5
NMHLD	35	48	5	48
NMSTR	35	96	7
NMSCL	35	96	7	96	96	4
NMSCR	35	96	7	96	96	2
NMHLD	36	0	2	192
NMTAP	36	96	3
NMHLD	36	192	4	144
NMTAP	36	288	5
NMHLD	36	336	5	96
NMTAP	37	48	7
NMTAP	37	96	7
NMSTR	37	192	4
NMSI_	37	192	4	96	48	2
NMSTR	37	192	6
NMSI_	37	192	6	96	48	4
EXHLD	38	0	1	192
NMTAP	38	96	3
NMHLD	38	192	0	192
NMTAP	38	288	3
NMTAP	39	0	1
NMTAP	39	48	1
NMSTR	39	96	2
NMSXL	39	96	2	96	120	3
NMSLL	39	96	2	96	120	3
NMHLD	40	0	2	96
NMHLD	40	96	3	96
NMHLD	40	192	0	96
NMHLD	40	288	7	96
EXTAP	41	0	4
EXTAP	41	48	5
EXTAP	41	96	3
EXTAP	41	96	6
BXTAP	41	192	0
BXTAP	41	192	7
NMSTR	42	0	2
NMSCL	42	0	2	96	288	5
NMTAP	42	144	4
NMTAP	42	192	4
NMTAP	42	288	3
NMSTR	43	0	2
BRSCL	43	0	2	96	240	5
NMTAP	43	144	4
NMTAP	43	192	4
NMTAP	43	288	3
NMSTR	44	0	2
NMSCL	44	0	2	96	192	5
NMTAP	44	144	4
NMTAP	44	192	4
NMSTR	44	288	2
NMSI_	44	288	2	96	48	0
EXTAP	45	0	4
CNSI_	45	48	0	0	144	6
CNSI_	45	192	6	0	48	4
NMTAP	46	0	5
NMTAP	46	96	4
NMTAP	46	192	3
NMSTR	46	288	2
NMSI_	46	288	2	96	96	7
CNSI_	47	96	7	0	96	3
CNSI_	47	192	3	0	48	6
NMTAP	48	0	2
NMTAP	48	96	3
NMTAP	48	192	4
NMSTR	48	288	5
NMSCL	48	288	5	96	96	2
CNSI_	49	96	2	0	96	6
CNSCR	49	192	6	0	96	1
BXHLD	50	0	2	96
BXHLD	50	0	4	96
BXHLD	50	192	3	96
BXHLD	50	192	5	96
NMTAP	51	0	2
NMTAP	51	0	4
NMTAP	51	96	3
NMTAP	51	96	5
NMTAP	51	192	2
NMSTR	51	192	6
NMSI_	51	192	6	96	48	4
NMSTR	51	288	3
NMSI_	51	288	3	96	48	0
EXHLD	52	0	5	288
EXTAP	52	96	7
EXTAP	52	144	7
NMTAP	52	192	0
NMTAP	52	240	0
NMTAP	52	288	1
NMHLD	52	336	1	336
NMTAP	53	48	0
NMTAP	53	96	0
NMTAP	53	144	7
NMTAP	53	192	7
NMTAP	53	240	6
NMTAP	53	288	6
NMTAP	53	336	1
NMTAP	53	336	5
NMTAP	54	0	1
NMTAP	54	0	5
NMTAP	54	96	2
NMTAP	54	144	3
NMTAP	54	192	1
NMTAP	54	192	4
NMTAP	54	288	3
NMTAP	54	288	6
NMTAP	54	336	3
NMTAP	54	336	6
NMTAP	55	48	0
NMTAP	55	96	7
NMTAP	55	144	1
NMTAP	55	144	6
NMTAP	55	240	5
NMTAP	55	288	4
NMTAP	55	336	3
NMTAP	56	0	2
NMTAP	56	0	4
NMTAP	56	48	1
NMTAP	56	96	3
NMTAP	56	96	5
NMTAP	56	144	6
NMTAP	56	192	2
NMTAP	56	192	4
NMSTR	56	240	1
NMSCR	56	240	1	96	144	0
NMTAP	56	288	0
BXTAP	56	336	7
NMSTR	57	192	3
NMSI_	57	192	3	96	48	0
NMSTR	57	192	4
NMSI_	57	192	4	96	48	7
BRSTR	58	0	6
NMSI_	58	0	6	96	48	3
NMSTR	58	48	0
NMSI_	58	48	0	96	48	2
NMTAP	58	96	6
NMTAP	58	144	0
CNSI_	58	144	3	0	48	7
NMSTR	58	240	1
NMSUR	58	240	1	96	48	5
NMTAP	58	288	0
NMTAP	58	336	1
NMSTR	59	48	6
NMSUL	59	48	6	96	48	2
NMTAP	59	96	7
NMTAP	59	144	6
NMSTR	59	240	1
NMSCR	59	240	1	96	48	4
NMTAP	59	288	0
NMTAP	59	336	1
NMTAP	60	48	7
NMSTR	60	96	4
NMSI_	60	96	4	96	48	0
NMTAP	60	144	4
NMSTR	60	192	6
NMSI_	60	192	6	96	48	3
NMTAP	60	240	6
NMSTR	60	288	1
NMSI_	60	288	1	96	48	4
NMTAP	60	336	1
CNSI_	61	48	4	0	48	2
NMTAP	61	48	5
CNSI_	61	96	2	0	48	0
CNSCL	61	144	0	0	48	5
NMTAP	61	144	4
NMTAP	61	336	0
NMSTR	62	0	1
NMSI_	62	0	1	96	48	4
NMSTR	62	48	7
NMSI_	62	48	7	96	48	5
NMTAP	62	96	1
CNSI_	62	144	4	0	48	0
NMTAP	62	144	7
NMSTR	62	240	6
NMSUL	62	240	6	96	48	2
NMTAP	62	288	7
NMTAP	62	336	6
NMSTR	63	48	1
NMSCR	63	48	1	96	48	4
NMTAP	63	96	0
NMTAP	63	144	1
NMSTR	63	240	6
NMSUL	63	240	6	96	48	2
NMTAP	63	288	7
NMTAP	63	336	6
NMTAP	64	48	0
NMSTR	64	96	0
NMSI_	64	96	0	96	48	4
NMSTR	64	144	7
NMSI_	64	144	7	96	48	3
EXSTR	64	192	0
NMSI_	64	192	0	96	48	2
EXSTR	64	240	7
NMSI_	64	240	7	96	48	5
EXTAP	64	288	0
EXTAP	64	336	7
NMTTP	65	48	1	B	0	M1
NMTTP	65	48	2	E	0	M1
NMTTP	65	96	6	B	0	M1
NMTTP	65	96	6	E	0	M1
NMTTP	65	144	3	E	0	M1
NMTTP	65	144	3	D	0	M1
NMTTP	65	192	5	E	0	M1
NMTTP	65	192	5	D	0	M1
EXTAP	65	288	0
EXTAP	65	288	7
BXSTR	66	0	4
NMSI_	66	0	4	96	48	6
NMTAP	66	48	0
NMTAP	66	96	4
NMTAP	66	144	1
BXSTR	66	192	7
NMSI_	66	192	7	96	48	3
NMTAP	66	240	2
NMTAP	66	288	7
NMTAP	66	336	1
BXSTR	67	0	4
NMSI_	67	0	4	96	48	6
NMTAP	67	48	0
NMTAP	67	96	4
NMTAP	67	144	1
BXSTR	67	192	7
NMSI_	67	192	7	96	48	3
NMTAP	67	240	2
NMTAP	67	288	7
NMTAP	67	336	1
BXSTR	68	0	4
NMSI_	68	0	4	96	48	6
NMTAP	68	48	0
NMTAP	68	96	4
NMTAP	68	144	1
BXTAP	68	192	7
NMSTR	68	240	2
NMSCL	68	240	2	96	48	0
NMTAP	68	288	5
NMTAP	68	336	2
CNSUL	69	0	0	0	144	6
NMTAP	69	48	4
NMTAP	69	144	3
NMTAP	69	240	0
NMTAP	69	240	4
NMTAP	69	288	0
NMTAP	69	288	4
BXSTR	70	0	2
NMSI_	70	0	2	96	48	0
NMTAP	70	48	6
NMTAP	70	96	2
NMTAP	70	144	5
BXSTR	70	192	7
NMSI_	70	192	7	96	48	3
NMTAP	70	240	4
NMTAP	70	288	7
NMTAP	70	336	5
NMTAP	71	0	2
NMTAP	71	0	6
NMTAP	71	48	2
NMTAP	71	48	6
NMTAP	71	96	3
NMTAP	71	96	7
BXTAP	71	144	0
BXTAP	71	144	4
NMSTR	71	240	3
NMSI_	71	240	3	96	48	0
NMTAP	71	240	7
NMHLD	71	336	5	144
NMTAP	72	96	7
NMTAP	72	144	6
NMTAP	72	144	7
NMTAP	72	240	0
NMTAP	72	240	7
EXSTR	72	288	0
NMSCR	72	288	0	96	48	3
EXSTR	72	288	7
NMSCL	72	288	7	96	48	4
NMTAP	72	336	1
NMTAP	72	336	6
NMSTR	73	0	0
NMSI_	73	0	0	96	48	4
NMSTR	73	0	7
NMSI_	73	0	7	96	48	3
EXSTR	73	96	0
NMSXL	73	96	0	96	120	7
EXSTR	73	96	7
NMSXR	73	96	7	96	120	0
EXSTR	74	0	1
NMSCR	74	0	1	96	96	4
EXHLD	74	0	6	576
CNSI_	74	192	4	0	96	0
CNSCL	74	288	0	0	144	5
NMTAP	75	192	4
NMTAP	75	288	3
NMTAP	75	288	5
EXHLD	76	0	1	576
EXSTR	76	0	4
NMSXL	76	0	4	96	192	3
CNSCL	76	288	3	0	192	5
NMTAP	77	192	3
NMTAP	77	288	2
NMTAP	77	288	4
BXSTR	78	0	1
NMSCR	78	0	1	96	48	3
NMTAP	78	48	0
NMTAP	78	96	7
BXSTR	78	144	6
NMSCR	78	144	6	96	48	0
NMTAP	78	192	5
NMTAP	78	240	4
BXSTR	78	288	3
NMSCR	78	288	3	96	48	5
NMTAP	78	336	2
NMTAP	79	0	1
BXSTR	79	48	0
NMSCR	79	48	0	96	48	2
NMTAP	79	96	7
NMTAP	79	144	6
BXTAP	79	192	5
NMTAP	79	240	4
BXTAP	79	288	3
BXTAP	79	288	7
NMTAP	80	0	1
NMTAP	80	0	5
NMTAP	80	96	5
NMTAP	80	192	5
NMTAP	80	288	5
NMTTP	81	0	4	D	0	M1
NMTAP	81	0	5
NMTTP	81	96	3	D	0	M1
NMTAP	81	96	5
NMTTP	81	192	2	D	0	M1
NMTAP	81	192	5
NMTTP	81	288	1	D	0	M1
NMTAP	81	288	5
EXHLD	82	0	0	336
NMTAP	82	0	5
NMTAP	82	96	4
NMTAP	82	144	4
NMTAP	82	192	5
NMTAP	82	240	5
NMTAP	82	288	6
NMTAP	82	336	6
NMTAP	83	0	1
NMTAP	83	0	7
NMTAP	83	96	3
NMTAP	83	96	4
NMSTR	83	144	3
NMSCL	83	144	3	96	48	0
NMSTR	83	144	4
NMSCR	83	144	4	96	48	7
NMTAP	83	192	2
NMTAP	83	192	5
NMTAP	84	0	0
NMHLD	84	48	0	96
NMTAP	84	96	7
NMHLD	84	144	7	96
NMTAP	84	192	6
NMHLD	84	240	6	96
NMTAP	84	288	5
NMHLD	84	336	5	96
NMTAP	85	0	4
NMHLD	85	48	4	96
NMTAP	85	96	3
NMHLD	85	144	3	48
NMTAP	85	192	2
NMTAP	85	240	2
NMTAP	85	288	1
NMTTP	86	0	1	E	0	M1
NMTTP	86	24	2	E	0	M1
NMTTP	86	48	3	E	0	M1
NMTTP	86	96	7	E	0	M1
NMTTP	86	120	6	E	0	M1
NMTTP	86	144	5	E	0	M1
NMTTP	86	192	1	D	0	M1
NMTTP	86	216	2	D	0	M1
NMTTP	86	240	3	D	0	M1
NMTTP	86	288	7	D	0	M1
NMTTP	86	312	6	D	0	M1
NMTTP	86	336	5	D	0	M1
EXTAP	87	0	0
EXTAP	87	24	1
EXTAP	87	48	2
EXTAP	87	72	3
EXTAP	87	96	6
EXTAP	87	120	5
EXTAP	87	144	4
EXTAP	87	168	3
NMTAP	87	192	0
NMTAP	87	240	0
NMTAP	87	288	0
NMTAP	87	288	7
NMTAP	88	0	3
NMTAP	88	0	4
NMTAP	88	48	4
NMTAP	88	96	2
NMTAP	88	144	2
NMTAP	88	192	6
NMTAP	88	240	6
NMTAP	88	288	0
NMTAP	88	336	0
NMTAP	89	0	1
NMTAP	89	0	7
NMTAP	89	48	1
NMTAP	89	48	7
NMTAP	89	96	2
NMTAP	89	96	6
NMTAP	89	144	2
NMTAP	89	144	6
NMTAP	89	192	3
NMTAP	89	192	5
NMTAP	89	240	3
NMTAP	89	240	5
NMTAP	89	288	2
NMTAP	89	288	4
NMTAP	89	336	2
NMTAP	89	336	4
BXTAP	90	0	1
BXTAP	90	0	5
NMTAP	90	96	2
NMTAP	90	120	3
NMTAP	90	144	1
NMTAP	90	144	4
NMTAP	90	240	5
NMTAP	90	264	4
EXTAP	90	288	3
EXTAP	90	288	6
EXTAP	90	336	3
EXTAP	90	336	6
NMTAP	91	48	2
NMTAP	91	48	5
NMTAP	91	96	2
NMTAP	91	96	5
NMTAP	91	144	1
NMTAP	91	144	6
NMTAP	91	192	1
NMTAP	91	192	6
NMSTR	91	240	0
NMSI_	91	240	0	96	48	4
NMSTR	91	240	7
NMSI_	91	240	7	96	48	3
NMTAP	91	288	1
NMTAP	91	288	6
BXTAP	91	336	0
BXTAP	91	336	7
NMTTP	91	348	0	C	1	M1
NMTTP	93	96	4	E	0	M1
NMTTP	93	96	4	D	0	M1
NMTAP	93	96	6
NMTTP	93	192	5	E	0	M1
NMTTP	93	192	5	D	0	M1
NMTAP	93	192	7
NMTAP	94	96	1
NMTTP	94	96	4	E	0	M1
NMTTP	94	96	4	D	0	M1
NMTAP	94	192	0
NMTTP	94	192	3	E	0	M1
NMTTP	94	192	3	D	0	M1
NMTAP	94	288	7
NMTAP	94	312	0
BXTAP	94	336	1
BXTAP	94	336	6
NMTAP	95	48	1
NMSTR	95	96	4
NMSI_	95	96	4	96	48	7
NMTAP	95	144	4
NMSTR	95	192	1
NMSI_	95	192	1	96	48	4
NMTAP	95	240	1
NMSTR	95	288	6
NMSV_	95	288	6	96	48	3
NMTAP	95	336	6
NMTAP	96	48	2
CNSI_	96	48	3	0	48	5
CNSI_	96	96	5	0	48	7
NMTAP	96	144	3
CNSCR	96	144	7	0	48	2
NMTAP	96	336	7
NMSTR	97	0	6
NMSCL	97	0	6	96	48	3
NMSTR	97	48	0
NMSI_	97	48	0	96	48	2
NMTAP	97	96	6
NMTAP	97	144	0
CNSI_	97	144	3	0	48	7
NMSTR	97	240	1
NMSUR	97	240	1	96	48	5
NMTAP	97	288	0
NMTAP	97	336	1
NMSTR	98	48	6
NMSCL	98	48	6	96	48	3
NMTAP	98	96	7
NMTAP	98	144	6
NMSTR	98	240	1
NMSUR	98	240	1	96	48	5
NMTAP	98	288	0
NMTAP	98	336	1
NMTAP	99	48	7
NMSTR	99	96	4
NMSI_	99	96	4	96	48	1
NMTAP	99	144	4
NMSTR	99	192	6
NMSLR	99	192	6	96	96	5
NMTAP	99	240	6
NMTAP	99	288	2
BXTAP	99	336	2
NMTTP	100	48	2	B	0	M1
NMTTP	100	48	3	E	0	M1
NMTTP	100	96	6	B	0	M1
NMTTP	100	96	7	E	0	M1
NMTTP	100	144	4	E	0	M1
NMTTP	100	144	4	D	0	M1
NMTAP	100	240	2
NMTAP	100	240	5
NMTAP	100	288	2
NMTAP	100	288	5
BXSTR	101	0	1
NMSCR	101	0	1	96	48	3
NMTAP	101	48	5
NMTAP	101	96	1
NMTAP	101	144	6
BXSTR	101	192	4
NMSI_	101	192	4	96	48	0
NMTAP	101	240	7
NMTAP	101	288	4
NMTAP	101	336	6
BXSTR	102	0	1
NMSCR	102	0	1	96	48	3
NMTAP	102	48	5
NMTAP	102	96	1
NMTAP	102	144	6
BXSTR	102	192	4
NMSI_	102	192	4	96	48	0
NMTAP	102	240	7
NMTAP	102	288	4
NMTAP	102	336	6
BXSTR	103	0	1
NMSCR	103	0	1	96	48	3
NMTAP	103	48	5
NMTAP	103	96	1
NMTAP	103	144	6
BXTAP	103	192	4
NMSTR	103	240	7
NMSCL	103	240	7	96	48	5
NMTAP	103	288	2
NMTAP	103	336	7
CNSCL	104	0	5	0	48	3
NMTAP	104	48	1
CNSXL	104	48	3	0	96	2
NMTAP	104	96	1
NMTAP	104	144	0
NMTAP	104	192	0
NMTAP	104	288	1
NMTAP	104	288	4
BXSTR	105	0	6
NMSCL	105	0	6	96	48	4
NMTAP	105	48	2
NMTAP	105	96	6
NMTAP	105	144	1
BXSTR	105	192	3
NMSI_	105	192	3	96	48	7
NMTAP	105	240	0
NMTAP	105	288	3
NMTAP	105	336	1
NMTAP	106	0	2
NMTAP	106	0	6
NMTAP	106	48	2
NMTAP	106	48	6
NMTAP	106	96	1
NMTAP	106	96	5
BXTAP	106	144	0
BXTAP	106	144	4
NMSTR	106	240	1
NMSV_	106	240	1	96	48	3
NMSTR	106	288	3
NMSI_	106	288	3	96	48	0
NMSTR	107	48	6
NMSV_	107	48	6	96	48	4
NMTAP	107	96	6
CNSI_	107	192	4	0	48	7
NMSTR	107	240	3
NMSXL	107	240	3	96	192	7
NMSXR	107	240	3	96	192	7
NMTAP	107	288	3
NMSTR	108	240	1
NMSLR	108	240	1	96	48	5
EXHLD	108	240	7	96
EXTAP	108	336	1
EXHLD	109	48	0	96
NMSTR	109	48	6
NMSLL	109	48	6	96	48	2
EXTAP	109	144	6
NMSTR	109	240	1
NMSLR	109	240	1	96	72	5
BRTAP	109	336	1
BRHLD	109	336	6	384
CNSCR	110	24	5	0	72	1
CNSCR	110	96	1	0	72	5
CNSCR	110	168	5	0	72	1
CNSCR	110	240	1	0	48	2
EXTAP	111	48	3
EXTAP	111	48	4
EXSTR	111	96	3
NMSI_	111	96	3	96	48	0
EXSTR	111	96	4
NMSI_	111	96	4	96	48	7
BXTAP	112	0	1
BXTAP	112	0	6
NMSTR	112	48	5
NMSCR	112	48	5	96	48	0
NMTAP	112	96	5
NMTAP	112	144	4
NMSTR	112	240	2
NMSCL	112	240	2	96	48	7
NMTAP	112	288	2
NMTAP	112	336	3
NMSTR	113	48	5
NMSCR	113	48	5	96	48	0
NMTAP	113	96	5
NMTAP	113	144	4
NMSTR	113	240	2
NMSCL	113	240	2	96	48	7
NMTAP	113	288	2
NMTAP	113	336	4
CNSLR	114	0	7	0	96	3
NMTAP	114	48	5
NMHLD	114	96	5	96
NMTAP	114	192	4
NMTAP	114	240	4
NMTAP	114	288	6
NMSTR	114	336	3
NMSI_	114	336	3	96	48	7
NMSTR	115	48	7
NMSCR	115	48	7	96	96	5
BXTAP	115	144	5
NMTAP	115	336	3
NMTAP	115	336	4
NMTAP	116	0	4
NMSTR	116	48	2
NMSCL	116	48	2	96	48	7
NMTAP	116	96	2
NMTAP	116	144	3
NMSTR	116	240	5
NMSCR	116	240	5	96	48	0
NMTAP	116	288	5
NMTAP	116	336	4
NMSTR	117	48	2
NMSCL	117	48	2	96	48	7
NMTAP	117	96	2
NMTAP	117	144	3
NMSTR	117	240	5
NMSCR	117	240	5	96	48	0
NMTAP	117	288	5
NMTAP	117	336	3
CNSLL	118	0	0	0	96	4
NMTAP	118	48	2
NMHLD	118	96	2	96
NMTAP	118	192	3
NMTAP	118	240	3
NMTAP	118	288	2
NMTAP	118	288	4
BXSTR	118	336	1
NMSXR	118	336	1	96	144	2
BXSTR	118	336	5
NMSXR	118	336	5	96	144	6
NMTAP	119	240	3
NMTAP	119	264	5
BXTAP	119	288	0

T_REC_TAP	448
T_REC_BRK	1
T_REC_XTP	33
T_REC_BXX	30
T_REC_HLD	26
T_REC_XHO	8
T_REC_BHO	1
T_REC_BXH	6
T_REC_STR	86
T_REC_BST	1
T_REC_XST	11
T_REC_XBS	24
T_REC_TTP	65
T_REC_THO	1
T_REC_SLD	125
T_REC_BSL	1
T_REC_ALL	867
T_NUM_TAP	643
T_NUM_BRK	64
T_NUM_HLD	35
T_NUM_SLD	125
T_NUM_ALL	867
T_JUDGE_TAP	699
T_JUDGE_HLD	142
T_JUDGE_SLD	126
T_JUDGE_ALL	967
TTM_EACHPAIRS	135
TTM_SCR_TAP	321500
TTM_SCR_BRK	166400
TTM_SCR_HLD	35000
TTM_SCR_SLD	187500
TTM_SCR_ALL	710400
TTM_SCR_S	682900
TTM_SCR_SS	704000
TTM_RAT_ACV	10090

