VERSION	0.00.00	1.04.00
FES_MODE	0
BPM_DEF	182.000	182.000	182.000	182.000
MET_DEF	4	4
RESOLUTION	384
CLK_DEF	384
COMPATIBLE_CODE	MA2

BPM	0	0	182.000
MET	0	0	4	4

NMHLD	2	0	2	96
NMTAP	2	96	3
NMHLD	2	192	4	96
NMTAP	2	288	3
NMHLD	3	0	2	96
NMTAP	3	96	3
NMHLD	3	192	5	96
NMTAP	3	288	4
NMHLD	4	0	3	96
NMTAP	4	96	4
NMHLD	4	192	5	96
NMTAP	4	288	4
NMTTP	5	0	4	E	0	M1
NMTTP	5	96	0	C	0	M1
NMTTP	5	192	0	E	0	M1
NMTAP	6	0	2
NMTAP	6	0	4
NMTAP	6	96	2
NMTAP	6	192	3
NMTAP	6	192	5
NMTAP	6	288	3
NMTAP	7	0	2
NMTAP	7	0	4
NMTAP	7	96	4
NMTAP	7	192	3
NMSTR	7	192	5
NMSI_	7	192	5	96	48	7
NMSTR	8	0	3
NMSI_	8	0	3	96	48	1
NMSTR	8	192	4
NMSI_	8	192	4	96	72	0
NMTAP	9	0	2
NMTAP	9	96	1
NMTAP	9	96	3
NMTAP	9	192	4
NMTAP	9	192	6
BXSTR	9	288	0
NMSI_	9	288	0	96	144	6
BXTAP	9	288	7
BXTAP	9	336	0
BXTAP	9	336	7
CNSI_	10	144	6	0	144	1
CNSI_	10	288	1	0	144	5
CNSI_	11	48	5	0	144	2
CNSI_	11	192	2	0	96	4
NMTAP	12	0	5
NMTAP	12	96	5
NMTAP	12	192	4
NMTAP	12	288	3
NMTAP	12	288	6
NMTAP	13	0	2
NMTAP	13	96	2
NMTAP	13	192	3
NMTAP	13	288	1
NMTAP	13	288	4
NMTAP	14	0	0
NMTAP	14	96	7
NMTAP	14	192	1
NMTAP	14	192	6
NMTAP	14	288	2
NMTAP	14	288	5
NMSTR	15	0	3
NMSCL	15	0	3	96	72	0
NMSTR	15	0	4
NMSCR	15	0	4	96	72	7
BRTAP	15	288	1
BRTAP	15	288	6
NMHLD	16	0	2	96
NMTAP	16	96	3
NMTAP	16	192	2
NMTAP	16	288	1
NMTAP	16	288	4
NMHLD	17	0	0	96
NMTAP	17	96	7
NMTAP	17	192	6
NMTAP	17	240	6
NMTAP	17	288	7
NMHLD	18	0	5	96
NMTAP	18	96	4
NMTAP	18	192	5
NMTAP	18	288	3
NMTAP	18	288	6
NMHLD	19	0	7	96
NMTAP	19	96	0
NMTAP	19	192	1
NMTAP	19	240	1
NMTAP	19	288	0
NMTAP	20	0	2
NMTAP	20	96	2
NMTAP	20	96	3
NMTAP	20	192	5
NMTAP	20	288	4
NMTAP	20	288	5
NMTAP	21	0	2
NMTAP	21	0	3
NMTAP	21	96	0
NMTAP	21	96	1
NMTAP	21	192	6
NMTAP	21	192	7
NMSTR	21	288	4
NMSCR	21	288	4	96	480	3
NMTAP	21	288	5
EXSTR	23	192	3
NMSI_	23	192	3	96	72	0
EXSTR	23	192	4
NMSI_	23	192	4	96	72	7
EXTAP	24	96	1
EXTAP	24	96	6
NMTAP	24	192	5
NMTAP	24	288	4
NMTAP	25	0	3
NMTAP	25	96	2
NMTAP	25	192	1
BRTAP	25	288	0
BRTAP	25	288	7
NMTAP	26	0	1
NMTAP	26	96	1
NMTAP	26	192	3
NMTAP	26	288	3
NMTAP	27	0	1
NMTAP	27	96	2
NMTAP	27	192	3
NMTAP	27	288	2
NMTAP	27	288	4
NMTAP	28	0	6
NMTAP	28	96	6
NMTAP	28	192	4
NMTAP	28	288	4
NMTAP	29	0	6
NMTAP	29	96	5
NMTAP	29	192	4
NMTAP	29	288	3
NMTAP	29	288	5
NMTAP	30	0	1
NMTAP	30	96	1
NMTAP	30	192	3
NMTAP	30	288	3
NMTAP	31	0	0
NMTAP	31	96	1
NMTAP	31	192	2
NMTAP	31	288	1
NMTAP	31	288	3
NMTAP	32	0	6
NMTAP	32	96	6
NMTAP	32	192	4
NMTAP	32	288	4
NMTAP	33	0	6
NMTAP	33	0	7
NMTAP	33	96	4
NMTAP	33	96	5
NMTAP	33	192	3
NMTAP	33	192	6
NMHLD	34	0	2	96
NMTAP	34	96	3
NMTAP	34	192	2
NMTAP	34	288	1
NMTAP	34	288	3
NMTAP	35	0	0
NMTAP	35	96	0
NMHLD	35	192	1	96
NMHLD	35	192	7	96
NMTAP	36	0	5
NMTAP	36	96	4
NMTAP	36	96	6
NMTAP	36	192	7
NMTAP	36	288	4
NMTAP	36	288	6
NMHLD	37	0	5	96
NMTAP	37	96	7
NMTAP	37	192	0
NMTAP	37	192	6
NMTAP	37	288	4
NMHLD	38	0	2	96
NMTAP	38	96	0
NMTAP	38	192	2
NMTAP	38	288	1
NMTAP	38	288	3
NMSTR	39	0	2
NMSXL	39	0	2	96	192	3
NMSLL	39	0	2	96	192	3
NMTAP	40	0	5
NMTAP	40	96	5
NMTAP	40	192	4
NMTAP	40	192	6
NMTAP	40	288	3
NMTAP	40	288	7
NMTAP	41	0	0
NMTAP	41	0	6
NMTAP	41	96	1
NMTAP	41	96	5
NMTAP	41	192	2
NMTAP	41	192	4
EXTAP	41	288	3
NMHLD	42	0	6	192
NMTAP	42	192	4
NMTAP	42	288	3
NMTAP	42	288	5
NMHLD	43	0	1	192
NMTAP	43	192	3
NMTAP	43	288	2
NMTAP	43	288	4
NMHLD	44	0	6	672
NMTAP	44	192	7
NMTAP	44	288	0
NMHLD	45	0	1	288
NMTTP	46	0	0	E	0	M1
NMTTP	46	96	1	E	0	M1
NMTTP	46	192	2	E	0	M1
NMTTP	46	288	3	E	0	M1
NMTTP	47	0	3	A	0	M1
NMTTP	47	96	2	A	0	M1
NMTTP	47	192	1	A	0	M1
NMTTP	47	288	0	A	0	M1
NMTTP	48	0	7	A	0	M1
NMTTP	48	96	6	A	0	M1
NMTTP	48	192	5	A	0	M1
NMTTP	48	288	4	A	0	M1
NMTTP	49	0	4	E	0	M1
NMTTP	49	96	5	E	0	M1
NMTTP	49	192	6	E	0	M1
NMTTP	49	288	7	E	0	M1
EXHLD	50	0	0	96
NMHLD	50	0	1	96
NMHLD	50	192	2	96
EXHLD	50	192	3	96
EXHLD	51	0	4	96
NMHLD	51	0	5	96
NMHLD	51	192	6	96
EXHLD	51	192	7	96
NMTAP	52	0	0
NMTAP	52	0	5
NMTAP	52	96	1
NMTAP	52	96	4
NMTAP	52	192	2
NMTAP	52	240	2
NMTAP	52	288	3
NMTAP	53	0	5
NMTAP	53	48	5
NMTAP	53	96	4
NMTAP	53	192	3
NMTAP	53	192	6
NMTAP	53	288	2
NMTAP	53	288	7
NMTAP	54	0	0
NMTAP	54	48	0
NMTAP	54	144	6
NMTAP	54	192	6
NMTAP	54	288	2
NMTAP	54	336	2
NMTAP	55	48	4
NMTAP	55	96	4
NMTAP	55	192	2
NMTAP	55	192	3
NMTAP	55	288	4
NMTAP	55	288	5
NMTAP	56	0	2
NMHLD	56	0	6	96
NMTAP	56	96	7
NMHLD	56	192	1	96
NMTAP	56	192	5
NMTAP	56	288	0
NMTAP	57	0	3
NMTAP	57	0	4
EXTAP	57	96	0
EXTAP	57	96	7
EXTAP	57	144	0
EXTAP	57	144	7
BXTAP	57	192	1
BXTAP	57	192	6
EXTAP	58	0	0
EXTAP	58	0	1
NMTAP	58	96	2
NMTAP	58	96	7
NMTAP	58	192	5
NMTAP	58	240	5
NMTAP	58	288	4
NMTAP	59	0	6
NMTAP	59	0	7
NMTAP	59	96	0
NMTAP	59	96	5
NMTAP	59	192	2
NMTAP	59	240	2
NMTAP	59	288	3
NMTAP	60	0	0
NMTAP	60	0	1
NMTAP	60	96	2
NMTAP	60	96	3
NMTAP	60	192	4
NMTAP	60	192	5
NMTAP	60	288	6
NMTAP	60	288	7
NMTAP	60	336	6
NMTAP	60	336	7
NMSTR	61	48	0
NMSCL	61	48	0	96	168	2
NMTAP	61	48	1
NMTTP	61	144	0	C	1	M1
EXTAP	62	0	1
NMTAP	62	96	0
NMTAP	62	96	2
NMTAP	62	192	6
NMTAP	62	240	6
NMTAP	62	288	7
NMTAP	63	0	4
NMTAP	63	0	5
NMTAP	63	96	3
NMTAP	63	96	6
NMTAP	63	192	1
NMTAP	63	240	1
NMTAP	63	288	0
NMTAP	64	0	6
NMTAP	64	0	7
NMTAP	64	96	4
NMTAP	64	96	5
NMTAP	64	192	2
NMTAP	64	192	3
NMSTR	64	288	0
NMSUR	64	288	0	96	144	6
NMSTR	64	288	1
NMSCR	64	288	1	96	144	5
NMTAP	64	336	0
NMTAP	64	336	1
EXTAP	65	288	1
EXTAP	65	288	5
NMTAP	66	0	4
NMTAP	66	0	6
EXTAP	66	96	0
NMTAP	66	192	4
NMTAP	66	192	6
EXTAP	66	288	7
NMTAP	67	0	1
NMTAP	67	0	3
EXTAP	67	96	0
NMTAP	67	192	1
NMTAP	67	192	3
EXTAP	67	288	7
NMTAP	68	0	4
NMTAP	68	0	6
EXTAP	68	96	0
NMTAP	68	192	1
NMTAP	68	192	3
EXTAP	68	288	7
NMTTP	69	0	0	E	0	M1
NMTTP	69	0	0	D	0	M1
NMTTP	69	0	7	E	0	M1
NMTTP	69	0	7	D	0	M1
NMTTP	69	96	1	E	0	M1
NMTTP	69	96	1	D	0	M1
NMTTP	69	96	6	E	0	M1
NMTTP	69	96	6	D	0	M1
NMTTP	69	192	2	E	0	M1
NMTTP	69	192	2	D	0	M1
NMTTP	69	192	5	E	0	M1
NMTTP	69	192	5	D	0	M1
NMTTP	69	288	3	E	0	M1
NMTTP	69	288	3	D	0	M1
NMTTP	69	288	4	E	0	M1
NMTTP	69	288	4	D	0	M1
NMTAP	70	0	6
NMTAP	70	0	7
NMTAP	70	96	0
NMTAP	70	96	1
NMTAP	70	192	7
NMTAP	70	240	7
NMTAP	70	288	0
EXTAP	71	0	1
EXTAP	71	0	6
EXTAP	71	48	1
EXTAP	71	48	6
EXTAP	71	96	1
EXTAP	71	96	6
EXTAP	71	144	1
EXTAP	71	144	6
NMTAP	71	240	3
NMTAP	71	240	4
NMTAP	71	288	3
NMTAP	71	288	4
NMTAP	72	0	1
NMTAP	72	0	3
NMTAP	72	96	4
NMTAP	72	96	6
NMTAP	72	192	7
NMTAP	72	240	7
NMTAP	72	288	0
NMSTR	73	0	3
BRSI_	73	0	3	96	72	0
NMSTR	73	0	4
BRSI_	73	0	4	96	72	7
NMTHO	74	0	0	576	C	1	M1
NMTTP	74	0	1	B	0	M1
NMTTP	74	0	2	B	0	M1
NMTTP	74	0	2	E	0	M1
NMTTP	74	0	5	B	0	M1
NMTTP	74	0	6	B	0	M1
NMTTP	74	0	6	E	0	M1
EXTAP	76	0	0
EXHLD	76	48	0	432
NMTAP	76	144	6
NMTAP	76	192	6
NMTAP	76	288	4
NMTAP	76	336	4
NMTAP	77	48	2
NMTAP	77	96	2
NMTAP	77	192	1
NMTAP	77	192	3
NMTAP	77	288	4
NMTAP	77	288	6
NMTAP	78	0	7
NMHLD	78	48	7	432
NMTAP	78	144	1
NMTAP	78	192	1
NMTAP	78	288	3
NMTAP	78	336	3
NMTAP	79	48	5
NMTAP	79	96	5
NMTAP	79	192	4
NMTAP	79	192	6
NMTAP	79	288	1
NMTAP	79	288	3
NMTAP	80	0	0
NMTAP	80	96	0
NMTAP	80	192	1
NMTAP	80	288	1
NMTAP	81	0	7
NMTAP	81	96	7
NMTAP	81	192	6
NMTAP	81	288	6
NMTAP	82	0	1
NMTAP	82	96	2
NMTAP	82	192	6
NMTAP	82	288	5
NMTAP	83	0	3
NMTAP	83	96	4
NMTAP	83	192	3
NMTAP	83	192	5
NMSTR	83	288	2
NMSXR	83	288	2	96	240	3
NMSTR	83	288	6
NMSXR	83	288	6	96	240	7
NMSTR	85	0	7
NMSCL	85	0	7	96	72	4
NMSTR	85	192	0
NMSCR	85	192	0	96	72	3
NMHLD	86	0	4	24
NMHLD	86	96	2	24
NMHLD	86	192	0	24
NMHLD	86	288	6	24
NMHLD	87	0	4	24
NMHLD	87	96	2	24
NMTAP	87	192	0
NMTAP	87	240	0
NMTAP	87	288	7
NMTAP	88	0	1
NMTAP	88	96	2
NMTAP	88	96	3
NMTAP	88	192	6
NMTAP	88	288	4
NMTAP	88	288	5
NMTAP	89	0	0
NMTAP	89	96	1
NMTAP	89	96	7
NMTAP	89	192	2
NMTAP	89	192	6
NMTAP	89	288	3
NMTAP	89	288	5
NMHLD	90	0	4	96
NMTAP	90	96	3
NMTAP	90	144	3
NMTAP	90	240	2
NMTAP	90	240	4
NMTAP	90	336	1
NMTAP	90	336	5
NMTAP	91	48	0
NMTAP	91	48	6
NMSTR	91	144	7
NMSI_	91	144	7	96	72	3
BRTAP	91	240	0
NMTTP	93	96	2	A	1	M1
NMTTP	93	96	2	D	0	M1
NMTTP	93	96	3	A	0	M1
NMTTP	93	96	3	D	0	M1
NMTTP	93	192	0	E	1	M1
NMTTP	93	192	0	A	0	M1
NMTTP	93	192	1	D	0	M1
NMTTP	93	192	7	A	0	M1
NMTTP	93	192	7	D	0	M1
NMTTP	94	96	4	A	0	M1
NMTTP	94	96	5	A	1	M1
NMTTP	94	96	5	D	0	M1
NMTTP	94	96	6	D	0	M1
NMTTP	94	192	0	E	1	M1
NMTTP	94	192	0	A	0	M1
NMTTP	94	192	1	D	0	M1
NMTTP	94	192	7	A	0	M1
NMTTP	94	192	7	D	0	M1
EXTAP	94	336	1
EXTAP	94	336	6
NMTAP	95	48	5
NMTAP	95	48	7
NMTAP	95	96	5
NMTAP	95	96	7
NMTAP	95	192	3
NMTAP	95	192	4
NMTAP	95	288	0
NMTAP	95	288	2
NMTAP	95	336	0
NMTAP	95	336	2
NMSTR	96	48	0
NMSCR	96	48	0	96	168	7
NMTAP	96	48	7
NMTTP	96	144	0	C	1	M1
NMTAP	97	0	6
NMTAP	97	96	5
NMTAP	97	96	7
NMTAP	97	192	1
NMTAP	97	240	1
NMTAP	97	288	0
NMTAP	98	0	2
NMTAP	98	0	3
NMTAP	98	96	1
NMTAP	98	96	4
NMTAP	98	192	6
NMTAP	98	240	6
NMTAP	98	288	7
NMTAP	99	0	0
NMTAP	99	0	1
NMTAP	99	96	2
NMTAP	99	96	3
NMTAP	99	192	4
NMTAP	99	192	5
NMSTR	99	288	6
NMSCL	99	288	6	96	144	2
NMSTR	99	288	7
NMSUL	99	288	7	96	144	1
NMTAP	99	336	6
NMTAP	99	336	7
EXTAP	100	288	2
EXTAP	100	288	6
NMTAP	101	0	1
NMTAP	101	0	3
EXTAP	101	96	7
NMTAP	101	192	1
NMTAP	101	192	3
EXTAP	101	288	0
NMTAP	102	0	4
NMTAP	102	0	6
EXTAP	102	96	7
NMTAP	102	192	4
NMTAP	102	192	6
EXTAP	102	288	0
NMTAP	103	0	1
NMTAP	103	0	3
EXTAP	103	96	7
NMTAP	103	192	4
NMTAP	103	192	6
EXTAP	103	288	0
NMTTP	104	0	0	E	0	M1
NMTTP	104	0	0	D	0	M1
NMTTP	104	0	1	E	0	M1
NMTTP	104	0	1	D	0	M1
NMTTP	104	96	2	E	0	M1
NMTTP	104	96	2	D	0	M1
NMTTP	104	96	7	E	0	M1
NMTTP	104	96	7	D	0	M1
NMTTP	104	192	3	E	0	M1
NMTTP	104	192	3	D	0	M1
NMTTP	104	192	6	E	0	M1
NMTTP	104	192	6	D	0	M1
NMTTP	104	288	4	E	0	M1
NMTTP	104	288	4	D	0	M1
NMTTP	104	288	5	E	0	M1
NMTTP	104	288	5	D	0	M1
NMTAP	105	0	0
NMTAP	105	0	1
NMTAP	105	96	6
NMTAP	105	96	7
NMTAP	105	192	0
NMTAP	105	240	0
NMTAP	105	288	7
EXTAP	106	0	1
EXTAP	106	0	6
EXTAP	106	48	1
EXTAP	106	48	6
EXTAP	106	96	1
EXTAP	106	96	6
BXTAP	106	144	1
BXTAP	106	144	6
NMTAP	106	240	2
NMTAP	106	288	2
NMTAP	106	336	3
NMTAP	107	48	5
NMTAP	107	96	5
NMTAP	107	144	4
NMTAP	107	240	0
NMTAP	107	288	0
NMHLD	107	336	7	144
NMTAP	108	96	0
NMTAP	108	192	6
NMTAP	108	240	6
NMTAP	108	288	4
NMTAP	108	336	5
NMTAP	109	48	1
NMTAP	109	96	1
NMTAP	109	144	3
NMTAP	109	240	7
NMTAP	109	288	7
NMHLD	109	336	0	384
NMTAP	110	96	5
NMTAP	110	192	6
NMTAP	110	288	7
NMTAP	110	336	7
BRTAP	111	48	1
BRTAP	111	48	6
BXHLD	111	96	1	192
BXHLD	111	96	6	192
BRTAP	112	0	0
BRTAP	112	0	7
NMTAP	112	96	1
NMTAP	112	96	6
NMTAP	112	192	2
NMTAP	112	240	2
NMTAP	112	288	3
NMTAP	113	0	1
NMTAP	113	0	4
NMTAP	113	96	0
NMTAP	113	96	5
NMTAP	113	192	6
NMTAP	113	240	6
NMTAP	113	288	7
NMTAP	114	0	4
NMTAP	114	0	5
NMTAP	114	96	2
NMTAP	114	96	3
NMTAP	114	192	0
NMTAP	114	192	1
NMTAP	114	288	6
NMTAP	114	288	7
NMTAP	114	336	6
NMTAP	114	336	7
NMSTR	115	48	3
NMSCL	115	48	3	96	72	0
NMSTR	115	48	4
NMSCR	115	48	4	96	72	7
NMTAP	116	0	0
NMTAP	116	0	7
NMTAP	116	96	1
NMTAP	116	96	6
NMTAP	116	192	5
NMTAP	116	240	5
NMTAP	116	288	4
NMTAP	117	0	3
NMTAP	117	0	6
NMTAP	117	96	2
NMTAP	117	96	7
NMTAP	117	192	1
NMTAP	117	240	1
NMTAP	117	288	0
NMTAP	118	0	2
NMTAP	118	0	3
NMTAP	118	96	4
NMTAP	118	96	5
NMTAP	118	192	3
NMTAP	118	192	4
NMTAP	118	288	1
NMTAP	118	288	6
NMTAP	118	336	1
NMTAP	118	336	6
NMTTP	119	48	0	C	0	M1
NMTTP	119	144	3	B	0	M1
NMTTP	119	192	4	B	0	M1
NMTTP	119	288	0	E	0	M1

T_REC_TAP	440
T_REC_BRK	9
T_REC_XTP	43
T_REC_HLD	35
T_REC_XHO	7
T_REC_STR	22
T_REC_BST	1
T_REC_XST	2
T_REC_TTP	81
T_REC_THO	1
T_REC_SLD	26
T_REC_ALL	667
T_NUM_TAP	588
T_NUM_BRK	10
T_NUM_HLD	43
T_NUM_SLD	26
T_NUM_ALL	667
T_JUDGE_TAP	598
T_JUDGE_HLD	135
T_JUDGE_SLD	26
T_JUDGE_ALL	759
TTM_EACHPAIRS	159
TTM_SCR_TAP	294000
TTM_SCR_BRK	26000
TTM_SCR_HLD	43000
TTM_SCR_SLD	39000
TTM_SCR_ALL	402000
TTM_SCR_S	389000
TTM_SCR_SS	401000
TTM_RAT_ACV	10024

