VERSION	0.00.00	1.04.00
FES_MODE	0
BPM_DEF	182.000	182.000	182.000	182.000
MET_DEF	4	4
RESOLUTION	384
CLK_DEF	384
COMPATIBLE_CODE	MA2

BPM	0	0	182.000
MET	0	0	4	4

NMTTP	2	0	0	B	0	L1
NMTTP	2	192	1	B	0	L1
NMTTP	3	0	2	B	0	L1
NMTTP	3	192	3	B	0	L1
NMTTP	4	0	4	B	0	L1
NMTTP	4	192	5	B	0	L1
NMTTP	5	0	6	B	0	L1
NMTTP	5	192	7	B	0	L1
NMTAP	6	0	1
NMTAP	6	96	1
NMTAP	6	192	0
NMTAP	6	192	1
NMTAP	7	0	6
NMTAP	7	96	6
NMTAP	7	192	6
NMTAP	7	192	7
NMTAP	8	0	0
NMTAP	8	96	0
NMTAP	8	192	7
NMTAP	8	288	7
NMTAP	9	0	0
NMTAP	9	96	0
NMSTR	9	192	0
NMSXL	9	192	0	96	672	3
NMSTR	9	192	7
NMSXR	9	192	7	96	672	4
NMTAP	12	0	2
NMTAP	12	96	2
NMTAP	12	192	2
NMTAP	12	192	3
NMTAP	13	0	5
NMTAP	13	96	5
NMTAP	13	192	4
NMTAP	13	192	5
NMTAP	14	0	3
NMTAP	14	96	3
NMTAP	14	192	4
NMTAP	14	288	4
NMTTP	15	0	0	C	1	L1
NMTAP	16	0	0
NMTAP	16	96	0
NMTAP	16	192	0
NMTAP	16	192	7
NMTAP	17	0	6
NMTAP	17	96	6
NMTAP	17	192	6
NMTAP	17	192	7
NMTAP	18	0	5
NMTAP	18	96	5
NMTAP	18	192	3
NMTAP	18	288	3
NMTAP	19	0	4
NMTAP	19	96	4
NMTAP	19	192	3
NMTAP	19	192	4
NMTAP	20	0	2
NMTAP	20	96	2
NMTAP	20	192	2
NMTAP	20	192	3
NMTAP	21	0	4
NMTAP	21	96	4
NMTAP	21	192	3
NMSTR	21	288	3
NMSCL	21	288	3	96	576	4
NMTAP	24	0	5
NMTAP	24	96	5
NMTAP	24	192	3
NMTAP	24	288	3
NMTAP	25	0	4
NMTAP	25	96	4
NMTAP	25	192	3
NMTAP	25	192	4
NMHLD	26	0	4	96
NMHLD	26	192	3	96
NMHLD	26	192	5	96
NMTAP	27	0	2
NMTAP	27	96	2
NMTAP	27	192	2
NMTAP	27	192	3
NMTAP	28	0	4
NMTAP	28	96	4
NMTAP	28	192	3
NMTAP	28	288	3
NMTAP	29	0	5
NMTAP	29	96	5
NMTAP	29	192	4
NMTAP	29	192	5
NMHLD	30	0	3	96
NMHLD	30	192	2	96
NMHLD	30	192	4	96
NMTAP	31	0	5
NMTAP	31	96	5
NMTAP	31	192	4
NMTAP	31	192	5
NMTAP	32	0	3
NMTAP	32	96	3
NMTAP	32	192	4
NMTAP	32	288	4
NMHLD	33	0	3	96
NMHLD	33	0	4	96
EXTAP	33	192	2
EXTAP	33	192	5
NMHLD	34	0	2	192
NMTAP	34	192	3
NMTAP	34	288	3
NMTAP	35	0	1
NMTAP	35	96	1
NMTAP	35	192	1
NMTAP	35	192	7
NMTAP	36	0	6
NMTAP	36	96	6
NMTAP	36	192	4
NMTAP	36	192	5
NMTAP	37	0	1
NMTAP	37	96	1
NMTAP	37	192	2
NMTAP	37	192	3
NMHLD	38	0	5	192
NMTAP	38	192	4
NMTAP	38	288	4
NMTAP	39	0	6
NMTAP	39	96	6
NMTAP	39	192	0
NMTAP	39	192	6
NMTAP	40	0	1
NMTAP	40	96	1
NMTAP	40	192	2
NMTAP	40	192	3
NMTAP	41	0	3
NMTAP	41	0	4
NMTAP	41	96	2
NMTAP	41	96	5
EXTAP	41	192	1
EXTAP	41	192	6
NMSTR	42	0	1
NMSI_	42	0	1	96	192	5
NMSTR	43	0	6
NMSI_	43	0	6	96	192	2
NMSTR	44	0	3
NMSI_	44	0	3	96	192	0
NMSTR	44	0	4
NMSI_	44	0	4	96	192	7
EXHLD	45	0	1	192
EXHLD	45	0	6	192
NMTTP	46	0	1	E	0	L1
NMTTP	46	192	0	E	0	L1
NMTTP	47	0	7	E	0	L1
NMTTP	47	192	6	E	0	L1
NMTTP	48	0	5	E	0	L1
NMTTP	48	192	4	E	0	L1
NMTTP	49	0	3	E	0	L1
NMTTP	49	192	2	E	0	L1
NMTAP	50	0	2
NMTAP	50	0	3
NMTAP	50	192	0
NMTAP	50	192	1
NMTAP	51	0	6
NMTAP	51	0	7
NMTAP	51	192	4
NMTAP	51	192	5
NMTAP	52	0	2
NMTAP	52	96	2
NMTAP	52	192	1
NMTAP	52	192	3
NMTAP	53	0	5
NMTAP	53	96	5
NMTAP	53	192	4
NMTAP	53	192	6
NMTAP	54	0	6
NMTAP	54	96	6
NMTAP	54	192	7
NMTAP	54	288	7
NMTAP	55	0	0
NMTAP	55	96	0
NMTAP	55	192	0
NMTAP	55	192	7
NMTAP	56	0	1
NMTAP	56	96	1
NMTAP	56	192	0
NMTAP	56	288	0
NMTAP	57	0	7
NMTAP	57	96	7
BRTAP	57	192	0
BRTAP	57	192	7
NMTAP	58	0	1
NMTAP	58	96	0
NMTAP	58	192	7
NMTAP	58	288	6
NMTAP	59	0	4
NMTAP	59	0	5
NMTAP	59	96	4
NMTAP	59	96	5
EXTAP	59	192	3
EXTAP	59	192	6
NMTAP	60	0	6
NMTAP	60	96	7
NMTAP	60	192	0
NMTAP	60	288	1
NMTAP	61	0	2
NMTAP	61	0	3
NMTAP	61	96	2
NMTAP	61	96	3
EXTAP	61	192	1
EXTAP	61	192	4
NMTAP	62	0	5
NMTAP	62	96	5
NMTAP	62	192	4
NMTAP	62	192	6
NMTAP	63	0	2
NMTAP	63	96	2
NMTAP	63	192	1
NMTAP	63	192	3
NMTAP	64	0	1
NMTAP	64	96	0
NMTAP	64	192	7
NMSTR	64	288	6
NMSUL	64	288	6	96	288	1
NMTAP	66	0	0
NMTAP	66	96	0
NMTAP	66	192	1
NMTAP	66	192	7
NMTAP	66	288	1
NMTAP	66	288	7
NMTAP	67	0	6
NMTAP	67	96	6
NMTAP	67	192	5
NMTAP	67	192	7
NMTAP	67	288	5
NMTAP	67	288	7
NMTAP	68	0	0
NMTAP	68	96	1
NMTAP	68	192	2
NMTAP	68	288	3
NMTAP	69	0	2
NMTAP	69	0	4
NMTAP	69	96	1
NMTAP	69	96	5
BRTAP	69	192	0
BRTAP	69	192	6
NMTAP	70	0	7
NMTAP	70	96	6
NMTAP	70	192	5
NMTAP	70	288	4
NMSTR	71	0	3
NMSI_	71	0	3	96	192	7
NMTAP	72	0	0
NMTAP	72	0	6
NMTAP	72	96	0
NMTAP	72	96	6
NMTAP	72	192	1
NMTAP	72	192	5
NMTAP	72	288	1
NMTAP	72	288	5
NMTTP	73	0	0	C	1	L1
EXSTR	74	0	7
NMSCL	74	0	7	96	576	1
EXSTR	76	0	0
NMSCR	76	0	0	96	576	6
NMTHO	78	0	0	768	C	1	L1
NMHLD	82	0	5	192
NMHLD	82	192	4	192
NMHLD	83	0	3	192
NMTAP	83	192	2
NMTAP	84	0	1
NMTAP	84	96	1
NMTAP	84	192	0
NMTAP	84	288	0
NMTAP	85	0	7
NMTAP	85	96	7
NMTAP	85	192	6
NMTAP	85	192	7
NMTAP	86	0	6
NMTAP	86	96	6
NMTAP	86	192	7
NMTAP	86	288	7
NMTAP	87	0	0
NMTAP	87	96	0
NMTAP	87	192	0
NMTAP	87	192	1
NMTAP	88	0	1
NMTAP	88	96	1
NMTAP	88	192	2
NMTAP	88	288	2
NMTAP	89	0	3
NMTAP	89	96	3
NMTAP	89	192	3
NMTAP	89	192	4
NMTAP	90	0	5
NMTAP	90	96	5
NMTAP	90	192	6
NMTAP	90	288	6
NMTAP	91	0	7
NMTAP	91	96	7
NMTAP	91	192	0
NMTAP	91	192	7
BRTAP	91	288	0
BRTAP	91	288	7
EXTAP	93	96	0
EXTAP	93	96	1
EXTAP	93	192	0
EXTAP	93	192	1
EXTAP	94	96	6
EXTAP	94	96	7
EXTAP	94	192	6
EXTAP	94	192	7
NMTAP	95	0	0
NMTAP	95	96	0
NMTAP	95	192	7
NMTAP	95	288	7
NMTAP	96	0	0
NMTAP	96	0	6
NMTAP	96	96	0
NMTAP	96	96	6
BRTAP	96	192	1
BRTAP	96	192	5
NMTAP	97	0	2
NMTAP	97	96	2
NMTAP	97	192	3
NMTAP	97	288	1
NMTAP	97	288	4
NMTAP	98	0	5
NMTAP	98	96	5
NMTAP	98	192	4
NMTAP	98	288	3
NMTAP	98	288	6
NMTAP	99	0	7
NMTAP	99	96	7
NMTAP	99	192	0
NMSTR	99	288	1
NMSUR	99	288	1	96	288	6
NMTAP	99	288	7
NMTAP	101	0	7
NMTAP	101	96	7
NMTAP	101	192	0
NMTAP	101	192	6
NMTAP	101	288	0
NMTAP	101	288	6
NMTAP	102	0	1
NMTAP	102	96	1
NMTAP	102	192	0
NMTAP	102	192	2
NMTAP	102	288	0
NMTAP	102	288	2
NMTAP	103	0	7
NMTAP	103	96	6
NMTAP	103	192	5
NMTAP	103	288	4
NMTAP	104	0	3
NMTAP	104	0	5
NMTAP	104	96	2
NMTAP	104	96	6
BRTAP	104	192	1
BRTAP	104	192	7
NMTAP	105	0	0
NMTAP	105	96	1
NMTAP	105	192	2
NMTAP	105	288	3
NMSTR	106	0	4
NMSI_	106	0	4	96	192	0
NMTAP	107	0	7
NMTAP	107	96	6
NMTAP	107	192	5
NMTAP	107	288	4
NMHLD	108	0	3	192
NMTAP	108	192	4
NMTAP	108	288	3
NMTAP	108	288	4
NMTAP	109	0	2
NMTAP	109	0	5
NMTAP	109	96	1
NMTAP	109	96	6
NMTAP	109	192	0
NMTAP	109	192	7
NMTAP	109	288	0
NMTAP	109	288	7
NMTHO	110	0	0	336	C	1	L1
BXTAP	112	0	0
BXTAP	112	0	7
NMTAP	112	96	0
NMTAP	112	96	7
NMTAP	112	192	1
NMTAP	112	288	1
NMTAP	113	0	2
NMTAP	113	96	2
NMTAP	113	192	1
NMTAP	113	192	3
NMTAP	114	0	0
NMTAP	114	0	7
NMTAP	114	96	0
NMTAP	114	96	7
NMTAP	114	192	6
NMTAP	114	288	6
NMTAP	115	0	5
NMTAP	115	96	5
NMTAP	115	192	4
NMTAP	115	192	6
NMTAP	116	0	1
NMTAP	116	96	2
NMTAP	116	192	1
NMTAP	116	192	3
NMTAP	117	0	6
NMTAP	117	96	5
NMTAP	117	192	4
NMTAP	117	192	6
NMTAP	118	0	7
NMTAP	118	96	7
NMTAP	118	192	0
NMTAP	118	192	7
NMSTR	118	288	0
NMSCR	118	288	0	96	192	3
NMSTR	118	288	7
NMSCL	118	288	7	96	192	4

T_REC_TAP	320
T_REC_BRK	10
T_REC_XTP	16
T_REC_HLD	14
T_REC_XHO	2
T_REC_STR	13
T_REC_BST	0
T_REC_XST	2
T_REC_TTP	18
T_REC_THO	2
T_REC_SLD	15
T_REC_ALL	412
T_NUM_TAP	369
T_NUM_BRK	10
T_NUM_HLD	18
T_NUM_SLD	15
T_NUM_ALL	412
T_JUDGE_TAP	379
T_JUDGE_HLD	71
T_JUDGE_SLD	15
T_JUDGE_ALL	465
TTM_EACHPAIRS	91
TTM_SCR_TAP	184500
TTM_SCR_BRK	26000
TTM_SCR_HLD	18000
TTM_SCR_SLD	22500
TTM_SCR_ALL	251000
TTM_SCR_S	242500
TTM_SCR_SS	250000
TTM_RAT_ACV	10040

