VERSION	0.00.00	1.03.00
FES_MODE	0
BPM_DEF	 70.000	 70.000	 70.000	 70.000
MET_DEF	4	4
RESOLUTION	384
CLK_DEF	384
COMPATIBLE_CODE	MA2

BPM	0	0	 70.000
BPM	25	0	 70.000
MET	0	0	4	4
MET	25	0	4	4
MET	26	0	12	11
MET	30	224	4	4

STR	1	0	0
SCR	1	0	0	96	96	5
TAP	1	96	6
STR	1	192	7
SCL	1	192	7	96	96	2
TAP	1	288	1
STR	2	0	0
SCR	2	0	0	96	96	5
TAP	2	96	5
HLD	2	192	6	96
TAP	2	288	4
STR	3	0	7
SCL	3	0	7	96	96	2
TAP	3	96	1
STR	3	192	0
SCR	3	192	0	96	96	5
TAP	3	288	6
STR	4	0	7
SCL	4	0	7	96	96	2
TAP	4	96	2
TAP	4	192	1
TAP	4	224	1
TAP	4	256	7
STR	4	288	7
SCL	4	288	7	96	32	4
TAP	4	352	4
STR	5	0	3
SCL	5	0	3	96	32	0
TAP	5	64	5
STR	5	96	5
SCR	5	96	5	96	32	0
TAP	5	160	1
STR	5	192	2
SI_	5	192	2	96	32	6
TAP	5	224	3
TAP	5	256	3
STR	5	288	4
SI_	5	288	4	96	32	7
TAP	5	352	0
STR	6	0	1
SI_	6	0	1	96	32	7
TAP	6	32	2
TAP	6	64	3
STR	6	96	4
SI_	6	96	4	96	32	2
TAP	6	128	5
TAP	6	160	6
STR	6	192	7
SI_	6	192	7	96	32	5
TAP	6	224	1
TAP	6	256	1
STR	6	288	0
SF_	6	288	0	96	32	4
STR	8	0	2
SCR	8	0	2	96	32	5
TAP	8	32	1
TAP	8	48	1
TAP	8	80	6
TAP	8	96	6
TAP	8	128	7
TAP	8	160	7
STR	8	192	2
SCL	8	192	2	96	32	0
TAP	8	240	3
TAP	8	256	3
TAP	8	288	4
TAP	8	352	4
TAP	9	0	3
STR	9	0	5
SCL	9	0	5	96	32	2
TAP	9	32	6
TAP	9	48	6
TAP	9	80	1
STR	9	96	1
SI_	9	96	1	96	32	5
TAP	9	128	0
TAP	9	160	0
STR	9	192	1
SCL	9	192	1	96	32	6
SCR	9	192	1	96	32	4
TAP	9	256	7
STR	10	0	5
SCL	10	0	5	96	32	2
TAP	10	32	6
TAP	10	48	6
TAP	10	80	1
TAP	10	96	1
TAP	10	128	0
TAP	10	160	0
STR	10	192	5
SCR	10	192	5	96	32	7
TAP	10	256	3
TAP	10	288	4
TAP	10	320	4
TAP	10	352	3
STR	11	0	2
SCR	11	0	2	96	32	5
TAP	11	32	1
TAP	11	64	1
STR	11	96	6
SI_	11	96	6	96	32	2
TAP	11	128	7
TAP	11	160	7
TAP	11	192	2
TAP	11	240	1
HLD	11	256	1	32
TTP	11	288	0	C	1	M1
TTP	11	288	3	B	0	M1
TTP	11	288	4	B	0	M1
TAP	12	0	1
TAP	12	0	7
TAP	12	16	1
TAP	12	16	7
TAP	12	48	2
TAP	12	48	6
TAP	12	80	3
TAP	12	80	5
TAP	12	96	3
HLD	12	96	5	64
TAP	12	128	4
TAP	12	160	7
TAP	12	192	0
TAP	12	192	6
TAP	12	208	0
TAP	12	208	6
TAP	12	240	1
TAP	12	240	5
TAP	12	272	2
TAP	12	272	4
HLD	12	288	2	64
TAP	12	288	4
TAP	12	320	3
TAP	12	352	0
TAP	13	0	1
TAP	13	0	7
TAP	13	16	1
TAP	13	16	7
TAP	13	48	2
TAP	13	48	6
TAP	13	80	3
TAP	13	80	5
STR	13	96	3
SI_	13	96	3	96	48	7
HLD	13	96	5	32
TAP	13	128	4
TAP	13	160	2
STR	13	192	0
SCR	13	192	0	96	48	4
TAP	13	224	0
TAP	13	256	0
TAP	13	288	5
STR	14	0	6
SCR	14	0	6	96	32	1
TAP	14	32	4
TAP	14	48	4
TAP	14	80	2
TAP	14	96	2
TAP	14	128	3
TAP	14	160	4
STR	14	192	6
SCL	14	192	6	96	32	4
TAP	14	224	7
TAP	14	240	7
TAP	14	272	2
STR	14	288	2
SI_	14	288	2	96	48	6
TAP	14	320	3
TAP	14	352	3
TAP	15	32	4
TAP	15	64	4
STR	15	96	5
SI_	15	96	5	96	32	1
TAP	15	128	6
TAP	15	160	6
STR	15	192	5
SCL	15	192	5	96	32	2
SCR	15	192	5	96	32	0
TAP	15	256	4
STR	16	0	1
SCL	16	0	1	96	32	6
TAP	16	48	3
TAP	16	64	3
TAP	16	96	5
TAP	16	160	3
STR	16	192	1
SCR	16	192	1	96	32	3
TAP	16	240	5
TAP	16	256	5
TAP	16	288	6
TAP	16	320	7
TAP	16	352	7
STR	17	0	6
SI_	17	0	6	96	32	1
TAP	17	48	4
TAP	17	64	4
STR	17	96	2
SCL	17	96	2	96	96	3
TAP	17	128	3
TAP	17	160	4
TAP	17	192	4
TAP	18	0	3
TAP	18	0	5
TAP	18	16	3
TAP	18	16	5
TAP	18	48	2
TAP	18	48	6
HLD	18	96	1	64
TAP	18	96	7
TAP	18	128	3
TAP	18	160	3
TAP	18	192	2
TAP	18	192	4
TAP	18	208	2
TAP	18	208	4
TAP	18	240	1
TAP	18	240	5
TAP	18	288	0
HLD	18	288	6	64
TAP	18	320	4
TAP	18	352	2
BRK	19	0	0
BRK	19	0	7
BRK	19	48	1
BRK	19	48	2
BRK	19	96	3
BRK	19	96	4
BRK	19	144	5
BRK	19	144	6
TAP	19	192	0
TAP	19	192	7
TAP	19	208	0
TAP	19	208	7
TTP	19	240	1	B	0	M1
TTP	19	240	2	B	0	M1
TTP	19	240	5	B	0	M1
TTP	19	240	6	B	0	M1
XTP	19	272	3
XTP	19	272	4
XST	19	288	3
SCL	19	288	3	96	32	0
XTP	19	288	4
XTP	19	304	3
XTP	19	304	4
TAP	19	352	5
BST	20	0	3
SCR	20	0	3	96	32	6
TAP	20	32	4
TAP	20	48	4
TAP	20	64	4
STR	20	96	3
SXR	20	96	3	96	96	0
TAP	20	128	0
TAP	20	160	2
STR	20	192	4
SI_	20	192	4	96	32	7
TAP	20	224	7
TAP	20	256	5
BST	20	288	4
SCL	20	288	4	96	32	1
TAP	20	320	2
TAP	20	352	2
STR	21	0	4
SCR	21	0	4	96	32	7
TAP	21	32	7
TAP	21	64	5
STR	21	96	0
SXL	21	96	0	96	96	3
TAP	21	96	4
TAP	21	128	1
TAP	21	160	1
TAP	21	192	7
TAP	21	224	6
TAP	21	256	5
STR	21	288	4
SCR	21	288	4	96	32	7
TAP	21	320	5
TAP	21	352	2
STR	22	0	4
SCL	22	0	4	96	32	1
TAP	22	32	3
TAP	22	48	3
TAP	22	64	3
STR	22	96	4
SXL	22	96	4	96	96	7
TAP	22	128	7
TAP	22	160	5
STR	22	192	3
SI_	22	192	3	96	32	0
TAP	22	224	0
TAP	22	256	2
BST	22	288	3
SCR	22	288	3	96	32	6
TAP	22	320	5
TAP	22	352	5
STR	23	0	3
SCL	23	0	3	96	32	0
TAP	23	32	2
TAP	23	64	2
TAP	23	96	3
STR	23	96	4
SXL	23	96	4	96	96	3
TAP	23	128	5
TAP	23	160	5
STR	23	192	0
SXL	23	192	0	96	96	7
STR	24	0	5
SI_	24	0	5	96	32	3
TAP	24	32	4
TAP	24	64	4
STR	24	96	1
SI_	24	96	1	96	32	7
TAP	24	128	2
TAP	24	160	2
STR	24	192	4
SUL	24	192	4	96	96	3
TAP	24	224	3
TAP	24	256	3
TAP	24	288	5
TAP	25	32	2
TAP	25	32	5
TAP	25	64	3
TAP	25	64	4
STR	25	96	3
SCL	25	96	3	96	32	0
STR	25	96	4
SCR	25	96	4	96	32	7
TAP	25	128	2
TAP	25	128	5
TAP	25	160	2
TAP	25	160	5
STR	25	192	3
SI_	25	192	3	96	32	7
STR	25	192	4
SI_	25	192	4	96	32	0
STR	25	288	3
SCL	25	288	3	96	96	4
STR	25	288	4
SCR	25	288	4	96	96	3
XTP	26	0	3
XTP	26	0	4
STR	26	192	0
SI_	26	192	0	96	32	3
STR	26	224	0
SI_	26	224	0	96	32	5
TAP	26	256	2
TAP	26	256	6
STR	26	352	4
SI_	26	352	4	96	32	1
STR	27	0	4
SI_	27	0	4	96	32	7
STR	27	32	4
SI_	27	32	4	96	32	0
STR	27	160	7
SI_	27	160	7	96	32	4
STR	27	192	7
SI_	27	192	7	96	32	2
TAP	27	224	1
TAP	27	224	5
STR	27	320	3
SCL	27	320	3	96	48	7
SCR	27	320	3	96	48	7
TAP	27	352	1
TAP	27	352	5
TAP	28	0	1
TAP	28	0	5
STR	28	128	7
SI_	28	128	7	96	32	4
STR	28	160	7
SI_	28	160	7	96	32	2
TAP	28	192	1
TAP	28	192	5
STR	28	288	3
SI_	28	288	3	96	32	0
STR	28	320	3
SI_	28	320	3	96	32	6
STR	28	352	3
SI_	28	352	3	96	32	7
STR	29	96	0
SI_	29	96	0	96	32	5
STR	29	128	0
SI_	29	128	0	96	32	3
TAP	29	160	2
TAP	29	160	6
STR	29	256	4
SI_	29	256	4	96	32	1
STR	29	288	4
SI_	29	288	4	96	32	7
STR	29	320	4
SI_	29	320	4	96	32	0
STR	30	64	7
SCR	30	64	7	96	32	2
STR	30	96	7
SCL	30	96	7	96	32	4
STR	30	128	7
SI_	30	128	7	96	32	3
THO	30	320	0	96	C	0	M1
TTP	32	32	0	C	0	M1
TTP	32	32	6	B	0	M1
TTP	32	32	6	E	0	M1
TTP	32	32	7	B	0	M1
TTP	32	32	7	E	0	M1
TTP	32	80	0	B	0	M1
TTP	32	80	0	E	0	M1
TTP	32	80	1	B	0	M1
TTP	32	80	1	E	0	M1
TTP	32	80	2	E	0	M1
TTP	32	128	2	B	0	M1
TTP	32	128	3	B	0	M1
TTP	32	128	3	E	0	M1
TTP	32	128	4	B	0	M1
TTP	32	128	4	E	0	M1
TTP	32	128	5	B	0	M1
TTP	32	128	5	E	0	M1
TTP	32	176	0	C	1	M1
XTP	32	224	1
XTP	32	224	6
XTP	32	240	1
XTP	32	240	6
TAP	32	272	2
TAP	32	272	5
TAP	32	304	0
TAP	32	304	7
TAP	32	320	0
STR	32	320	7
SCL	32	320	7	96	32	4
TAP	32	352	3
TAP	32	352	4
TAP	33	0	1
BST	33	32	7
SCR	33	32	7	96	32	2
TAP	33	64	0
TAP	33	80	0
TAP	33	96	0
STR	33	128	7
SXR	33	128	7	96	96	4
TAP	33	160	6
TAP	33	192	6
STR	33	224	3
SI_	33	224	3	96	32	0
TAP	33	256	0
TAP	33	288	2
BST	33	320	3
SCR	33	320	3	96	32	6
TAP	33	352	5
TAP	34	0	5
STR	34	32	3
SCL	34	32	3	96	32	0
TAP	34	64	1
TAP	34	80	1
TAP	34	96	1
TAP	34	128	3
STR	34	128	4
SXL	34	128	4	96	96	7
TAP	34	160	6
TAP	34	192	6
TAP	34	224	3
TAP	34	256	2
TAP	34	288	1
STR	34	320	0
SCR	34	320	0	96	32	3
TAP	34	352	1
TAP	34	352	6
TAP	35	0	1
TAP	35	0	6
STR	35	32	0
SCL	35	32	0	96	32	5
TAP	35	64	7
TAP	35	80	7
TAP	35	96	7
STR	35	128	0
SXL	35	128	0	96	96	3
TAP	35	160	2
TAP	35	192	2
STR	35	224	4
SI_	35	224	4	96	32	7
TAP	35	256	7
TAP	35	288	5
BST	35	320	4
SCL	35	320	4	96	32	1
TAP	35	352	2
TAP	36	0	2
STR	36	32	4
SCR	36	32	4	96	32	7
TAP	36	64	6
TAP	36	80	6
TAP	36	96	6
STR	36	128	0
SXL	36	128	0	96	96	7
TAP	36	128	4
TAP	36	160	1
TAP	36	192	1
STR	36	224	4
SXL	36	224	4	96	96	3
STR	37	32	1
SI_	37	32	1	96	32	7
TAP	37	64	0
TAP	37	80	0
TAP	37	96	0
STR	37	128	5
SI_	37	128	5	96	32	3
TAP	37	160	6
TAP	37	176	6
TAP	37	192	6
STR	37	224	0
SUL	37	224	0	96	96	7
TAP	37	256	7
TAP	37	272	7
TAP	37	288	7
TAP	37	320	1
TAP	38	64	1
TAP	38	64	6
TAP	38	96	0
TAP	38	96	7
STR	38	128	0
SCR	38	128	0	96	32	3
STR	38	128	7
SCL	38	128	7	96	32	4
TAP	38	160	1
TAP	38	160	6
TAP	38	192	1
TAP	38	192	6
STR	38	224	0
SI_	38	224	0	96	32	4
STR	38	224	7
SI_	38	224	7	96	32	3
STR	38	320	0
SCR	38	320	0	96	96	7
STR	38	320	7
SCL	38	320	7	96	96	0
XTP	39	32	0
XTP	39	32	7
STR	39	224	2
SXR	39	224	2	96	96	3
TAP	39	256	3
TAP	39	272	3
TAP	39	304	5
TAP	39	320	5
TAP	39	352	4
TAP	40	0	5
STR	40	32	6
SXL	40	32	6	96	96	4
TAP	40	64	4
TAP	40	80	4
TAP	40	112	2
TAP	40	128	2
TAP	40	160	3
TAP	40	192	2
STR	40	224	2
SXL	40	224	2	96	96	1
TAP	40	256	3
TAP	40	272	3
TAP	40	304	5
STR	40	320	5
SCR	40	320	5	96	32	0
TAP	40	352	6
TAP	41	0	6
STR	41	32	5
SI_	41	32	5	96	32	2
TAP	41	64	4
TAP	41	96	4
TAP	41	128	0
TAP	41	160	0
TAP	41	192	0
STR	41	224	5
SXL	41	224	5	96	96	4
TAP	41	256	4
TAP	41	272	4
TAP	41	304	2
TAP	41	320	2
TAP	41	352	3
TAP	42	0	2
STR	42	32	1
SXR	42	32	1	96	96	3
TAP	42	64	3
TAP	42	80	3
TAP	42	112	5
TAP	42	128	5
TAP	42	160	4
TAP	42	192	5
STR	42	224	5
SXR	42	224	5	96	96	6
TAP	42	256	4
TAP	42	272	4
TAP	42	304	2
STR	42	320	2
SCL	42	320	2	96	32	7
TAP	42	352	1
TAP	43	0	1
STR	43	32	2
SLR	43	32	2	96	64	0
TAP	43	64	5
TAP	43	96	5
TAP	43	128	7
TAP	43	160	6
TAP	43	192	5
STR	43	224	2
SLR	43	224	2	96	64	0
TAP	43	256	0
TAP	43	288	0
TAP	43	320	7
TAP	43	352	6
TAP	44	0	5
STR	44	32	4
SF_	44	32	4	96	384	0
TAP	44	64	3
TAP	44	64	5
TAP	44	96	1
TAP	44	96	7
BRK	44	128	4

T_REC_TAP	319
T_REC_BRK	9
T_REC_XTP	13
T_REC_HLD	7
T_REC_XHO	0
T_REC_STR	109
T_REC_BST	6
T_REC_XST	1
T_REC_TTP	25
T_REC_THO	1
T_REC_SLD	119
T_REC_ALL	609
T_NUM_TAP	467
T_NUM_BRK	15
T_NUM_HLD	8
T_NUM_SLD	119
T_NUM_ALL	609
T_JUDGE_TAP	482
T_JUDGE_HLD	24
T_JUDGE_SLD	119
T_JUDGE_ALL	625
TTM_EACHPAIRS	69
TTM_SCR_TAP	233500
TTM_SCR_BRK	39000
TTM_SCR_HLD	8000
TTM_SCR_SLD	178500
TTM_SCR_ALL	459000
TTM_SCR_S	443800
TTM_SCR_SS	457500
TTM_RAT_ACV	10032

