VERSION	0.00.00	1.03.00
FES_MODE	0
BPM_DEF	 70.000	 70.000	 70.000	 70.000
MET_DEF	4	4
RESOLUTION	384
CLK_DEF	384
COMPATIBLE_CODE	MA2

BPM	0	0	 70.000
BPM	25	0	 70.000
MET	0	0	4	4
MET	25	0	4	4
MET	26	0	12	11
MET	30	224	4	4

HLD	1	0	2	384
STR	1	96	3
SCL	1	96	3	96	120	5
TAP	1	128	3
TAP	1	160	3
HLD	2	0	6	384
STR	2	96	4
SCR	2	96	4	96	120	2
TAP	2	128	4
TAP	2	160	4
HLD	3	0	1	384
STR	3	96	0
SCL	3	96	0	96	120	2
TAP	3	128	0
TAP	3	160	0
HLD	4	0	7	96
TAP	4	96	4
TAP	4	128	4
TAP	4	160	4
TTP	4	192	0	C	1	M1
TAP	5	0	0
STR	5	0	1
SUR	5	0	1	96	64	6
TAP	5	32	0
TAP	5	32	1
TAP	5	64	0
TAP	5	64	1
HLD	5	192	7	96
TAP	5	288	4
STR	6	0	6
SUL	6	0	6	96	64	1
TAP	6	0	7
TAP	6	32	6
TAP	6	32	7
TAP	6	64	6
TAP	6	64	7
HLD	6	192	0	96
TAP	6	288	4
HLD	7	0	1	192
HLD	7	0	7	288
BRK	7	288	0
HLD	8	0	1	96
TAP	8	96	3
HLD	8	128	3	64
HLD	8	192	4	96
TAP	8	288	5
TAP	8	320	5
TAP	9	0	4
STR	9	0	6
SCR	9	0	6	96	104	3
TAP	9	32	4
TAP	9	32	6
TAP	9	64	4
TAP	9	64	6
HLD	9	192	0	96
TAP	9	288	4
HLD	10	0	6	96
TAP	10	96	4
HLD	10	128	4	64
HLD	10	192	3	96
TAP	10	288	2
TAP	10	320	2
STR	11	0	1
SCL	11	0	1	96	104	4
TAP	11	0	3
TAP	11	32	1
TAP	11	32	3
TAP	11	64	1
TAP	11	64	3
HLD	11	192	7	96
TTP	11	288	0	C	1	M1
HLD	12	0	1	96
TTP	12	96	0	C	1	M1
TAP	12	192	0
HLD	12	192	7	96
TTP	12	288	0	C	1	M1
STR	13	0	6
SI_	13	0	6	96	54	2
TTP	13	96	0	C	1	M1
TAP	13	192	0
TAP	13	224	0
TAP	13	256	7
BRK	13	288	1
BRK	13	288	6
TAP	14	0	1
STR	14	0	7
SCL	14	0	7	96	160	2
TAP	14	32	1
TAP	14	32	7
TAP	14	64	1
TAP	14	64	7
TTP	14	96	0	C	0	M1
TAP	14	192	1
TAP	14	256	0
HLD	14	288	0	96
HLD	15	0	2	96
HLD	15	96	4	96
HLD	15	192	6	96
TAP	15	288	7
STR	16	0	0
SCR	16	0	0	96	160	5
TAP	16	0	6
TAP	16	32	0
TAP	16	32	6
TAP	16	64	0
TAP	16	64	6
TTP	16	96	0	C	0	M1
TAP	16	192	6
TAP	16	256	7
HLD	16	288	7	96
HLD	17	0	5	96
HLD	17	96	3	96
HLD	17	192	1	96
TAP	17	288	0
STR	18	0	3
SI_	18	0	3	96	64	0
TAP	18	32	3
TAP	18	64	3
STR	18	192	7
SI_	18	192	7	96	64	4
TAP	18	224	7
TAP	18	256	7
STR	19	0	3
SCL	19	0	3	96	64	0
TAP	19	32	3
TAP	19	64	3
XTP	19	192	7
TAP	19	224	7
TAP	19	256	6
BRK	19	288	1
BRK	19	288	5
STR	20	0	7
SI_	20	0	7	96	64	2
SI_	20	0	7	96	64	4
TAP	20	32	7
TAP	20	64	7
TAP	20	192	3
TAP	20	224	2
TAP	20	224	4
TAP	20	256	1
TAP	20	256	5
BRK	20	288	0
BRK	20	288	6
STR	21	0	1
SCL	21	0	1	96	64	6
STR	21	0	5
SCL	21	0	5	96	64	2
TAP	21	32	1
TAP	21	32	5
TAP	21	64	1
TAP	21	64	5
TAP	21	192	3
TAP	21	192	7
TAP	21	224	0
TAP	21	224	4
TAP	21	256	1
TAP	21	256	5
XTP	21	288	2
XTP	21	288	6
STR	22	0	0
SI_	22	0	0	96	64	3
SI_	22	0	0	96	64	5
TAP	22	32	0
TAP	22	64	0
TAP	22	192	4
TAP	22	224	3
TAP	22	224	5
TAP	22	256	2
TAP	22	256	6
BRK	22	288	1
BRK	22	288	7
STR	23	0	0
SF_	23	0	0	96	64	4
TAP	23	32	0
TAP	23	64	0
STR	23	192	7
SCL	23	192	7	96	64	4
SCR	23	192	7	96	64	2
TAP	23	224	7
TAP	23	256	7
HLD	24	0	1	96
TTP	24	96	0	C	1	M1
HLD	24	192	6	96
TTP	24	288	0	C	1	M1
TAP	25	0	1
STR	25	0	7
SCL	25	0	7	96	96	2
TAP	25	32	1
TAP	25	32	7
TAP	25	64	1
TAP	25	64	7
STR	25	192	0
SI_	25	192	0	96	52	4
STR	25	288	7
SCL	25	288	7	96	64	4
SCR	25	288	7	96	64	2
TAP	26	192	1
HLD	26	224	1	128
TAP	26	288	2
TAP	26	352	3
HLD	27	0	3	160
TAP	27	64	4
TAP	27	96	4
TAP	27	160	5
HLD	27	192	5	64
TAP	27	256	6
TAP	27	320	7
TAP	27	352	7
TAP	28	0	0
TAP	28	0	6
BRK	28	32	1
BRK	28	32	5
TAP	28	128	6
HLD	28	160	6	128
TAP	28	224	7
TAP	28	288	0
HLD	28	320	0	160
TAP	29	0	1
TAP	29	32	1
TAP	29	96	2
HLD	29	128	2	128
TAP	29	192	3
TAP	29	256	4
HLD	29	288	4	64
TAP	29	352	5
TAP	30	0	5
TAP	30	64	3
TAP	30	64	4
TAP	30	96	3
TAP	30	96	4
TAP	30	160	2
TAP	30	160	5
THO	30	224	0	192	C	1	M1
TTP	30	224	5	B	0	M1
TTP	30	224	6	B	0	M1
HLD	31	32	7	384
TAP	32	32	1
STR	32	128	2
SXR	32	128	2	96	120	4
TAP	32	128	6
XTP	32	224	5
STR	33	32	4
SI_	33	32	4	96	64	1
SI_	33	32	4	96	64	7
TAP	33	64	4
TAP	33	96	4
TAP	33	224	0
TAP	33	256	1
TAP	33	256	7
TAP	33	288	2
TAP	33	288	6
BRK	33	320	3
BRK	33	320	5
STR	34	32	2
SCR	34	32	2	96	64	5
STR	34	32	6
SCR	34	32	6	96	64	1
TAP	34	64	2
TAP	34	64	6
TAP	34	96	2
TAP	34	96	6
TAP	34	224	0
TAP	34	224	4
TAP	34	256	3
TAP	34	256	7
TAP	34	288	2
TAP	34	288	6
XTP	34	320	1
XTP	34	320	5
BST	35	32	4
SI_	35	32	4	96	64	1
SI_	35	32	4	96	64	7
TAP	35	64	4
TAP	35	96	4
TAP	35	224	0
TAP	35	256	1
TAP	35	256	7
TAP	35	288	2
TAP	35	288	6
BRK	35	320	3
BRK	35	320	5
STR	36	32	7
SF_	36	32	7	96	48	3
TAP	36	64	7
TAP	36	96	7
STR	36	224	0
SCL	36	224	0	96	64	5
SCR	36	224	0	96	64	3
TAP	36	256	0
TAP	36	288	0
HLD	37	32	6	96
TTP	37	128	0	C	1	M1
HLD	37	224	1	96
TTP	37	320	0	C	1	M1
STR	38	32	0
SCR	38	32	0	96	96	5
TAP	38	32	6
TAP	38	64	0
TAP	38	64	6
TAP	38	96	0
TAP	38	96	6
STR	38	224	7
SI_	38	224	7	96	52	3
STR	38	320	0
SCL	38	320	0	96	64	5
SCR	38	320	0	96	64	3
STR	39	224	6
SCL	39	224	6	96	64	3
TAP	39	224	7
TAP	39	256	6
TAP	39	256	7
TAP	39	288	6
TAP	39	288	7
STR	40	32	1
SCL	40	32	1	96	64	6
TAP	40	32	2
TAP	40	64	1
TAP	40	64	2
TAP	40	96	1
TAP	40	96	2
STR	40	224	4
SCL	40	224	4	96	64	1
TAP	40	224	5
TAP	40	256	4
TAP	40	256	5
TAP	40	288	4
TAP	40	288	5
HLD	41	32	0	96
TTP	41	128	0	C	1	M1
STR	41	224	7
SCL	41	224	7	96	64	4
SCR	41	224	7	96	64	2
TAP	41	256	7
TAP	41	288	7
STR	42	32	2
SI_	42	32	2	96	48	7
STR	42	32	4
SI_	42	32	4	96	48	7
TAP	42	64	2
TAP	42	64	4
TAP	42	96	2
TAP	42	96	4
STR	42	224	0
SI_	42	224	0	96	64	3
SI_	42	224	0	96	64	5
TAP	42	256	0
TAP	42	288	0
STR	43	32	2
SCL	43	32	2	96	64	7
STR	43	32	4
SCR	43	32	4	96	64	7
TAP	43	64	2
TAP	43	64	4
TAP	43	96	2
TAP	43	96	4
STR	43	224	7
SV_	43	224	7	96	64	2
SV_	43	224	7	96	64	4
TAP	43	256	7
TAP	43	288	7
STR	44	32	3
SCL	44	32	3	96	384	3
SCR	44	32	3	96	384	3
TAP	44	64	3
TAP	44	96	3
BRK	44	128	3

T_REC_TAP	192
T_REC_BRK	16
T_REC_XTP	6
T_REC_HLD	39
T_REC_XHO	0
T_REC_STR	42
T_REC_BST	1
T_REC_XST	0
T_REC_TTP	14
T_REC_THO	1
T_REC_SLD	55
T_REC_ALL	366
T_NUM_TAP	254
T_NUM_BRK	17
T_NUM_HLD	40
T_NUM_SLD	55
T_NUM_ALL	366
T_JUDGE_TAP	271
T_JUDGE_HLD	232
T_JUDGE_SLD	55
T_JUDGE_ALL	558
TTM_EACHPAIRS	75
TTM_SCR_TAP	127000
TTM_SCR_BRK	44200
TTM_SCR_HLD	40000
TTM_SCR_SLD	82500
TTM_SCR_ALL	293700
TTM_SCR_S	283250
TTM_SCR_SS	292000
TTM_RAT_ACV	10058

