VERSION	0.00.00	1.03.00
FES_MODE	0
BPM_DEF	 70.000	 70.000	 70.000	 70.000
MET_DEF	4	4
RESOLUTION	384
CLK_DEF	384
COMPATIBLE_CODE	MA2

BPM	0	0	 70.000
BPM	25	0	 70.000
MET	0	0	4	4
MET	25	0	4	4
MET	26	0	12	11
MET	30	224	4	4

HLD	1	0	2	192
TAP	1	192	3
HLD	2	0	1	192
TAP	2	192	0
HLD	3	0	6	192
TAP	3	192	7
HLD	4	0	5	192
TAP	4	192	4
TAP	5	0	4
TAP	5	96	4
TAP	5	192	3
TAP	5	288	3
TAP	6	0	2
TAP	6	96	2
TAP	6	192	1
TAP	6	288	1
HLD	7	0	0	192
XTP	7	192	7
TAP	8	0	2
TAP	8	96	3
TAP	8	128	3
TAP	8	160	3
TAP	8	192	3
TAP	8	288	4
TAP	8	288	5
TAP	9	0	5
TAP	9	96	4
TAP	9	128	4
TAP	9	160	4
TAP	9	192	4
TAP	9	288	2
TAP	9	288	3
TAP	10	0	1
TAP	10	96	0
TAP	10	128	0
TAP	10	160	0
TAP	10	192	0
TAP	10	288	0
TAP	10	288	7
TAP	11	0	6
TAP	11	96	7
TAP	11	128	7
TAP	11	160	7
TAP	11	192	7
TAP	11	288	0
TAP	11	288	7
TTP	12	0	1	B	0	L1
TTP	12	96	2	B	0	L1
TTP	12	192	3	B	0	L1
TTP	12	288	4	B	0	L1
TTP	13	0	5	B	0	L1
TTP	13	96	6	B	0	L1
TTP	13	192	7	B	0	L1
HLD	14	0	2	96
HLD	14	96	3	96
HLD	14	192	4	96
TAP	14	288	5
HLD	15	0	5	96
HLD	15	96	4	96
HLD	15	192	3	96
TAP	15	288	2
HLD	16	0	2	96
HLD	16	96	3	96
HLD	16	192	4	96
HLD	16	288	5	96
HLD	17	0	6	96
HLD	17	96	7	96
TAP	17	192	0
STR	18	0	0
SI_	18	0	0	96	96	4
XTP	19	0	3
XTP	19	0	4
XTP	19	96	2
XTP	19	96	5
TTP	19	192	0	C	1	L1
TAP	19	352	2
TAP	20	0	2
TAP	20	64	1
TAP	20	96	1
TAP	20	160	0
TAP	20	192	0
XTP	20	256	6
XTP	20	256	7
XTP	20	288	6
XTP	20	288	7
TAP	20	352	5
TAP	21	0	5
TAP	21	64	6
TAP	21	96	6
TAP	21	160	7
TAP	21	192	7
XTP	21	256	0
XTP	21	256	1
XTP	21	288	0
XTP	21	288	1
TAP	21	352	2
TAP	22	0	2
TAP	22	64	3
TAP	22	96	3
TAP	22	160	4
TAP	22	192	4
XTP	22	256	4
XTP	22	256	5
XTP	22	288	4
XTP	22	288	5
TAP	22	352	6
TAP	23	0	6
TAP	23	64	7
TAP	23	96	7
TAP	23	160	0
TAP	23	192	0
XTP	23	256	0
XTP	23	256	1
XTP	23	288	0
XTP	23	288	1
TAP	24	0	2
TAP	24	32	2
TAP	24	64	2
TAP	24	96	2
TAP	24	96	3
TAP	24	192	5
TAP	24	224	5
TAP	24	256	5
TAP	24	288	4
TAP	24	288	5
TAP	25	0	6
TAP	25	32	6
TAP	25	64	6
TAP	25	96	6
TAP	25	96	7
TAP	25	192	0
TAP	25	224	0
TAP	25	256	0
TAP	25	288	0
TAP	25	288	7
BRK	26	0	1
BRK	26	0	6
TAP	26	192	2
TAP	26	192	3
TAP	26	288	1
TAP	26	320	1
TAP	26	352	1
TAP	27	64	0
TAP	27	64	7
TAP	27	160	0
TAP	27	160	7
TAP	27	256	6
TAP	27	288	6
TAP	27	320	6
XTP	28	32	0
XTP	28	32	7
TAP	28	128	0
TAP	28	128	7
TAP	28	224	6
TAP	28	256	6
TAP	28	288	6
TAP	29	0	0
TAP	29	0	7
TAP	29	96	0
TAP	29	96	7
TAP	29	192	1
TAP	29	224	1
TAP	29	256	1
TAP	29	352	2
TAP	29	352	3
TAP	30	64	3
TAP	30	64	4
TAP	30	160	5
TAP	30	192	5
TAP	30	224	5
STR	31	32	7
SI_	31	32	7	96	96	3
XTP	32	32	3
XTP	32	32	4
XTP	32	128	2
XTP	32	128	5
TTP	32	224	0	C	1	L1
TAP	33	0	5
TAP	33	32	5
TAP	33	96	6
TAP	33	128	6
TAP	33	192	7
TAP	33	224	7
XTP	33	288	0
XTP	33	288	1
XTP	33	320	0
XTP	33	320	1
TAP	34	0	2
TAP	34	32	2
TAP	34	96	1
TAP	34	128	1
TAP	34	192	0
TAP	34	224	0
XTP	34	288	6
XTP	34	288	7
XTP	34	320	6
XTP	34	320	7
TAP	35	0	5
TAP	35	32	5
TAP	35	96	4
TAP	35	128	4
TAP	35	192	3
TAP	35	224	3
XTP	35	288	2
XTP	35	288	3
XTP	35	320	2
XTP	35	320	3
TAP	36	0	1
TAP	36	32	1
TAP	36	96	0
TAP	36	128	0
TAP	36	192	7
TAP	36	224	7
XTP	36	288	6
XTP	36	288	7
XTP	36	320	6
XTP	36	320	7
TAP	37	32	5
TAP	37	64	5
TAP	37	96	5
TAP	37	128	4
TAP	37	128	5
TAP	37	224	2
TAP	37	256	2
TAP	37	288	2
TAP	37	320	2
TAP	37	320	3
TAP	38	32	1
TAP	38	64	1
TAP	38	96	1
TAP	38	128	0
TAP	38	128	1
TAP	38	224	7
TAP	38	256	7
TAP	38	288	7
TAP	38	320	0
TAP	38	320	7
BRK	39	32	1
BRK	39	32	6
TAP	39	224	3
TAP	39	224	4
TAP	39	320	2
TAP	39	352	2
TAP	40	0	2
TAP	40	32	2
TAP	40	32	3
TAP	40	128	1
TAP	40	160	1
TAP	40	192	1
TAP	40	224	0
TAP	40	224	1
TAP	40	320	6
TAP	40	352	6
TAP	41	0	6
TAP	41	32	6
TAP	41	32	7
TAP	41	128	4
TAP	41	128	5
TAP	41	224	3
TAP	41	224	4
TAP	41	320	5
TAP	41	352	5
TAP	42	0	5
TAP	42	32	4
TAP	42	32	5
TAP	42	128	6
TAP	42	160	6
TAP	42	192	6
TAP	42	224	6
TAP	42	224	7
TAP	42	320	1
TAP	42	352	1
TAP	43	0	1
TAP	43	32	0
TAP	43	32	1
TAP	43	128	0
TAP	43	128	1
TAP	43	224	2
TAP	43	224	3
TAP	43	320	4
TAP	43	320	5
TAP	44	32	6
TAP	44	32	7
XHO	44	128	0	480
XHO	44	128	7	480

T_REC_TAP	206
T_REC_BRK	4
T_REC_XTP	43
T_REC_HLD	17
T_REC_XHO	2
T_REC_STR	2
T_REC_BST	0
T_REC_XST	0
T_REC_TTP	9
T_REC_THO	0
T_REC_SLD	2
T_REC_ALL	285
T_NUM_TAP	260
T_NUM_BRK	4
T_NUM_HLD	19
T_NUM_SLD	2
T_NUM_ALL	285
T_JUDGE_TAP	264
T_JUDGE_HLD	128
T_JUDGE_SLD	2
T_JUDGE_ALL	394
TTM_EACHPAIRS	57
TTM_SCR_TAP	130000
TTM_SCR_BRK	10400
TTM_SCR_HLD	19000
TTM_SCR_SLD	3000
TTM_SCR_ALL	162400
TTM_SCR_S	157150
TTM_SCR_SS	162000
TTM_RAT_ACV	10024

