VERSION	0.00.00	1.03.00
FES_MODE	0
BPM_DEF	 70.000	 70.000	 70.000	 70.000
MET_DEF	4	4
RESOLUTION	384
CLK_DEF	384
COMPATIBLE_CODE	MA2

BPM	0	0	 70.000
BPM	25	0	 70.000
MET	0	0	4	4
MET	25	0	4	4
MET	26	0	12	11
MET	30	224	4	4

HLD	1	0	0	192
TAP	2	0	0
TAP	2	192	0
HLD	3	0	7	192
TAP	4	0	7
TAP	4	192	0
TAP	4	192	7
TAP	5	0	1
TAP	5	192	2
TAP	6	0	3
TAP	6	192	4
TAP	7	0	5
TAP	7	192	6
TAP	8	0	0
TAP	8	0	7
TAP	8	192	0
TAP	8	192	7
TAP	9	0	6
TAP	9	192	6
TAP	9	192	7
TAP	10	0	1
TAP	10	192	0
TAP	10	192	1
TAP	11	0	7
TAP	11	192	0
TAP	11	192	7
STR	12	0	0
SI_	12	0	0	96	144	3
STR	13	0	4
SI_	13	0	4	96	144	7
TAP	14	0	0
TAP	14	96	0
TAP	14	192	0
TAP	14	192	1
TAP	15	0	2
TAP	15	96	2
TAP	15	192	2
TAP	15	192	3
TAP	16	0	5
TAP	16	96	5
TAP	16	192	4
TAP	16	192	5
TAP	17	0	6
TAP	17	96	6
TAP	17	192	0
TAP	17	192	7
TTP	18	0	0	B	0	L1
TTP	18	0	7	B	0	L1
TTP	18	192	1	B	0	L1
TTP	18	192	6	B	0	L1
TTP	19	0	2	B	0	L1
TTP	19	0	5	B	0	L1
TTP	19	192	0	C	1	L1
TAP	20	0	7
TAP	20	96	7
TAP	20	192	6
TAP	20	288	6
TAP	21	0	5
TAP	21	96	5
TAP	21	192	4
TAP	21	192	5
TAP	22	0	3
TAP	22	96	3
TAP	22	192	2
TAP	22	288	2
TAP	23	0	1
TAP	23	96	1
TAP	23	192	0
TAP	23	192	1
TAP	24	0	7
TAP	24	96	7
TAP	24	192	0
TAP	24	288	0
TAP	25	0	7
TAP	25	96	7
TAP	25	192	0
TAP	25	192	7
TAP	25	288	0
TAP	25	288	7
BRK	26	0	1
BRK	26	0	6
XST	26	192	0
SI_	26	192	0	96	144	3
XST	27	160	4
SI_	27	160	4	96	144	7
XST	28	132	0
SI_	28	132	0	96	144	4
XST	29	96	5
SI_	29	96	5	96	144	1
XHO	30	64	0	160
TTP	31	32	0	B	0	L1
TTP	31	32	7	B	0	L1
TTP	31	224	1	B	0	L1
TTP	31	224	6	B	0	L1
TTP	32	32	2	B	0	L1
TTP	32	32	5	B	0	L1
TTP	32	224	0	C	1	L1
XTP	33	32	7
TAP	33	128	7
TAP	33	224	6
TAP	33	320	6
TAP	34	32	5
TAP	34	128	5
TAP	34	224	4
TAP	34	224	5
TAP	35	32	3
TAP	35	128	3
TAP	35	224	2
TAP	35	320	2
TAP	36	32	1
TAP	36	128	1
TAP	36	224	0
TAP	36	224	1
TAP	37	32	2
TAP	37	32	3
TAP	37	128	2
TAP	37	128	3
TAP	37	224	2
TAP	37	224	3
TAP	38	32	4
TAP	38	32	5
TAP	38	128	4
TAP	38	128	5
TAP	38	224	4
TAP	38	224	5
BRK	39	32	3
BRK	39	32	4
TAP	39	224	5
TAP	39	320	5
TAP	40	32	6
TAP	40	128	6
TAP	40	224	7
TAP	40	320	7
TAP	41	32	0
TAP	41	32	7
TAP	41	128	0
TAP	41	128	7
TAP	41	224	1
TAP	41	320	1
TAP	42	32	2
TAP	42	128	2
TAP	42	224	3
TAP	42	320	3
TAP	43	32	3
TAP	43	32	4
TAP	43	128	3
TAP	43	128	4
TAP	43	224	2
TAP	43	224	5
TAP	43	320	2
TAP	43	320	5
TAP	44	32	1
TAP	44	32	6
HLD	44	128	0	384
HLD	44	128	7	384

T_REC_TAP	119
T_REC_BRK	4
T_REC_XTP	1
T_REC_HLD	4
T_REC_XHO	1
T_REC_STR	2
T_REC_BST	0
T_REC_XST	4
T_REC_TTP	14
T_REC_THO	0
T_REC_SLD	6
T_REC_ALL	155
T_NUM_TAP	140
T_NUM_BRK	4
T_NUM_HLD	5
T_NUM_SLD	6
T_NUM_ALL	155
T_JUDGE_TAP	144
T_JUDGE_HLD	55
T_JUDGE_SLD	6
T_JUDGE_ALL	205
TTM_EACHPAIRS	32
TTM_SCR_TAP	70000
TTM_SCR_BRK	10400
TTM_SCR_HLD	5000
TTM_SCR_SLD	9000
TTM_SCR_ALL	94400
TTM_SCR_S	91200
TTM_SCR_SS	94000
TTM_RAT_ACV	10042

