VERSION	0.00.00	1.03.00
FES_MODE	0
BPM_DEF	215.000	215.000	215.000	215.000
MET_DEF	4	4
RESOLUTION	384
CLK_DEF	384
COMPATIBLE_CODE	MA2

BPM	0	0	215.000
MET	0	0	4	4

HLD	2	0	4	144
TAP	2	144	3
TAP	2	192	5
STR	2	240	4
SI_	2	240	4	96	48	7
TAP	2	240	6
TTP	3	168	5	B	0	M1
TTP	3	184	4	B	0	M1
BRK	4	0	0
BRK	4	0	7
HLD	4	96	1	96
TAP	4	96	4
TAP	4	192	0
STR	4	240	0
SI_	4	240	0	96	48	4
TAP	4	336	1
TAP	5	48	2
TAP	5	96	2
TAP	5	144	3
TAP	5	192	1
TAP	5	240	7
TAP	5	288	6
TAP	5	336	5
HLD	6	0	2	96
TAP	6	0	4
TAP	6	96	7
TAP	6	192	0
TAP	6	192	6
TAP	6	240	0
HLD	6	240	6	96
HLD	6	336	4	96
TAP	7	48	5
TAP	7	96	5
TAP	7	144	4
TAP	7	192	6
TAP	7	240	6
TAP	7	288	4
TAP	7	336	3
XTP	8	0	2
XTP	8	0	5
HLD	8	96	1	96
TAP	8	192	7
STR	8	240	7
SCL	8	240	7	96	96	3
TAP	8	336	0
TAP	9	48	2
TAP	9	96	2
TAP	9	144	3
TAP	9	192	1
TAP	9	240	2
TAP	9	288	3
TAP	9	336	2
HLD	10	0	1	96
TAP	10	0	4
TTP	10	96	2	B	0	M1
TTP	10	96	3	B	0	M1
TAP	10	192	1
TAP	10	192	5
STR	10	240	1
SI_	10	240	1	96	48	5
TAP	10	240	5
TAP	10	336	7
TAP	11	48	7
BRK	11	144	0
BRK	11	144	6
TAP	12	0	3
HLD	12	0	5	96
TAP	12	96	4
TAP	12	144	4
HLD	12	192	6	96
TAP	12	288	5
TAP	13	0	3
HLD	13	0	7	96
TAP	13	96	4
TAP	13	144	4
HLD	13	192	6	96
TAP	13	288	4
TAP	14	0	4
TAP	14	0	5
TAP	14	96	3
TAP	14	96	4
TAP	14	192	1
TAP	14	192	3
HLD	14	288	0	96
STR	14	288	4
SCR	14	288	4	96	96	6
STR	15	96	1
SI_	15	96	1	96	96	4
TAP	15	192	7
TAP	15	288	6
HLD	16	0	5	96
TAP	16	96	3
TAP	16	144	4
HLD	16	192	1	96
TAP	16	288	2
TAP	17	0	0
HLD	17	0	3	96
TAP	17	96	1
TAP	17	144	1
TAP	17	192	3
BST	17	288	2
SCR	17	288	2	96	96	5
STR	18	0	5
SCL	18	0	5	96	96	2
TAP	18	192	7
TAP	18	288	2
TAP	18	288	7
HLD	19	0	5	96
TAP	19	96	4
TAP	19	192	1
TAP	19	192	7
XTP	19	288	1
XTP	19	288	7
HLD	20	0	0	96
TAP	20	0	6
TAP	20	96	3
TAP	20	144	3
TAP	20	192	2
TAP	20	288	2
TAP	20	288	3
TAP	21	0	1
HLD	21	0	7	96
TAP	21	96	4
TAP	21	144	4
HLD	21	192	5	96
TAP	21	288	4
TAP	22	0	3
HLD	22	0	6	96
TAP	22	96	5
HLD	22	192	1	96
TAP	22	192	4
TAP	22	288	2
TAP	23	0	3
TAP	23	0	6
TAP	23	96	5
TAP	23	144	5
TAP	23	192	4
TAP	23	288	3
TAP	23	288	6
TAP	24	0	2
HLD	24	0	7	96
TAP	24	96	4
TAP	24	144	4
TAP	24	192	6
TAP	24	288	3
TAP	24	288	5
HLD	25	0	0	96
TAP	25	96	3
TAP	25	144	3
TAP	25	192	1
HLD	25	288	2	96
TAP	25	288	4
HLD	26	0	3	96
HLD	26	96	1	96
HLD	26	192	2	96
TAP	26	288	3
XTP	27	0	0
XTP	27	0	6
XTP	27	96	2
XTP	27	96	4
BRK	27	192	1
BRK	27	192	5
STR	28	0	2
SCL	28	0	2	96	480	5
TAP	28	96	4
TAP	28	288	4
TAP	29	96	4
TAP	29	288	4
STR	30	0	5
SCR	30	0	5	96	480	2
TAP	30	96	3
TAP	30	288	3
TAP	31	96	3
TAP	31	288	2
TAP	31	288	3
HLD	32	0	1	96
TAP	32	0	4
HLD	32	96	3	96
HLD	32	192	4	96
HLD	32	288	6	96
HLD	33	0	0	96
HLD	33	96	2	96
HLD	33	192	4	96
HLD	33	288	6	96
TAP	34	0	0
TAP	34	96	7
TAP	34	144	7
TAP	34	192	2
TAP	34	192	6
TAP	34	240	2
TAP	34	240	6
STR	34	288	3
SI_	34	288	3	96	48	1
STR	34	288	5
SI_	34	288	5	96	48	3
TAP	35	288	3
TAP	35	288	4
BST	36	0	1
SI_	36	0	1	96	48	5
BRK	36	0	5
TAP	36	96	0
TAP	36	96	1
TAP	36	144	7
STR	36	192	6
SI_	36	192	6	96	48	2
TAP	36	288	6
TAP	36	288	7
TAP	36	336	0
STR	37	0	1
SI_	37	0	1	96	48	5
TAP	37	96	0
TAP	37	96	1
TAP	37	144	7
HLD	37	192	6	96
STR	37	288	4
SI_	37	288	4	96	48	0
TAP	38	0	5
TAP	38	96	1
STR	38	96	3
SI_	38	96	3	96	48	7
TAP	38	192	0
STR	38	288	2
SI_	38	288	2	96	48	7
STR	38	288	6
SI_	38	288	6	96	48	3
BRK	39	0	2
BRK	39	0	6
TAP	39	192	0
TAP	39	192	4
TAP	39	288	2
TAP	39	288	3
TAP	39	336	1
STR	40	0	0
SI_	40	0	0	96	48	4
TAP	40	0	4
TAP	40	96	6
TAP	40	144	7
STR	40	192	0
SI_	40	192	0	96	48	4
TAP	40	192	3
TAP	40	288	2
TAP	40	336	1
STR	41	0	0
SI_	41	0	0	96	48	4
TAP	41	0	5
TAP	41	96	6
TAP	41	144	7
TAP	41	192	0
TAP	41	192	3
TAP	41	288	2
TAP	41	288	4
HLD	42	0	5	96
HLD	42	96	3	96
HLD	42	192	1	96
STR	42	288	0
SCR	42	288	0	96	192	6
TTP	43	0	0	C	1	M1
STR	44	0	6
SI_	44	0	6	96	48	3
STR	44	0	7
SI_	44	0	7	96	48	2
TAP	44	96	6
TAP	44	96	7
STR	44	192	0
SI_	44	192	0	96	48	5
STR	44	192	1
SI_	44	192	1	96	48	4
TAP	44	288	0
TAP	44	288	1
STR	45	0	6
SI_	45	0	6	96	48	3
STR	45	0	7
SI_	45	0	7	96	48	2
TAP	45	96	6
TAP	45	96	7
TAP	45	192	0
TAP	45	192	1
TAP	45	288	2
TAP	45	288	7
STR	46	0	3
SI_	46	0	3	96	48	0
TAP	46	96	3
STR	46	96	6
SI_	46	96	6	96	48	3
STR	46	192	1
SI_	46	192	1	96	48	4
TAP	46	192	6
TAP	46	288	1
STR	46	288	7
SF_	46	288	7	96	48	3
BRK	47	0	7
TAP	47	192	2
TAP	47	240	2
TAP	47	288	4
TAP	48	0	3
STR	48	0	6
SI_	48	0	6	96	48	3
TAP	48	96	2
TAP	48	96	6
STR	48	192	1
SI_	48	192	1	96	48	4
TAP	48	288	0
TAP	48	288	1
STR	49	0	7
SI_	49	0	7	96	48	3
TAP	49	96	6
TAP	49	96	7
HLD	49	192	5	96
TAP	49	288	4
TAP	49	336	6
STR	50	0	0
SI_	50	0	0	96	48	6
STR	50	96	4
SI_	50	96	4	96	48	0
STR	50	192	2
SI_	50	192	2	96	48	4
STR	50	288	6
SCR	50	288	6	96	192	4
TTP	51	0	0	C	1	M1
TAP	52	0	0
STR	52	0	6
SLL	52	0	6	96	96	2
STR	52	96	2
SCR	52	96	2	96	96	6
TAP	52	192	0
TAP	52	240	0
TAP	52	288	0
STR	53	0	1
SLR	53	0	1	96	96	5
TAP	53	0	7
STR	53	96	5
SCL	53	96	5	96	96	1
TAP	53	192	7
TAP	53	240	7
TAP	53	288	7
XST	54	0	0
SI_	54	0	0	96	48	4
XST	54	0	1
SI_	54	0	1	96	48	5
TAP	54	96	0
TAP	54	96	1
XST	54	192	6
SI_	54	192	6	96	48	2
XST	54	192	7
SI_	54	192	7	96	48	3
TAP	54	288	6
STR	54	288	7
SCR	54	288	7	96	192	5
BRK	55	0	7
STR	55	288	1
SI_	55	288	1	96	48	5
XHO	56	0	7	672
TAP	56	288	3
HLD	57	0	1	384
BRK	58	0	7
TAP	58	144	4
TAP	58	192	2
TAP	58	240	1
STR	58	240	3
SI_	58	240	3	96	48	0
TAP	59	96	1
TAP	59	96	3
TAP	59	192	3
TAP	59	192	4
TAP	59	288	4
STR	59	288	6
SXL	59	288	6	96	288	3
TTP	60	0	0	C	1	M1
HLD	61	0	0	96
HLD	61	0	1	96
HLD	61	144	6	96
HLD	61	144	7	96
STR	61	288	6
SUL	61	288	6	96	48	2
TAP	61	288	7
STR	62	0	1
SCR	62	0	1	96	48	4
STR	62	144	6
SCR	62	144	6	96	48	1
HLD	62	288	2	96
TTP	63	0	2	B	0	M1
TTP	63	0	3	B	0	M1
HLD	63	96	6	96
TTP	63	192	4	B	0	M1
TTP	63	192	5	B	0	M1
TAP	63	288	0
STR	63	288	7
SI_	63	288	7	96	48	3
XTP	64	0	3
TAP	64	96	1
TAP	64	96	5
TAP	64	192	2
TAP	64	192	6
TAP	64	288	7
TAP	64	336	7
TAP	65	0	4
TAP	65	48	5
TAP	65	96	1
TAP	65	144	3
TAP	65	192	2
TAP	65	240	5
TAP	65	288	3
TAP	65	336	6
STR	66	0	0
SCR	66	0	0	96	96	4
STR	66	96	4
SCR	66	96	4	96	192	4
TTP	66	192	0	C	1	M1
XTP	67	0	0
TAP	67	96	1
TAP	67	96	7
TAP	67	192	3
TAP	67	192	5
TAP	67	240	2
TAP	67	240	6
BRK	67	288	1
BRK	67	288	7
HLD	68	0	0	96
XTP	68	96	6
XTP	68	120	5
XTP	68	144	4
XTP	68	168	3
XTP	68	192	7
XTP	68	216	6
XTP	68	240	5
XTP	68	264	4
HLD	68	288	7	96
XTP	69	0	2
XTP	69	24	3
XTP	69	48	4
XTP	69	72	5
XTP	69	96	1
XTP	69	120	2
XTP	69	144	3
XTP	69	168	4
XTP	69	192	0
XTP	69	216	1
XTP	69	240	2
XTP	69	264	3
HLD	69	288	7	96
XTP	70	0	4
XTP	70	24	3
XTP	70	48	2
XTP	70	72	1
XTP	70	96	5
XTP	70	120	4
XTP	70	144	3
XTP	70	168	2
XTP	70	192	6
XTP	70	216	5
XTP	70	240	4
XTP	70	264	3
XTP	70	288	7
XTP	70	312	6
XTP	70	336	5
XTP	70	360	4
TTP	71	0	0	C	1	M1
BRK	71	96	1
BRK	71	96	7
BST	71	144	1
SLR	71	144	1	96	96	7
BRK	71	144	7
BRK	72	0	0
BRK	72	0	6
TAP	72	96	5
TAP	72	144	4
TAP	72	192	5
TAP	72	240	6
STR	72	288	7
SI_	72	288	7	96	48	3
XTP	73	0	0
TAP	73	96	2
TAP	73	144	3
TAP	73	192	2
TAP	73	240	1
TAP	73	288	0
STR	73	288	3
SCR	73	288	3	96	96	7
TAP	74	0	2
STR	74	96	4
SCL	74	96	4	96	96	0
TAP	74	192	6
STR	74	288	5
SUL	74	288	5	96	240	3
TTP	75	0	0	C	1	M1
HLD	76	0	1	96
TAP	76	0	7
HLD	76	96	2	96
HLD	76	192	3	96
TAP	76	288	4
TAP	77	0	2
HLD	77	0	5	96
HLD	77	96	6	96
TAP	77	192	7
STR	77	288	0
SCR	77	288	0	96	48	2
STR	77	288	5
SCR	77	288	5	96	48	7
STR	78	96	0
SI_	78	96	0	96	48	4
STR	78	96	3
SI_	78	96	3	96	48	1
STR	78	288	0
SLL	78	288	0	96	192	3
TAP	78	288	5
TAP	79	0	3
TAP	79	96	4
TAP	79	192	5
TAP	79	288	3
TAP	79	288	6
HLD	80	0	0	96
TAP	80	0	7
STR	80	96	6
SI_	80	96	6	96	48	3
TAP	80	144	6
STR	80	192	7
SI_	80	192	7	96	48	2
TAP	80	240	7
TAP	80	288	4
STR	81	0	1
SI_	81	0	1	96	48	3
TAP	81	0	5
TAP	81	96	6
STR	81	192	4
SI_	81	192	4	96	48	7
TAP	81	192	7
TAP	81	288	6
STR	82	0	0
SCR	82	0	0	96	48	3
STR	82	0	5
SCR	82	0	5	96	48	0
STR	82	192	4
SI_	82	192	4	96	48	1
SI_	82	192	4	96	48	6
XTP	83	0	0
XTP	83	0	7
TAP	83	96	0
TAP	83	96	7
TAP	83	192	5
TAP	83	240	4
TAP	83	288	3
TAP	83	336	2
BST	84	0	7
SI_	84	0	7	96	48	2
TAP	84	96	2
TAP	84	192	0
STR	84	192	4
SI_	84	192	4	96	48	0
TAP	84	288	3
STR	85	0	4
SI_	85	0	4	96	48	1
TAP	85	0	6
TAP	85	96	5
TAP	85	192	0
STR	85	192	4
SI_	85	192	4	96	48	7
TAP	85	288	3
STR	86	0	0
SXL	86	0	0	96	144	0
TAP	86	0	6
TAP	86	96	4
TAP	86	192	5
STR	86	288	6
SCL	86	288	6	96	192	0
BRK	87	0	7
XTP	88	0	0
XTP	88	0	7
TAP	88	96	3
TAP	88	96	6
TAP	88	144	5
TAP	88	192	4
TAP	88	240	5
TAP	88	288	3
TAP	88	288	6
XTP	89	0	0
XTP	89	0	7
TAP	89	96	1
TAP	89	96	4
TAP	89	144	2
TAP	89	192	3
TAP	89	240	2
TAP	89	288	1
TAP	89	288	4
TAP	90	0	0
TAP	90	0	6
TAP	90	96	4
TAP	90	96	5
TAP	90	144	4
TAP	90	144	5
TAP	90	192	3
TAP	90	192	4
TAP	90	240	3
TAP	90	240	4
TAP	90	288	2
STR	90	288	3
SI_	90	288	3	96	48	7
HLD	91	0	1	384
BST	92	0	7
SCL	92	0	7	96	768	0
STR	94	0	7
SCL	94	0	7	96	768	0
STR	96	0	7
SCL	96	0	7	96	768	0
THO	98	0	0	576	C	0	M1
XTP	100	0	0
XTP	100	0	7
XTP	100	48	0
XTP	100	48	7
XTP	100	96	1
XTP	100	96	6
XTP	100	144	1
XTP	100	144	6
XTP	100	192	2
XTP	100	192	5
XTP	100	240	2
XTP	100	240	5
XTP	100	288	3
XTP	100	288	4
TAP	101	0	2
TAP	101	0	5
STR	101	96	0
SI_	101	96	0	96	48	4
STR	101	96	7
SI_	101	96	7	96	48	3
BRK	101	192	0
BRK	101	192	7
XTP	101	288	2
XTP	101	288	5
STR	102	0	1
SUR	102	0	1	96	48	5
TAP	102	96	0
TAP	102	96	1
TAP	102	144	7
HLD	102	192	6	96
STR	102	288	4
SI_	102	288	4	96	48	0
TAP	103	0	5
STR	103	96	4
SCR	103	96	4	96	48	7
TAP	103	192	1
STR	103	288	0
SI_	103	288	0	96	48	5
STR	103	288	2
SI_	103	288	2	96	48	5
BRK	104	0	0
BRK	104	0	2
TAP	104	192	3
TAP	104	192	6
TAP	104	288	2
TAP	104	288	3
TAP	104	336	1
TAP	105	0	0
STR	105	0	4
SI_	105	0	4	96	48	0
TAP	105	96	2
TAP	105	144	3
STR	105	192	4
SI_	105	192	4	96	48	0
TAP	105	192	7
TAP	105	288	6
TAP	105	336	5
TAP	106	0	1
STR	106	0	4
SI_	106	0	4	96	48	0
TAP	106	96	2
TAP	106	144	3
TAP	106	192	4
STR	106	192	7
SCL	106	192	7	96	48	4
TAP	106	288	2
HLD	107	0	1	96
HLD	107	96	3	96
HLD	107	192	5	96
STR	107	288	7
SCL	107	288	7	96	192	1
TTP	108	0	0	C	1	M1
STR	109	0	0
SI_	109	0	0	96	48	4
STR	109	0	1
SI_	109	0	1	96	48	5
TAP	109	96	0
TAP	109	96	1
STR	109	192	6
SI_	109	192	6	96	48	2
STR	109	192	7
SI_	109	192	7	96	48	3
TAP	109	288	6
TAP	109	288	7
STR	110	0	0
SI_	110	0	0	96	48	4
STR	110	0	1
SI_	110	0	1	96	48	5
TAP	110	96	0
TAP	110	96	1
TAP	110	192	6
TAP	110	192	7
TAP	110	288	0
TAP	110	288	5
STR	111	0	4
SI_	111	0	4	96	48	7
STR	111	96	1
SI_	111	96	1	96	48	4
TAP	111	96	4
TAP	111	192	1
STR	111	192	6
SI_	111	192	6	96	48	3
STR	111	288	0
SF_	111	288	0	96	48	4
TAP	111	288	6
BRK	112	0	0
TAP	112	192	5
TAP	112	240	5
TAP	112	288	3
STR	113	0	1
SI_	113	0	1	96	48	5
TAP	113	0	4
TAP	113	96	1
TAP	113	96	5
STR	113	192	6
SI_	113	192	6	96	48	2
TAP	113	288	6
TAP	113	288	7
STR	114	0	0
SI_	114	0	0	96	48	4
TAP	114	96	0
TAP	114	96	1
HLD	114	192	2	96
TAP	114	288	3
TAP	114	336	1
STR	115	0	7
SI_	115	0	7	96	48	2
STR	115	96	3
SI_	115	96	3	96	48	7
STR	115	192	6
SI_	115	192	6	96	48	3
STR	115	288	1
SCL	115	288	1	96	192	3
TTP	116	0	0	C	1	M1
STR	117	0	1
SLR	117	0	1	96	96	5
TAP	117	0	7
STR	117	96	5
SLL	117	96	5	96	96	1
TAP	117	192	7
TAP	117	240	7
TAP	117	288	7
TAP	118	0	0
STR	118	0	6
SLL	118	0	6	96	96	2
STR	118	96	2
SLR	118	96	2	96	96	6
TAP	118	192	0
TAP	118	240	0
TAP	118	288	0
XST	119	0	6
SI_	119	0	6	96	48	2
XST	119	0	7
SI_	119	0	7	96	48	3
TAP	119	96	6
TAP	119	96	7
XST	119	192	0
SI_	119	192	0	96	48	4
XST	119	192	1
SI_	119	192	1	96	48	5
STR	119	288	0
SCL	119	288	0	96	192	2
TAP	119	288	1
BRK	120	0	0
STR	120	288	6
SI_	120	288	6	96	48	2
XHO	121	0	1	672
TAP	121	288	4
HLD	122	0	5	384
BST	123	0	0
SSL	123	0	0	96	384	4
XTP	124	288	3
XTP	124	288	4
TAP	125	0	2
TAP	125	0	6
TAP	125	96	1
HLD	125	96	5	96
TAP	125	192	0
STR	125	240	0
SCR	125	240	0	96	96	4
TAP	125	336	6
TAP	126	48	5
TAP	126	96	5
TAP	126	144	4
STR	126	192	6
SI_	126	192	6	96	48	4
HLD	126	288	0	96
STR	127	0	3
SI_	127	0	3	96	48	0
TAP	127	96	1
TAP	127	192	2
HLD	127	240	2	96
HLD	127	336	6	96
TAP	128	48	4
TAP	128	96	5
TAP	128	144	2
STR	128	192	3
SI_	128	192	3	96	48	7
TAP	128	288	1
XTP	129	0	0
XTP	129	0	6
TAP	129	96	4
STR	129	96	5
SI_	129	96	5	96	48	1
STR	129	192	2
SCL	129	192	2	96	48	7
STR	129	288	4
SI_	129	288	4	96	48	0
STR	130	0	3
SI_	130	0	3	96	48	7
STR	130	96	6
SCL	130	96	6	96	48	3
XTP	130	192	0
XTP	130	288	0
XTP	130	288	1
HLD	131	0	2	96
TAP	131	96	3
STR	131	144	3
SI_	131	144	3	96	48	7
TAP	131	240	0
TAP	131	288	1
STR	131	336	2
SI_	131	336	2	96	48	6
TAP	132	48	6
TAP	132	96	5
STR	132	144	4
SI_	132	144	4	96	48	0
TAP	132	240	3
TAP	132	288	2
BRK	132	336	1
BRK	132	336	7

T_REC_TAP	369
T_REC_BRK	28
T_REC_XTP	76
T_REC_HLD	68
T_REC_XHO	2
T_REC_STR	123
T_REC_BST	6
T_REC_XST	8
T_REC_TTP	16
T_REC_THO	1
T_REC_SLD	138
T_REC_ALL	835
T_NUM_TAP	592
T_NUM_BRK	34
T_NUM_HLD	71
T_NUM_SLD	138
T_NUM_ALL	835
T_JUDGE_TAP	626
T_JUDGE_HLD	195
T_JUDGE_SLD	138
T_JUDGE_ALL	959
TTM_EACHPAIRS	169
TTM_SCR_TAP	296000
TTM_SCR_BRK	88400
TTM_SCR_HLD	71000
TTM_SCR_SLD	207000
TTM_SCR_ALL	662400
TTM_SCR_S	639250
TTM_SCR_SS	659000
TTM_RAT_ACV	10051

