VERSION	0.00.00	1.03.00
FES_MODE	0
BPM_DEF	215.000	215.000	215.000	215.000
MET_DEF	4	4
RESOLUTION	384
CLK_DEF	384
COMPATIBLE_CODE	MA2

BPM	0	0	215.000
MET	0	0	4	4

TAP	2	0	2
TAP	2	0	5
TAP	2	144	4
TAP	2	192	4
TAP	2	240	3
STR	2	336	2
SCR	2	336	2	96	144	6
STR	2	336	3
SCR	2	336	3	96	144	6
TAP	4	0	4
TAP	4	0	6
TAP	4	96	4
TAP	4	96	6
TAP	4	192	3
TAP	4	240	3
HLD	4	336	2	336
TAP	4	336	4
TAP	5	96	6
TAP	5	192	5
TAP	5	288	4
TAP	6	0	1
TAP	6	0	3
TAP	6	96	1
TAP	6	96	3
TAP	6	192	4
TAP	6	240	4
TAP	6	336	3
HLD	6	336	5	336
TAP	7	96	1
TAP	7	192	2
TAP	7	288	3
TAP	8	0	4
TAP	8	0	6
TAP	8	96	4
TAP	8	96	6
TAP	8	192	3
TAP	8	240	3
HLD	8	336	2	336
TAP	8	336	4
TAP	9	96	6
TAP	9	192	5
TAP	9	288	4
TAP	10	0	1
TAP	10	0	3
TAP	10	96	1
TAP	10	96	3
TAP	10	192	4
TAP	10	240	4
XTP	10	336	4
XTP	10	336	6
XTP	11	48	1
XTP	11	48	3
XHO	11	144	2	144
XHO	11	144	7	144
TAP	12	0	5
TAP	12	96	4
TAP	12	96	5
TAP	12	192	2
TAP	12	288	2
TAP	12	288	3
TAP	13	0	5
TAP	13	96	4
TAP	13	96	6
TAP	13	192	2
TAP	13	288	1
TAP	13	288	3
HLD	14	0	5	96
HLD	14	96	4	96
HLD	14	192	3	96
TAP	14	288	2
HLD	15	0	1	192
HLD	15	0	4	192
TAP	15	288	3
TAP	15	288	4
TAP	16	0	2
TAP	16	96	2
TAP	16	96	3
TAP	16	192	5
TAP	16	288	4
TAP	16	288	5
TAP	17	0	2
TAP	17	96	1
TAP	17	96	3
TAP	17	192	5
TAP	17	288	4
TAP	17	288	6
HLD	18	0	2	96
HLD	18	96	3	96
HLD	18	192	4	96
TAP	18	288	5
HLD	19	0	3	192
HLD	19	0	6	192
TAP	19	288	3
TAP	19	288	4
TAP	20	0	2
TAP	20	96	2
TAP	20	96	3
TAP	20	192	1
TAP	20	192	4
TAP	20	288	1
TAP	20	288	4
TAP	21	0	5
TAP	21	96	4
TAP	21	96	5
TAP	21	192	3
TAP	21	192	6
TAP	21	288	3
TAP	21	288	6
HLD	22	0	1	96
HLD	22	96	2	96
HLD	22	192	3	96
TAP	22	288	4
TAP	23	0	5
TAP	23	0	6
TAP	23	96	4
TAP	23	96	5
HLD	23	192	3	96
HLD	23	192	4	96
TAP	24	0	5
TAP	24	96	4
TAP	24	96	5
TAP	24	192	3
TAP	24	192	6
TAP	24	288	3
TAP	24	288	6
TAP	25	0	2
TAP	25	96	2
TAP	25	96	3
TAP	25	192	1
TAP	25	192	4
TAP	25	288	1
TAP	25	288	4
HLD	26	0	6	96
HLD	26	96	5	96
HLD	26	192	4	96
STR	26	288	3
SCL	26	288	3	96	192	6
TAP	28	0	4
HLD	28	0	5	576
TAP	28	96	6
TAP	28	192	4
TAP	28	288	3
TAP	29	0	4
TAP	29	96	6
TAP	29	192	4
TAP	29	288	3
TAP	29	288	4
HLD	30	0	1	96
TAP	30	96	3
HLD	30	192	6	96
TAP	30	288	4
TAP	31	0	3
TAP	31	96	2
TAP	31	96	4
TAP	31	192	1
TAP	31	192	5
HLD	32	0	2	384
TAP	32	0	3
TAP	32	96	1
TAP	32	192	3
TAP	32	288	4
STR	33	0	3
SI_	33	0	3	96	48	5
STR	33	192	1
SI_	33	192	1	96	48	3
STR	34	0	7
SCR	34	0	7	96	192	5
BRK	35	0	2
BRK	35	0	6
TAP	35	288	3
TAP	35	288	4
XST	36	0	2
SCL	36	0	2	96	96	7
TAP	36	144	5
TAP	36	192	5
TAP	36	288	0
TAP	36	336	7
XST	37	0	2
SCL	37	0	2	96	96	7
TAP	37	144	5
TAP	37	192	5
XST	38	0	0
SI_	38	0	0	96	48	5
HLD	38	0	1	96
HLD	38	192	2	96
XST	38	192	4
SI_	38	192	4	96	48	1
XST	39	0	2
SCR	39	0	2	96	96	7
XST	39	0	3
SCR	39	0	3	96	96	7
XST	40	0	5
SCR	40	0	5	96	96	0
TAP	40	144	2
TAP	40	192	2
TAP	40	288	7
TAP	40	336	0
XST	41	0	5
SCR	41	0	5	96	96	0
TAP	41	144	2
TAP	41	192	2
HLD	42	0	6	96
XST	42	0	7
SI_	42	0	7	96	48	2
XST	42	192	3
SI_	42	192	3	96	48	6
HLD	42	192	5	96
XST	43	0	4
SCL	43	0	4	96	96	0
XST	43	0	5
SCL	43	0	5	96	96	0
XTP	44	0	0
XTP	44	0	7
TAP	44	96	0
HLD	44	96	1	192
TAP	44	192	2
TAP	44	288	7
TAP	45	0	7
HLD	45	96	6	192
TAP	45	96	7
TAP	45	192	5
TAP	45	288	0
TAP	46	0	6
TAP	46	0	7
TAP	46	96	4
TAP	46	96	5
TAP	46	192	2
TAP	46	192	3
STR	46	288	0
SSL	46	288	0	96	192	4
HLD	46	288	1	288
TAP	47	288	3
TAP	47	288	4
HLD	48	0	5	192
TAP	48	144	4
HLD	48	192	4	192
TAP	48	336	3
HLD	49	0	3	192
TAP	49	144	2
TAP	49	192	2
TAP	50	0	0
TAP	50	0	1
TAP	50	96	2
TAP	50	96	3
TAP	50	192	4
TAP	50	192	5
STR	50	288	6
SCR	50	288	6	96	192	4
TAP	50	288	7
HLD	51	0	1	192
XTP	52	0	4
XHO	52	0	5	96
TAP	52	96	6
TAP	52	192	5
TAP	52	240	4
TAP	52	288	5
HLD	53	0	2	96
TAP	53	0	3
TAP	53	96	1
TAP	53	192	2
TAP	53	240	3
STR	53	288	2
SI_	53	288	2	96	48	5
TAP	54	0	7
STR	54	96	6
SI_	54	96	6	96	48	3
TAP	54	192	1
STR	54	288	0
SSL	54	288	0	96	192	4
HLD	55	0	6	192
XHO	56	0	7	672
XHO	57	0	3	288
TAP	58	0	1
TAP	58	0	6
TAP	58	144	7
TAP	58	192	7
TAP	58	240	0
HLD	58	336	2	240
HLD	58	336	5	336
XST	60	0	0
SCL	60	0	0	96	192	4
SCR	60	0	0	96	192	4
TAP	61	0	2
TAP	61	0	6
TAP	61	96	3
HLD	61	144	3	144
TAP	61	288	4
TAP	62	0	1
TAP	62	0	5
TAP	62	96	4
HLD	62	144	4	144
TAP	62	288	0
TAP	63	0	1
TAP	63	96	1
TAP	63	96	3
TAP	63	192	6
STR	63	288	4
SCL	63	288	4	96	192	7
TAP	63	288	6
HLD	64	0	5	192
HLD	65	0	6	288
TAP	65	96	7
TAP	65	144	7
TAP	65	240	0
TAP	65	288	0
HLD	66	0	1	96
TAP	66	96	2
HLD	66	192	0	480
TAP	66	192	3
TAP	67	0	4
TAP	67	96	2
TAP	67	192	5
TAP	67	288	1
XTP	68	0	0
XST	68	0	7
SCL	68	0	7	96	192	2
TAP	69	0	1
TAP	69	96	0
TAP	69	96	2
TAP	69	192	7
TAP	69	288	0
TAP	69	288	6
HLD	70	0	5	96
HLD	70	96	4	96
HLD	70	192	3	96
HLD	70	288	2	96
STR	71	0	1
SI_	71	0	1	96	96	5
STR	71	192	7
SI_	71	192	7	96	96	3
TAP	72	0	0
TAP	72	96	1
TAP	72	96	7
HLD	72	192	2	96
TAP	72	192	6
TAP	72	288	4
TAP	73	0	7
TAP	73	96	0
TAP	73	96	6
TAP	73	192	1
HLD	73	192	5	96
STR	73	288	3
SI_	73	288	3	96	96	0
STR	74	96	5
SI_	74	96	5	96	96	0
STR	74	288	3
SCR	74	288	3	96	192	1
TTP	76	0	5	E	0	M1
TTP	76	96	4	E	0	M1
TTP	76	192	3	E	0	M1
TTP	76	288	2	E	0	M1
TTP	77	0	1	E	0	M1
TTP	77	96	0	E	0	M1
TTP	77	192	7	E	0	M1
HLD	78	0	2	96
TAP	78	96	3
HLD	78	192	5	96
TAP	78	288	4
HLD	79	0	1	96
TAP	79	96	3
HLD	79	192	6	96
TAP	79	288	4
HLD	80	0	2	192
TAP	80	96	0
HLD	80	192	3	192
TAP	80	288	0
HLD	81	0	2	192
TAP	81	96	0
HLD	81	192	3	192
TAP	81	288	0
HLD	82	0	2	96
HLD	82	192	1	96
HLD	82	192	3	96
STR	83	0	0
SCL	83	0	0	96	96	5
HLD	83	0	4	192
TTP	84	0	3	E	0	M1
TTP	84	96	4	E	0	M1
TTP	84	192	5	E	0	M1
TTP	84	288	6	E	0	M1
TTP	85	0	7	E	0	M1
TTP	85	96	0	E	0	M1
TTP	85	192	1	E	0	M1
STR	86	0	7
SI_	86	0	7	96	96	4
STR	86	192	0
SI_	86	192	0	96	96	3
STR	87	0	7
SXR	87	0	7	96	288	7
HLD	88	0	0	672
TAP	88	96	1
TAP	88	192	1
TAP	88	288	1
TAP	89	0	2
TAP	89	96	2
HLD	89	192	3	96
TAP	90	0	2
TAP	90	0	5
TAP	90	96	4
TAP	90	144	3
TAP	90	192	4
TAP	90	240	3
TAP	90	288	4
TAP	90	336	3
XTP	91	0	7
TAP	91	96	5
TAP	91	96	6
TAP	91	192	3
TAP	91	192	4
TAP	91	288	1
TAP	91	288	2
BRK	92	0	0
BRK	92	0	7
XTP	100	0	0
XTP	100	0	5
XTP	100	144	2
XST	100	144	7
SCL	100	144	7	96	144	2
BRK	101	192	2
BRK	101	192	7
TAP	101	288	0
TAP	101	336	7
XST	102	0	2
SCL	102	0	2	96	96	7
TAP	102	144	5
TAP	102	192	5
XST	103	0	0
SI_	103	0	0	96	48	4
HLD	103	0	1	96
XST	103	192	1
SI_	103	192	1	96	48	5
HLD	103	192	2	96
XTP	104	0	0
XHO	104	0	3	288
TAP	104	96	1
TAP	104	192	2
TAP	104	288	4
XST	105	0	5
SCR	105	0	5	96	96	0
TAP	105	144	2
TAP	105	192	2
TAP	105	288	7
TAP	105	336	0
XST	106	0	5
SCR	106	0	5	96	96	0
TAP	106	144	2
TAP	106	192	2
HLD	107	0	6	96
XST	107	0	7
SI_	107	0	7	96	48	3
HLD	107	192	5	96
XST	107	192	6
SI_	107	192	6	96	48	2
XTP	108	0	4
XTP	108	0	7
TAP	108	96	0
TAP	108	96	5
TAP	108	192	1
TAP	108	192	6
TAP	108	288	0
TAP	108	288	7
XTP	109	0	0
XTP	109	0	7
TAP	109	96	0
HLD	109	96	1	192
TAP	109	192	2
TAP	109	288	7
TAP	110	0	7
HLD	110	96	6	192
TAP	110	96	7
TAP	110	192	5
TAP	110	288	0
TAP	111	0	1
TAP	111	0	3
TAP	111	96	4
TAP	111	96	6
TAP	111	192	0
TAP	111	192	2
TAP	111	288	5
STR	111	288	7
SSR	111	288	7	96	192	3
TAP	112	288	3
TAP	112	288	4
HLD	113	0	5	192
TAP	113	144	4
HLD	113	192	4	192
TAP	113	336	3
HLD	114	0	3	192
TAP	114	144	2
TAP	114	192	2
HLD	115	0	0	96
HLD	115	96	2	96
HLD	115	192	4	96
STR	115	288	6
SCR	115	288	6	96	192	4
HLD	116	0	0	192
XTP	117	0	4
XHO	117	0	5	96
TAP	117	96	6
TAP	117	192	5
TAP	117	240	4
TAP	117	288	5
HLD	118	0	2	96
TAP	118	0	3
TAP	118	96	1
TAP	118	192	2
TAP	118	240	3
TAP	118	288	2
STR	119	0	6
SI_	119	0	6	96	48	3
STR	119	96	1
SI_	119	96	1	96	48	4
STR	119	192	7
SI_	119	192	7	96	48	3
STR	119	288	0
SSL	119	288	0	96	192	4
HLD	120	0	6	192
TAP	120	288	4
TAP	120	288	5
XHO	121	0	7	768
TTP	122	0	5	E	0	M1
TTP	122	192	3	E	0	M1
THO	123	0	0	672	C	0	M1
TAP	125	0	6
TAP	125	96	6
TAP	125	96	7
TAP	125	192	0
TAP	125	240	0
HLD	125	336	1	336
TAP	125	336	7
TAP	126	96	2
TAP	126	192	0
TAP	126	288	3
TAP	127	0	1
TAP	127	96	0
TAP	127	96	1
TAP	127	192	7
TAP	127	240	7
TAP	127	336	0
HLD	127	336	6	336
TAP	128	96	5
TAP	128	192	7
TAP	128	288	4
TAP	129	0	6
TAP	129	96	6
TAP	129	96	7
TAP	129	192	0
TAP	129	240	0
HLD	129	336	1	336
TAP	129	336	7
TAP	130	96	2
TAP	130	192	0
TAP	130	288	3
TAP	131	0	3
TAP	131	0	4
TAP	131	96	5
TAP	131	144	5
TAP	131	240	1
TAP	131	288	1
TAP	131	336	1
TAP	132	48	6
TAP	132	96	6
TAP	132	144	6
XTP	132	240	0
XTP	132	240	7
XTP	132	288	0
XTP	132	288	7
BRK	132	336	0
BRK	132	336	7

T_REC_TAP	331
T_REC_BRK	8
T_REC_XTP	22
T_REC_HLD	84
T_REC_XHO	8
T_REC_STR	27
T_REC_BST	0
T_REC_XST	22
T_REC_TTP	16
T_REC_THO	1
T_REC_SLD	50
T_REC_ALL	569
T_NUM_TAP	418
T_NUM_BRK	8
T_NUM_HLD	93
T_NUM_SLD	50
T_NUM_ALL	569
T_JUDGE_TAP	426
T_JUDGE_HLD	366
T_JUDGE_SLD	50
T_JUDGE_ALL	842
TTM_EACHPAIRS	124
TTM_SCR_TAP	209000
TTM_SCR_BRK	20800
TTM_SCR_HLD	93000
TTM_SCR_SLD	75000
TTM_SCR_ALL	397800
TTM_SCR_S	385100
TTM_SCR_SS	397000
TTM_RAT_ACV	10020

