VERSION	0.00.00	1.03.00
FES_MODE	0
BPM_DEF	215.000	215.000	215.000	215.000
MET_DEF	4	4
RESOLUTION	384
CLK_DEF	384
COMPATIBLE_CODE	MA2

BPM	0	0	215.000
MET	0	0	4	4

TAP	4	0	2
TAP	4	192	2
TAP	5	0	2
TAP	6	0	3
TAP	6	192	3
TAP	7	0	3
TAP	8	0	4
TAP	8	192	4
TAP	9	0	4
TAP	10	0	5
TAP	10	192	5
XTP	11	0	5
HLD	12	0	6	192
TAP	12	192	7
TAP	13	0	6
HLD	14	0	5	192
TAP	14	192	4
TAP	15	0	5
HLD	16	0	2	192
TAP	16	192	3
TAP	17	0	2
HLD	18	0	1	192
TAP	18	192	0
TAP	19	0	1
HLD	20	0	2	192
TAP	20	192	3
TAP	21	0	3
TAP	21	192	4
HLD	22	0	5	192
TAP	22	192	4
TAP	23	0	4
TAP	23	192	5
HLD	24	0	6	192
TAP	24	192	7
TAP	25	0	7
TAP	25	192	0
HLD	26	0	1	192
TAP	26	192	0
XTP	27	0	0
XTP	27	0	7
STR	28	0	6
SI_	28	0	6	96	288	3
STR	30	0	1
SI_	30	0	1	96	288	4
STR	32	0	6
SI_	32	0	6	96	264	2
TAP	34	0	0
TAP	34	192	0
BRK	35	0	0
TAP	36	0	1
TAP	36	96	1
TAP	36	192	1
TAP	37	0	0
TAP	37	96	0
TAP	37	192	0
TAP	38	0	7
TAP	38	96	7
TAP	38	192	6
TAP	38	288	6
TAP	39	0	5
TAP	39	96	5
TAP	39	192	5
TAP	40	0	6
TAP	40	96	6
TAP	40	192	6
TAP	41	0	7
TAP	41	96	7
TAP	41	192	7
TAP	42	0	0
TAP	42	96	0
TAP	42	192	1
TAP	42	288	1
TAP	43	0	2
TAP	43	96	2
TAP	43	192	2
XTP	44	0	1
XTP	44	96	1
XTP	44	192	0
XTP	44	192	1
XTP	45	0	1
XTP	45	96	1
XTP	45	192	0
XTP	45	192	1
TAP	46	0	0
TAP	46	96	0
TAP	46	192	1
TAP	46	288	1
HLD	47	0	2	192
TAP	47	192	3
HLD	48	0	5	192
TAP	48	192	4
HLD	49	0	2	192
TAP	49	192	3
TAP	50	0	1
TAP	50	96	1
TAP	50	192	0
TAP	50	288	0
TAP	51	0	7
TAP	51	96	7
TAP	51	192	7
XTP	52	0	6
XTP	52	96	6
XTP	52	192	6
XTP	52	192	7
XTP	53	0	6
XTP	53	96	6
XTP	53	192	6
XTP	53	192	7
TAP	54	0	7
TAP	54	96	7
TAP	54	192	6
TAP	54	288	6
HLD	55	0	5	192
TAP	55	192	4
HLD	56	0	2	192
HLD	56	0	3	192
HLD	57	0	0	192
HLD	57	0	1	192
TAP	58	0	7
TAP	58	192	0
TAP	58	192	7
XTP	58	288	0
XTP	58	288	7
HLD	60	0	1	192
HLD	60	192	2	192
HLD	61	0	3	192
HLD	61	192	4	192
HLD	62	0	5	192
HLD	62	192	6	192
TAP	63	0	7
HLD	64	0	6	192
HLD	64	192	5	192
HLD	65	0	4	192
HLD	65	192	3	192
HLD	66	0	2	192
HLD	66	192	1	192
TAP	67	0	0
TTP	68	0	1	B	0	L1
TTP	68	192	2	B	0	L1
TTP	69	0	3	B	0	L1
TTP	69	192	4	B	0	L1
TTP	70	0	5	B	0	L1
TTP	70	192	6	B	0	L1
TTP	71	0	7	B	0	L1
TTP	72	0	7	E	0	L1
TTP	72	192	6	E	0	L1
TTP	73	0	5	E	0	L1
TTP	73	192	4	E	0	L1
TTP	74	0	3	E	0	L1
TTP	74	192	2	E	0	L1
TTP	75	0	1	E	0	L1
TAP	76	0	7
TAP	76	192	7
TAP	77	0	0
TAP	77	192	0
TAP	78	0	1
TAP	78	192	2
TAP	79	0	3
TAP	79	192	4
TAP	80	0	5
TAP	80	192	4
TAP	80	192	5
TAP	81	0	2
TAP	81	192	2
TAP	81	192	3
TAP	82	0	4
TAP	82	0	5
TAP	82	192	4
TAP	82	192	5
TAP	83	0	6
TAP	83	0	7
TAP	84	0	0
TAP	84	192	0
TAP	85	0	7
TAP	85	192	7
TAP	86	0	6
TAP	86	192	5
TAP	87	0	4
TAP	87	192	3
TAP	88	0	2
TAP	88	192	2
TAP	89	0	3
TAP	89	0	4
TAP	89	192	4
TAP	89	192	5
HLD	90	0	4	384
HLD	90	0	5	384
STR	92	0	6
SI_	92	0	6	96	288	2
STR	94	0	1
SI_	94	0	1	96	288	4
STR	96	0	6
SI_	96	0	6	96	288	3
STR	98	0	2
SI_	98	0	2	96	288	7
BRK	100	0	0
BRK	100	0	7
TAP	101	0	6
TAP	101	96	6
TAP	101	192	6
TAP	102	0	7
TAP	102	96	7
TAP	102	192	7
TAP	103	0	0
TAP	103	96	0
TAP	103	192	1
TAP	103	288	1
TAP	104	0	2
TAP	104	96	2
TAP	104	192	2
TAP	104	192	3
TAP	105	0	1
TAP	105	96	1
TAP	105	192	1
TAP	106	0	0
TAP	106	96	0
TAP	106	192	0
TAP	107	0	7
TAP	107	96	7
TAP	107	192	6
TAP	107	288	6
TAP	108	0	5
TAP	108	96	5
TAP	108	192	4
TAP	108	192	5
XTP	109	0	6
XTP	109	96	6
XTP	109	192	6
XTP	109	192	7
XTP	110	0	1
XTP	110	96	1
XTP	110	192	0
XTP	110	192	1
TAP	111	0	1
TAP	111	96	2
TAP	111	192	3
TAP	111	288	4
HLD	112	0	5	192
TAP	112	192	4
HLD	113	0	2	192
TAP	113	192	3
HLD	114	0	5	192
TAP	114	192	4
TAP	115	0	6
TAP	115	96	5
TAP	115	192	4
TAP	115	288	3
TAP	116	0	2
TAP	116	96	2
TAP	116	192	2
TAP	116	192	3
XTP	117	0	1
XTP	117	96	1
XTP	117	192	0
XTP	117	192	1
XTP	118	0	6
XTP	118	96	6
XTP	118	192	6
XTP	118	192	7
TAP	119	0	6
TAP	119	96	5
TAP	119	192	4
TAP	119	288	3
HLD	120	0	2	192
TAP	120	192	3
HLD	121	0	4	192
HLD	121	0	5	192
HLD	122	0	6	192
HLD	122	0	7	192
STR	123	0	0
SI_	123	0	0	96	288	3
STR	123	0	7
SI_	123	0	7	96	288	4
TAP	125	0	1
TAP	125	96	2
TAP	125	192	3
TAP	126	0	4
TAP	126	0	5
TAP	126	96	4
TAP	126	96	5
TAP	126	192	4
TAP	126	192	5
TAP	127	0	6
TAP	127	96	5
TAP	127	192	4
TAP	128	0	2
TAP	128	0	3
TAP	128	96	2
TAP	128	96	3
TAP	128	192	2
TAP	128	192	3
TAP	129	0	2
TAP	129	96	1
TAP	129	192	0
TAP	130	0	6
TAP	130	0	7
TAP	130	96	6
TAP	130	96	7
TAP	130	192	6
TAP	130	192	7
TAP	131	0	5
TAP	131	96	6
TAP	131	192	7
TAP	132	0	0
TAP	132	0	7
TAP	132	96	0
TAP	132	96	7
TAP	132	192	1
TAP	132	192	6
XTP	132	288	1
XTP	132	288	6

T_REC_TAP	199
T_REC_BRK	3
T_REC_XTP	39
T_REC_HLD	38
T_REC_XHO	0
T_REC_STR	9
T_REC_BST	0
T_REC_XST	0
T_REC_TTP	14
T_REC_THO	0
T_REC_SLD	9
T_REC_ALL	311
T_NUM_TAP	261
T_NUM_BRK	3
T_NUM_HLD	38
T_NUM_SLD	9
T_NUM_ALL	311
T_JUDGE_TAP	264
T_JUDGE_HLD	160
T_JUDGE_SLD	9
T_JUDGE_ALL	433
TTM_EACHPAIRS	41
TTM_SCR_TAP	130500
TTM_SCR_BRK	7800
TTM_SCR_HLD	38000
TTM_SCR_SLD	13500
TTM_SCR_ALL	189800
TTM_SCR_S	183850
TTM_SCR_SS	189500
TTM_RAT_ACV	10015

