VERSION	0.00.00	1.03.00
FES_MODE	0
BPM_DEF	215.000	215.000	215.000	215.000
MET_DEF	4	4
RESOLUTION	384
CLK_DEF	384
COMPATIBLE_CODE	MA2

BPM	0	0	215.000
MET	0	0	4	4

XTP	2	0	0
XTP	2	0	7
TAP	4	0	0
TAP	5	0	0
TAP	6	0	0
TAP	8	0	7
TAP	9	0	7
TAP	10	0	0
TAP	10	0	7
TAP	12	0	0
TAP	12	192	0
TAP	13	0	0
TAP	14	0	1
TAP	15	0	1
TAP	16	0	2
TAP	16	192	2
TAP	17	0	2
TAP	18	0	3
TAP	19	0	3
TAP	19	0	4
TAP	20	0	4
TAP	20	192	4
TAP	21	0	4
TAP	22	0	5
TAP	23	0	5
TAP	24	0	6
TAP	24	192	6
TAP	25	0	6
TAP	26	0	6
TAP	26	0	7
TAP	27	0	6
TAP	27	0	7
STR	28	0	0
SI_	28	0	0	96	480	3
TAP	31	0	4
STR	32	0	4
SI_	32	0	4	96	480	7
XTP	35	0	0
XTP	35	0	7
TAP	36	0	7
TAP	36	192	7
TAP	37	0	7
TAP	37	192	7
TAP	38	0	6
TAP	38	96	6
TAP	38	192	6
TAP	39	0	6
TAP	39	0	7
TAP	40	0	5
TAP	40	192	5
TAP	41	0	5
TAP	41	192	5
TAP	42	0	4
TAP	42	96	4
TAP	42	192	4
TAP	43	0	3
TAP	43	0	4
TAP	44	0	3
TAP	44	192	3
TAP	45	0	3
TAP	45	192	3
TAP	46	0	2
TAP	46	96	2
TAP	46	192	2
TAP	47	0	2
TAP	47	0	3
TAP	48	0	1
TAP	48	192	1
TAP	49	0	1
TAP	49	192	1
TAP	50	0	0
TAP	50	96	0
TAP	50	192	0
TAP	51	0	0
TAP	51	0	7
TAP	52	0	1
TAP	52	192	1
TAP	53	0	2
TAP	53	192	2
TAP	54	0	3
TAP	54	96	3
TAP	54	192	3
TAP	55	0	3
TAP	55	0	4
TAP	56	0	5
TAP	56	192	5
TAP	57	0	6
TAP	57	192	6
BRK	58	0	6
BRK	58	0	7
HLD	60	0	6	384
HLD	60	0	7	384
HLD	62	0	4	384
HLD	62	0	5	384
HLD	64	0	2	384
HLD	64	0	3	384
HLD	66	0	0	384
HLD	66	0	1	384
TAP	68	0	0
TAP	68	192	0
TAP	69	0	1
TAP	70	0	2
TAP	70	192	2
TAP	71	0	3
TAP	71	0	4
TAP	72	0	4
TAP	72	192	4
TAP	73	0	5
TAP	74	0	6
TAP	74	192	6
XTP	75	0	0
XTP	75	0	7
TAP	76	0	6
TAP	76	192	6
TAP	77	0	6
TAP	78	0	6
TAP	78	0	7
TAP	78	192	6
TAP	78	192	7
TAP	79	0	6
TAP	79	0	7
TAP	80	0	5
TAP	80	192	5
TAP	81	0	5
TAP	82	0	4
TAP	82	0	5
TAP	82	192	4
TAP	82	192	5
TAP	83	0	4
TAP	83	0	5
TAP	84	0	2
TAP	84	192	2
TAP	85	0	2
TAP	86	0	2
TAP	86	0	3
TAP	86	192	2
TAP	86	192	3
TAP	87	0	2
TAP	87	0	3
TAP	88	0	1
TAP	88	192	1
TAP	89	0	1
TAP	90	0	0
TAP	90	0	1
TAP	90	192	0
TAP	90	192	1
TAP	91	0	0
TAP	91	0	1
BRK	92	0	7
TTP	94	0	7	B	0	L1
TTP	95	0	0	B	0	L1
TTP	96	0	6	B	0	L1
TTP	97	0	1	B	0	L1
TTP	98	0	5	B	0	L1
TTP	99	0	0	C	0	L1
BRK	101	0	0
TAP	101	96	0
TAP	101	192	0
TAP	102	0	1
TAP	102	192	1
TAP	103	0	2
TAP	103	96	2
TAP	103	192	2
TAP	104	0	2
TAP	104	0	3
TAP	105	0	4
TAP	105	96	4
TAP	105	192	4
TAP	106	0	5
TAP	106	192	5
TAP	107	0	6
TAP	107	96	6
TAP	107	192	6
TAP	108	0	6
TAP	108	0	7
TAP	109	0	7
TAP	109	96	7
TAP	109	192	7
TAP	110	0	6
TAP	110	192	6
TAP	111	0	5
TAP	111	96	5
TAP	111	192	5
TAP	112	0	4
TAP	112	0	5
TAP	113	0	3
TAP	113	96	3
TAP	113	192	3
TAP	114	0	2
TAP	114	192	2
TAP	115	0	1
TAP	115	96	1
TAP	115	192	1
TAP	116	0	0
TAP	116	0	1
TAP	117	0	1
TAP	117	96	1
TAP	117	192	1
TAP	118	0	2
TAP	118	192	2
TAP	119	0	3
TAP	119	96	3
TAP	119	192	3
TAP	120	0	4
TAP	120	192	4
TAP	121	0	5
TAP	121	192	5
TAP	122	0	6
TAP	122	192	6
BRK	123	0	6
BRK	123	0	7
TAP	125	0	0
TAP	125	96	0
TAP	125	192	0
TAP	126	0	0
TAP	126	0	1
TAP	127	0	7
TAP	127	96	7
TAP	127	192	7
TAP	128	0	6
TAP	128	0	7
TAP	129	0	0
TAP	129	96	0
TAP	129	192	0
TAP	130	0	7
TAP	130	96	7
TAP	130	192	7
TAP	131	0	0
TAP	131	0	7
TAP	131	96	0
TAP	131	96	7
STR	131	192	0
SI_	131	192	0	96	432	3
STR	131	192	7
SI_	131	192	7	96	432	4

T_REC_TAP	201
T_REC_BRK	6
T_REC_XTP	6
T_REC_HLD	8
T_REC_XHO	0
T_REC_STR	4
T_REC_BST	0
T_REC_XST	0
T_REC_TTP	6
T_REC_THO	0
T_REC_SLD	4
T_REC_ALL	235
T_NUM_TAP	217
T_NUM_BRK	6
T_NUM_HLD	8
T_NUM_SLD	4
T_NUM_ALL	235
T_JUDGE_TAP	223
T_JUDGE_HLD	64
T_JUDGE_SLD	4
T_JUDGE_ALL	291
TTM_EACHPAIRS	40
TTM_SCR_TAP	108500
TTM_SCR_BRK	15600
TTM_SCR_HLD	8000
TTM_SCR_SLD	6000
TTM_SCR_ALL	138100
TTM_SCR_S	133400
TTM_SCR_SS	137500
TTM_RAT_ACV	10043

