VERSION	0.00.00	1.04.00
FES_MODE	0
BPM_DEF	140.000	140.000	140.000	140.000
MET_DEF	4	4
RESOLUTION	384
CLK_DEF	384
COMPATIBLE_CODE	MA2

BPM	0	0	140.000
MET	0	0	4	4

NMTTP	1	0	7	E	0	M1
NMTTP	1	192	7	B	0	M1
NMTTP	2	0	0	B	0	M1
NMTTP	2	192	1	E	0	M1
NMTTP	3	0	7	E	0	M1
NMTTP	3	192	4	B	0	M1
NMTTP	4	0	0	B	0	M1
NMTTP	4	192	3	E	0	M1
NMTTP	5	0	6	B	0	M1
NMTTP	5	192	4	B	0	M1
NMTTP	6	0	0	B	0	M1
NMTTP	6	192	1	E	0	M1
NMTTP	7	0	7	E	0	M1
NMTTP	7	192	7	B	0	M1
NMTTP	8	0	0	B	0	M1
NMTTP	8	192	1	E	0	M1
NMTTP	9	0	7	E	0	M1
NMTAP	9	48	3
NMTAP	9	96	3
NMTTP	9	192	7	B	0	M1
NMTAP	9	240	2
NMTAP	9	288	2
NMTTP	10	0	0	B	0	M1
NMTAP	10	48	5
NMTAP	10	96	5
NMTTP	10	192	1	E	0	M1
NMTAP	10	240	3
NMTAP	10	288	3
NMTTP	11	0	7	E	0	M1
NMTAP	11	48	2
NMTAP	11	96	2
NMTTP	11	192	4	B	0	M1
NMTAP	11	240	5
NMTAP	11	288	5
NMTTP	12	0	0	B	0	M1
NMTAP	12	48	3
NMTAP	12	96	3
NMTTP	12	192	3	E	0	M1
NMTAP	12	240	4
NMTAP	12	288	3
NMTAP	12	288	4
NMTTP	13	0	6	B	0	M1
NMTAP	13	48	3
NMTAP	13	96	3
NMTAP	13	144	3
NMTTP	13	192	4	B	0	M1
NMTAP	13	240	5
NMTAP	13	288	5
NMTAP	13	336	5
NMTTP	14	0	0	B	0	M1
NMTAP	14	48	2
NMTAP	14	96	2
NMTAP	14	144	2
NMTTP	14	192	1	E	0	M1
NMTAP	14	240	5
NMTAP	14	288	5
NMTAP	14	336	5
NMTTP	15	0	7	E	0	M1
NMTAP	15	48	3
NMTAP	15	96	3
NMTAP	15	144	3
NMTTP	15	192	7	B	0	M1
NMTAP	15	240	1
NMTAP	15	288	1
NMTAP	15	336	1
NMTTP	16	0	0	B	0	M1
NMTAP	16	48	6
NMTAP	16	96	6
NMTAP	16	144	6
NMTTP	16	192	1	E	0	M1
NMTAP	16	240	2
NMTAP	16	240	3
NMTAP	16	288	2
NMTAP	16	288	3
NMTAP	17	0	0
NMTTP	17	0	7	E	0	M1
NMTAP	17	48	0
NMTAP	17	144	2
NMTTP	17	192	7	B	0	M1
NMTAP	17	240	3
NMTAP	17	288	3
NMTTP	18	0	0	B	0	M1
NMTAP	18	0	4
NMTAP	18	96	3
NMTAP	18	96	5
NMTTP	18	192	1	E	0	M1
NMTAP	18	288	3
NMTAP	18	288	5
NMTAP	19	0	2
NMTTP	19	0	7	E	0	M1
NMTAP	19	48	2
NMTAP	19	144	3
NMTTP	19	192	4	B	0	M1
NMTAP	19	240	5
NMTAP	19	288	5
NMTTP	20	0	0	B	0	M1
NMTAP	20	0	6
NMTAP	20	96	2
NMTAP	20	96	4
NMTTP	20	192	3	E	0	M1
NMTAP	20	288	3
NMTAP	20	288	5
EXTAP	21	0	4
NMTTP	21	0	6	B	0	M1
EXTAP	21	96	3
EXTAP	21	192	2
NMTTP	21	192	4	B	0	M1
EXTAP	21	288	1
NMTTP	22	0	0	B	0	M1
EXTAP	22	0	5
EXTAP	22	96	6
NMTTP	22	192	1	E	0	M1
NMTAP	22	288	2
NMTAP	22	288	4
NMTAP	23	0	3
NMTTP	23	0	7	E	0	M1
NMTAP	23	48	3
NMTAP	23	144	2
NMTTP	23	192	7	B	0	M1
NMTAP	23	240	3
NMTAP	23	288	3
NMTTP	24	0	0	B	0	M1
NMTAP	24	0	4
NMTAP	24	96	3
NMTAP	24	96	5
NMTTP	24	192	1	E	0	M1
NMTAP	24	288	2
NMTAP	24	288	4
NMHLD	25	0	3	96
NMTTP	25	0	7	E	0	M1
NMTAP	25	144	2
NMHLD	25	192	2	96
NMTTP	25	192	7	B	0	M1
NMTAP	25	288	4
NMTTP	26	0	3	B	0	M1
NMHLD	26	0	6	96
NMTAP	26	144	7
NMTTP	26	192	1	E	0	M1
NMHLD	26	192	7	96
NMTAP	26	288	4
NMHLD	27	0	3	96
NMTTP	27	0	6	E	0	M1
NMTAP	27	144	2
NMHLD	27	192	2	96
NMTTP	27	192	5	E	0	M1
NMTAP	27	288	4
NMTTP	28	0	4	E	0	M1
NMHLD	28	0	6	96
NMTAP	28	144	7
NMTTP	28	192	3	E	0	M1
NMHLD	28	192	7	96
NMTAP	28	288	0
NMHLD	29	0	2	96
NMTTP	29	0	5	E	0	M1
NMTAP	29	144	1
NMHLD	29	192	1	96
NMTTP	29	192	7	B	0	M1
NMTAP	29	288	5
NMTTP	30	0	2	B	0	M1
NMHLD	30	0	6	96
NMTAP	30	144	5
NMTTP	30	192	2	E	0	M1
NMHLD	30	192	5	96
NMTAP	30	288	3
NMHLD	31	0	1	96
NMTTP	31	0	6	B	0	M1
NMTAP	31	144	2
NMHLD	31	192	2	96
NMTTP	31	192	7	B	0	M1
NMTAP	31	288	4
NMTTP	32	0	3	B	0	M1
NMHLD	32	0	5	96
NMTAP	32	144	6
NMTTP	32	192	2	B	0	M1
NMHLD	32	192	6	96
NMTAP	32	288	3
NMTAP	33	0	1
NMTTP	33	0	7	E	0	M1
NMTAP	33	48	1
NMTAP	33	144	2
NMTAP	33	192	2
NMTTP	33	192	7	B	0	M1
NMTAP	33	240	3
NMTAP	33	288	3
NMTAP	33	336	4
NMTTP	34	0	0	B	0	M1
NMTAP	34	0	4
NMTAP	34	96	3
NMTAP	34	96	5
NMTTP	34	192	1	E	0	M1
NMTAP	34	192	6
NMTAP	34	240	6
NMTAP	34	288	4
NMTAP	35	0	3
NMTTP	35	0	7	E	0	M1
NMTAP	35	48	3
NMTAP	35	144	1
NMTAP	35	192	1
NMTTP	35	192	4	B	0	M1
NMTAP	35	240	2
NMTAP	35	288	2
NMTAP	35	336	3
NMTTP	36	0	0	B	0	M1
NMTAP	36	0	3
NMTAP	36	96	2
NMTAP	36	96	4
NMTTP	36	192	3	E	0	M1
NMTAP	36	192	5
NMTAP	36	240	5
NMTAP	36	288	3
NMTAP	37	0	1
NMTTP	37	0	6	B	0	M1
NMTAP	37	48	1
NMTAP	37	96	0
NMTAP	37	144	0
NMTTP	37	192	4	B	0	M1
NMTAP	37	192	7
NMTAP	37	240	7
NMTAP	37	288	6
NMTAP	37	336	6
NMTTP	38	0	0	B	0	M1
NMTAP	38	0	5
NMTAP	38	96	2
NMTAP	38	96	4
NMTTP	38	192	1	E	0	M1
NMTAP	38	192	5
NMTAP	38	240	5
NMTAP	38	288	4
NMTAP	39	0	2
NMTTP	39	0	7	E	0	M1
NMTAP	39	48	2
NMTAP	39	144	3
NMTAP	39	192	3
NMTTP	39	192	7	B	0	M1
NMTAP	39	240	4
NMTAP	39	288	4
NMTAP	39	336	5
NMTTP	40	0	0	B	0	M1
NMTAP	40	0	5
NMTAP	40	96	4
NMTAP	40	96	6
NMTTP	40	192	1	E	0	M1
NMTAP	40	192	7
NMTAP	40	240	7
NMSTR	40	288	0
NMSCR	40	288	0	96	96	3
NMTTP	41	0	5	E	0	M1
NMTAP	41	192	3
NMTTP	41	192	7	B	0	M1
NMSTR	41	288	4
NMSCR	41	288	4	96	96	7
NMTTP	42	0	3	B	0	M1
NMTTP	42	192	1	E	0	M1
NMTAP	42	192	7
NMSTR	42	288	3
NMSCL	42	288	3	96	96	0
NMTTP	43	0	5	E	0	M1
NMTAP	43	192	0
NMTTP	43	192	4	B	0	M1
NMSTR	43	288	7
NMSCL	43	288	7	96	96	4
NMTTP	44	0	0	B	0	M1
NMTTP	44	192	3	E	0	M1
NMTAP	44	192	4
NMSTR	44	288	3
NMSI_	44	288	3	96	96	0
NMTTP	45	0	5	E	0	M1
NMTAP	45	192	0
NMTTP	45	192	7	B	0	M1
NMSTR	45	288	6
NMSUL	45	288	6	96	96	1
NMTTP	46	0	0	B	0	M1
NMTAP	46	192	1
NMTTP	46	192	3	E	0	M1
NMSTR	46	288	0
NMSLR	46	288	0	96	96	4
NMTTP	47	0	7	E	0	M1
NMTAP	47	192	4
NMTTP	47	192	7	B	0	M1
NMSTR	47	288	4
NMSI_	47	288	4	96	96	7
NMTTP	48	0	3	B	0	M1
NMTTP	48	192	1	E	0	M1
EXTAP	48	192	7
NMHLD	49	0	2	48
NMTTP	49	0	7	E	0	M1
NMHLD	49	96	2	48
NMHLD	49	192	3	48
NMTTP	49	192	7	B	0	M1
NMHLD	49	288	3	48
NMTTP	50	0	0	B	0	M1
NMHLD	50	0	4	48
NMHLD	50	96	4	48
NMTTP	50	192	1	E	0	M1
NMHLD	50	192	5	48
NMHLD	50	288	5	48
NMHLD	51	0	3	48
NMTTP	51	0	7	E	0	M1
NMHLD	51	96	3	48
NMHLD	51	192	2	48
NMTTP	51	192	4	B	0	M1
NMHLD	51	288	2	48
NMTTP	52	0	0	B	0	M1
NMHLD	52	0	5	48
NMHLD	52	96	5	48
NMTTP	52	192	3	E	0	M1
NMHLD	52	192	4	48
NMHLD	52	288	4	48
NMHLD	53	0	3	48
NMTTP	53	0	6	B	0	M1
NMHLD	53	96	3	48
NMHLD	53	192	2	48
NMTTP	53	192	4	B	0	M1
NMHLD	53	288	2	48
NMTTP	54	0	0	B	0	M1
NMHLD	54	0	5	48
NMHLD	54	96	5	48
NMTTP	54	192	1	E	0	M1
NMHLD	54	192	3	48
NMHLD	54	288	3	48
NMHLD	55	0	2	48
NMTTP	55	0	7	E	0	M1
NMHLD	55	96	2	48
NMHLD	55	192	3	48
NMTTP	55	192	7	B	0	M1
NMTAP	55	288	3
NMTTP	56	0	0	B	0	M1
EXTAP	56	0	4
EXTAP	56	72	2
EXTAP	56	72	5
EXTAP	56	144	1
EXTAP	56	144	6
NMTTP	56	192	1	E	0	M1
NMSTR	56	192	7
NMSF_	56	192	7	96	48	3
BRTAP	56	288	7
NMTTP	57	0	7	E	0	M1
NMTAP	57	48	3
NMTAP	57	96	4
NMTAP	57	144	2
NMTTP	57	192	7	B	0	M1
NMTAP	57	240	2
NMTAP	57	288	5
NMTAP	57	336	1
NMTTP	58	0	0	B	0	M1
NMTAP	58	48	6
NMTAP	58	96	4
NMTAP	58	144	5
NMTTP	58	192	1	E	0	M1
NMTAP	58	240	3
NMTAP	58	288	4
NMTAP	58	336	2
NMTTP	59	0	7	E	0	M1
NMTAP	59	48	2
NMTAP	59	96	3
NMTAP	59	144	0
NMTTP	59	192	4	B	0	M1
NMTAP	59	240	5
NMTAP	59	288	3
NMTAP	59	336	6
NMTTP	60	0	0	B	0	M1
NMTAP	60	48	6
NMTAP	60	96	4
NMTAP	60	144	5
NMTTP	60	192	3	E	0	M1
NMTAP	60	240	2
NMTAP	60	288	4
NMTAP	60	336	3
NMTTP	61	0	6	B	0	M1
NMTAP	61	48	0
NMTAP	61	96	3
NMTAP	61	144	2
NMTTP	61	192	4	B	0	M1
NMTAP	61	240	5
NMTAP	61	288	3
NMTAP	61	336	7
NMTTP	62	0	0	B	0	M1
NMTAP	62	48	7
NMTAP	62	96	3
NMTAP	62	144	4
NMTTP	62	192	1	E	0	M1
NMTAP	62	240	2
NMTAP	62	288	3
NMTAP	62	336	1
NMTTP	63	0	7	E	0	M1
NMTAP	63	48	2
NMTAP	63	96	4
NMTAP	63	144	3
NMTTP	63	192	7	B	0	M1
NMTAP	63	240	2
NMTAP	63	288	5
NMTAP	63	336	1
NMTTP	64	0	0	B	0	M1
NMTAP	64	48	4
NMTAP	64	96	3
NMTAP	64	144	6
NMTTP	64	192	1	E	0	M1
NMTAP	64	240	4
NMTAP	64	288	3
NMTAP	64	288	4
NMTAP	65	0	0
NMTTP	65	0	7	E	0	M1
NMTAP	65	48	0
NMTAP	65	144	1
NMTAP	65	192	1
NMTTP	65	192	7	B	0	M1
NMTAP	65	240	2
NMTAP	65	288	3
NMTAP	65	336	4
NMTTP	66	0	0	B	0	M1
NMHLD	66	0	5	96
NMTAP	66	96	3
NMTTP	66	192	1	E	0	M1
NMTAP	66	192	4
NMTAP	66	240	4
NMTAP	66	288	2
NMTAP	66	288	3
BRTAP	67	0	1
NMTTP	67	0	5	B	0	M1
BRTAP	67	48	2
BRTAP	67	96	3
NMTAP	67	144	4
NMTAP	67	192	4
NMTTP	67	192	7	B	0	M1
NMTAP	67	240	3
NMTAP	67	288	3
NMTAP	67	336	5
NMTTP	68	0	0	B	0	M1
NMTAP	68	0	5
NMTAP	68	96	3
NMTAP	68	96	6
NMTTP	68	192	1	B	0	M1
NMTAP	68	192	5
NMTAP	68	240	5
NMSTR	68	288	3
NMSI_	68	288	3	96	48	0
NMTAP	68	288	4
EXTAP	69	0	3
NMTTP	69	0	6	E	0	M1
NMTAP	69	96	1
NMTAP	69	144	1
NMTAP	69	192	2
NMTTP	69	192	5	B	0	M1
NMTAP	69	240	2
NMTAP	69	288	3
NMTAP	69	336	4
NMTTP	70	0	0	B	0	M1
NMHLD	70	0	5	96
NMTAP	70	96	3
NMTTP	70	192	3	E	0	M1
NMTAP	70	192	7
NMTAP	70	240	7
NMSTR	70	288	0
NMSI_	70	288	0	96	48	3
BRTAP	71	0	0
NMTTP	71	0	5	E	0	M1
NMTAP	71	96	3
NMTAP	71	96	5
NMTAP	71	192	1
NMTTP	71	192	4	B	0	M1
NMTAP	71	240	1
NMTAP	71	288	1
NMTAP	71	288	2
NMTTP	72	0	3	B	0	M1
NMTTP	72	48	3	B	0	M1
NMTTP	72	96	3	B	0	M1

T_REC_TAP	236
T_REC_BRK	5
T_REC_XTP	13
T_REC_BXX	0
T_REC_HLD	45
T_REC_XHO	0
T_REC_BHO	0
T_REC_BXH	0
T_REC_STR	11
T_REC_BST	0
T_REC_XST	0
T_REC_XBS	0
T_REC_TTP	145
T_REC_THO	0
T_REC_SLD	11
T_REC_BSL	0
T_REC_ALL	466
T_NUM_TAP	405
T_NUM_BRK	5
T_NUM_HLD	45
T_NUM_SLD	11
T_NUM_ALL	466
T_JUDGE_TAP	410
T_JUDGE_HLD	63
T_JUDGE_SLD	11
T_JUDGE_ALL	484
TTM_EACHPAIRS	22
TTM_SCR_TAP	202500
TTM_SCR_BRK	13000
TTM_SCR_HLD	45000
TTM_SCR_SLD	16500
TTM_SCR_ALL	277000
TTM_SCR_S	268250
TTM_SCR_SS	276500
TTM_RAT_ACV	10018

