VERSION	0.00.00	1.03.00
FES_MODE	0
BPM_DEF	140.000	140.000	140.000	140.000
MET_DEF	4	4
RESOLUTION	384
CLK_DEF	384
COMPATIBLE_CODE	MA2

BPM	0	0	140.000
MET	0	0	4	4

TTP	1	0	6	E	0	M1
TTP	1	192	5	E	0	M1
TTP	2	0	3	E	0	M1
TTP	2	192	2	E	0	M1
TTP	3	0	0	C	0	M1
TTP	3	0	6	E	0	M1
TTP	3	192	0	C	0	M1
TTP	3	192	5	E	0	M1
TTP	4	0	0	C	0	M1
TTP	4	0	3	E	0	M1
TTP	4	192	0	C	0	M1
TTP	4	192	2	E	0	M1
TTP	5	0	6	B	0	M1
TTP	5	0	7	E	0	M1
TTP	5	192	4	B	0	M1
TTP	5	192	5	E	0	M1
TTP	6	0	2	B	0	M1
TTP	6	0	3	E	0	M1
TTP	6	192	0	B	0	M1
TTP	6	192	1	E	0	M1
TTP	7	0	0	C	0	M1
TTP	7	0	6	B	0	M1
TTP	7	0	7	E	0	M1
TTP	7	192	0	C	0	M1
TTP	7	192	4	B	0	M1
TTP	7	192	5	E	0	M1
TTP	8	0	0	C	0	M1
TTP	8	0	2	B	0	M1
TTP	8	0	3	E	0	M1
TTP	8	192	0	B	0	M1
TTP	8	192	0	C	0	M1
TTP	8	192	1	E	0	M1
HLD	9	0	5	96
TAP	9	96	4
HLD	9	192	2	96
TAP	9	288	3
HLD	10	0	5	96
HLD	10	96	4	96
HLD	10	192	3	96
TAP	10	288	2
HLD	11	0	2	96
TAP	11	96	3
HLD	11	192	5	96
TAP	11	288	4
HLD	12	0	2	96
HLD	12	96	3	96
HLD	12	192	4	96
TAP	12	288	5
HLD	13	0	6	96
TAP	13	96	7
HLD	13	192	1	96
TAP	13	288	0
HLD	14	0	6	96
HLD	14	96	7	96
TAP	14	192	0
TAP	14	288	0
TAP	14	288	1
HLD	15	0	1	96
TAP	15	96	0
HLD	15	192	6	96
TAP	15	288	7
HLD	16	0	1	96
HLD	16	96	0	96
TAP	16	192	7
TAP	16	288	6
TAP	16	288	7
TAP	17	0	5
TAP	17	48	5
XTP	17	144	5
XTP	17	192	4
XTP	17	192	5
TAP	17	288	4
TAP	17	288	5
TAP	18	0	2
TAP	18	0	3
TAP	18	96	2
TAP	18	96	3
TTP	18	192	0	B	0	M1
TTP	18	192	1	E	0	M1
TTP	18	288	2	B	0	M1
TTP	18	288	2	E	0	M1
TAP	19	0	5
TAP	19	48	5
XTP	19	144	6
XST	19	192	6
SCL	19	192	6	96	96	3
HLD	20	0	2	96
TAP	20	96	3
TTP	20	192	0	B	0	M1
TTP	20	192	1	E	0	M1
TTP	20	288	2	B	0	M1
TTP	20	288	2	E	0	M1
XTP	21	0	5
XTP	21	48	5
XHO	21	96	5	96
HLD	21	192	4	96
HLD	21	288	3	96
TAP	22	0	2
TAP	22	96	0
TAP	22	96	1
TTP	22	192	2	B	0	M1
TTP	22	192	3	E	0	M1
TTP	22	288	4	B	0	M1
TTP	22	288	4	E	0	M1
TAP	23	0	5
TAP	23	48	5
XTP	23	144	6
XTP	23	192	6
XTP	23	192	7
TAP	23	288	6
TAP	23	288	7
TAP	24	0	0
TAP	24	0	1
TAP	24	96	0
TAP	24	96	1
TTP	24	192	2	B	0	M1
TTP	24	192	3	E	0	M1
TTP	24	288	4	B	0	M1
TTP	24	288	4	E	0	M1
TAP	25	0	6
TAP	25	48	6
TAP	25	144	5
TAP	25	192	4
TAP	25	192	5
TAP	25	288	2
TAP	25	288	3
TAP	26	0	0
TAP	26	0	1
HLD	26	96	0	96
HLD	26	96	1	96
TAP	27	0	3
TAP	27	48	3
TAP	27	144	2
TAP	27	192	2
TAP	27	192	3
TAP	27	288	0
TAP	27	288	1
TAP	28	0	0
TAP	28	0	7
STR	28	96	0
SI_	28	96	0	96	96	3
STR	28	96	7
SI_	28	96	7	96	96	4
HLD	29	0	2	96
HLD	29	96	3	96
HLD	29	192	4	96
TAP	29	288	5
TAP	30	0	6
TAP	30	0	7
HLD	30	96	6	96
HLD	30	96	7	96
TAP	31	0	7
TAP	31	48	7
TAP	31	144	7
TAP	31	192	6
TAP	31	192	7
TAP	31	288	4
TAP	31	288	5
TAP	32	0	5
TAP	32	48	5
HLD	32	96	5	96
HLD	32	192	4	96
TAP	32	288	3
TAP	33	0	2
TAP	33	48	2
TAP	33	144	2
TAP	33	192	2
TAP	33	192	3
TAP	33	288	2
TAP	33	288	3
TAP	34	0	4
TAP	34	0	5
TAP	34	96	4
TAP	34	96	5
TTP	34	192	6	B	0	M1
TTP	34	192	7	E	0	M1
TTP	34	288	0	B	0	M1
TTP	34	288	0	E	0	M1
TAP	35	0	2
TAP	35	48	2
TAP	35	144	1
STR	35	192	1
SCR	35	192	1	96	96	4
HLD	36	0	5	96
TAP	36	96	4
TTP	36	192	6	B	0	M1
TTP	36	192	7	E	0	M1
TTP	36	288	0	B	0	M1
TTP	36	288	0	E	0	M1
TAP	37	0	2
TAP	37	48	2
HLD	37	96	2	96
HLD	37	192	3	96
HLD	37	288	4	96
TAP	38	0	5
TAP	38	96	6
TAP	38	96	7
TTP	38	192	5	B	0	M1
TTP	38	192	5	E	0	M1
TTP	38	288	3	B	0	M1
TTP	38	288	4	E	0	M1
TAP	39	0	2
TAP	39	48	2
TAP	39	144	1
TAP	39	192	0
TAP	39	192	1
TAP	39	288	0
TAP	39	288	1
TAP	40	0	6
TAP	40	0	7
TAP	40	96	6
TAP	40	96	7
TTP	40	192	4	B	0	M1
TTP	40	192	4	E	0	M1
TTP	40	288	2	B	0	M1
TTP	40	288	3	E	0	M1
STR	41	0	7
SCL	41	0	7	96	96	4
STR	41	192	3
SCL	41	192	3	96	96	0
STR	42	0	7
SV_	42	0	7	96	96	2
SV_	42	0	7	96	96	4
STR	43	0	2
SCL	43	0	2	96	96	7
STR	43	192	6
SCL	43	192	6	96	96	3
HLD	44	0	2	96
TAP	44	96	3
TAP	44	288	3
TAP	44	288	4
TAP	45	0	4
TAP	45	0	5
HLD	45	96	6	96
HLD	45	192	7	96
TAP	45	288	6
TAP	46	0	0
TAP	46	0	7
STR	46	96	0
SI_	46	96	0	96	96	3
STR	46	96	7
SI_	46	96	7	96	96	4
STR	47	0	0
SCR	47	0	0	96	96	3
STR	47	192	4
SCR	47	192	4	96	96	7
STR	48	0	0
SV_	48	0	0	96	96	3
SV_	48	0	0	96	96	5
TAP	49	0	6
TAP	49	48	6
TAP	49	144	5
TAP	49	192	4
TAP	49	192	5
TAP	49	288	4
TAP	49	288	5
TAP	50	0	3
TAP	50	0	4
HLD	50	96	3	96
HLD	50	96	4	96
TAP	51	0	1
TAP	51	48	1
TAP	51	144	1
STR	51	192	1
SCR	51	192	1	96	96	4
HLD	52	0	5	96
HLD	52	96	4	96
TAP	52	192	5
TAP	52	288	6
TAP	53	0	6
TAP	53	0	7
HLD	53	96	6	96
HLD	53	192	7	96
HLD	53	288	0	96
HLD	54	0	1	192
HLD	54	96	2	96
TAP	55	0	4
TAP	55	48	4
TAP	55	144	6
TAP	55	192	6
TAP	55	192	7
TAP	55	288	6
TAP	55	288	7
TAP	56	0	5
XHO	56	72	5	72
XTP	56	144	4
XTP	56	192	4
XTP	56	192	5
BRK	56	288	3
BRK	56	288	6
TAP	57	0	2
TAP	57	48	2
XTP	57	96	2
XTP	57	96	3
TAP	57	192	0
TAP	57	192	1
TAP	57	240	0
TAP	57	240	1
XTP	57	288	2
XTP	57	288	7
TAP	58	0	6
TAP	58	0	7
TAP	58	48	6
TAP	58	48	7
XTP	58	96	0
XTP	58	96	5
TTP	58	192	2	E	0	M1
TTP	58	240	3	E	0	M1
TTP	58	288	4	E	0	M1
TAP	59	0	0
TAP	59	48	0
XTP	59	96	7
XTP	59	144	7
XST	59	192	1
SCR	59	192	1	96	96	4
HLD	60	0	5	96
TAP	60	96	4
TTP	60	192	1	E	0	M1
TTP	60	240	2	E	0	M1
TTP	60	288	3	E	0	M1
BRK	61	0	6
BRK	61	0	7
TAP	61	96	5
TAP	61	144	5
XHO	61	192	5	96
HLD	61	288	4	96
HLD	62	0	3	96
TAP	62	96	2
TTP	62	192	7	E	0	M1
TTP	62	240	6	E	0	M1
TTP	62	288	5	E	0	M1
TAP	63	0	1
TAP	63	48	1
TAP	63	96	0
TAP	63	96	1
TAP	63	192	2
TAP	63	192	4
TAP	63	240	2
TAP	63	240	4
TAP	63	288	3
TAP	63	288	5
TAP	64	0	4
TAP	64	0	6
TAP	64	48	4
TAP	64	48	6
TAP	64	96	3
TAP	64	96	5
TTP	64	192	1	E	0	M1
TTP	64	240	2	E	0	M1
TTP	64	288	3	E	0	M1
TAP	65	0	6
TAP	65	48	6
TAP	65	96	6
TAP	65	96	7
TAP	65	192	3
TAP	65	192	5
TAP	65	240	3
TAP	65	240	5
TAP	65	288	2
TAP	65	288	4
TAP	66	0	1
TAP	66	0	3
TAP	66	48	1
TAP	66	48	3
TAP	66	96	2
TAP	66	96	4
TTP	66	192	7	E	0	M1
TTP	66	240	6	E	0	M1
TTP	66	288	5	E	0	M1
BRK	67	0	0
BRK	67	0	7
XTP	67	48	0
XTP	67	48	7
XTP	67	96	1
XTP	67	96	6
TAP	67	192	4
TAP	67	192	6
TAP	67	240	4
TAP	67	240	6
TAP	67	288	5
TAP	67	288	7
TAP	68	0	1
TAP	68	0	3
TAP	68	48	1
TAP	68	48	3
TAP	68	96	0
TAP	68	96	2
TTP	68	192	7	E	0	M1
TTP	68	240	6	E	0	M1
TTP	68	288	5	E	0	M1
BRK	69	0	0
BRK	69	0	1
TAP	69	96	2
TAP	69	144	2
XHO	69	192	2	96
HLD	69	288	3	96
HLD	70	0	4	96
TAP	70	96	5
TAP	70	240	6
TAP	70	288	5
TAP	70	336	4
XTP	71	0	3
XTP	71	48	2
XTP	71	48	4
HLD	71	192	3	96
HLD	71	288	4	96
TTP	72	0	1	B	0	M1
TTP	72	48	0	C	0	M1
TTP	72	96	5	B	0	M1

T_REC_TAP	198
T_REC_BRK	8
T_REC_XTP	27
T_REC_HLD	53
T_REC_XHO	4
T_REC_STR	14
T_REC_BST	0
T_REC_XST	2
T_REC_TTP	85
T_REC_THO	0
T_REC_SLD	18
T_REC_ALL	409
T_NUM_TAP	326
T_NUM_BRK	8
T_NUM_HLD	57
T_NUM_SLD	18
T_NUM_ALL	409
T_JUDGE_TAP	334
T_JUDGE_HLD	116
T_JUDGE_SLD	18
T_JUDGE_ALL	468
TTM_EACHPAIRS	78
TTM_SCR_TAP	163000
TTM_SCR_BRK	20800
TTM_SCR_HLD	57000
TTM_SCR_SLD	27000
TTM_SCR_ALL	267800
TTM_SCR_S	259000
TTM_SCR_SS	267000
TTM_RAT_ACV	10029

