VERSION	0.00.00	1.03.00
FES_MODE	0
BPM_DEF	140.000	140.000	140.000	140.000
MET_DEF	4	4
RESOLUTION	384
CLK_DEF	384
COMPATIBLE_CODE	MA2

BPM	0	0	140.000
MET	0	0	4	4

TAP	1	96	4
TAP	1	288	4
TAP	2	96	5
TAP	2	288	5
TAP	3	96	6
TAP	3	288	6
TAP	4	96	7
TAP	4	288	7
TAP	5	96	0
TAP	5	288	0
TAP	6	96	1
TAP	6	288	1
TAP	7	96	2
TAP	7	288	2
TAP	8	96	3
TAP	8	96	4
TAP	8	192	3
TAP	8	192	4
XTP	9	0	5
TAP	9	96	5
TAP	9	192	5
TAP	9	288	5
TAP	10	0	4
TAP	10	96	4
TAP	10	192	4
TAP	11	0	3
TAP	11	96	3
TAP	11	192	3
TAP	11	288	3
TAP	12	0	2
TAP	12	96	2
TAP	12	192	2
TAP	13	0	1
TAP	13	96	1
TAP	13	192	1
TAP	13	288	1
TAP	14	0	0
TAP	14	96	0
TAP	14	192	0
TAP	15	0	7
TAP	15	96	7
TAP	15	192	7
TAP	15	288	7
TAP	16	0	6
TAP	16	96	6
TAP	16	192	6
XTP	17	0	5
TAP	17	96	5
TAP	17	192	4
TAP	17	288	4
HLD	18	0	5	192
TAP	18	192	4
TAP	19	0	6
TAP	19	96	6
TAP	19	192	7
TAP	19	288	7
HLD	20	0	6	192
TAP	20	192	7
TAP	21	0	1
TAP	21	96	1
TAP	21	192	0
TAP	21	288	0
TAP	22	0	1
TAP	22	96	1
TAP	22	192	0
TAP	22	192	1
TAP	23	0	2
TAP	23	96	2
TAP	23	192	3
TAP	23	288	3
HLD	24	0	2	192
TAP	24	192	3
STR	25	0	1
SI_	25	0	1	96	192	4
TAP	26	0	5
TAP	26	96	5
TAP	26	192	4
TAP	26	192	5
STR	27	0	6
SI_	27	0	6	96	192	3
TAP	28	0	2
TAP	28	96	2
TAP	28	192	2
TAP	28	192	3
STR	29	0	1
SI_	29	0	1	96	192	4
STR	30	0	6
SI_	30	0	6	96	192	3
STR	31	0	1
SI_	31	0	1	96	192	4
TAP	32	0	5
TAP	32	96	5
XTP	32	192	3
XTP	32	192	4
TAP	33	0	2
TAP	33	96	2
TAP	33	192	3
TAP	33	288	3
HLD	34	0	2	192
TAP	34	192	3
TAP	35	0	1
TAP	35	96	1
TAP	35	192	0
TAP	35	288	0
HLD	36	0	1	192
TAP	36	192	0
TAP	37	0	6
TAP	37	96	6
TAP	37	192	7
TAP	37	288	7
TAP	38	0	6
TAP	38	96	6
TAP	38	192	6
TAP	38	192	7
TAP	39	0	5
TAP	39	96	5
TAP	39	192	4
TAP	39	288	4
HLD	40	0	5	192
TAP	40	192	4
HLD	41	0	2	192
HLD	41	192	3	192
TAP	42	0	4
TAP	42	96	4
TAP	42	192	4
HLD	43	0	5	192
HLD	43	192	4	192
TAP	44	0	3
TAP	44	96	3
TAP	44	192	3
HLD	45	0	1	192
HLD	45	192	0	192
TAP	46	0	7
TAP	46	96	7
TAP	46	192	7
HLD	47	0	6	192
HLD	47	192	7	192
TAP	48	0	0
TAP	48	96	0
XTP	48	192	0
TTP	49	0	1	B	0	L1
TTP	49	96	2	B	0	L1
TTP	49	192	3	B	0	L1
TTP	49	288	4	B	0	L1
TTP	50	0	5	B	0	L1
TTP	50	192	0	B	0	L1
TTP	50	192	7	B	0	L1
TTP	51	0	6	B	0	L1
TTP	51	96	5	B	0	L1
TTP	51	192	4	B	0	L1
TTP	51	288	3	B	0	L1
TTP	52	0	2	B	0	L1
TTP	52	192	0	B	0	L1
TTP	52	192	7	B	0	L1
TTP	53	0	1	B	0	L1
TTP	53	96	2	B	0	L1
TTP	53	192	3	B	0	L1
TTP	53	288	4	B	0	L1
TTP	54	0	5	B	0	L1
TTP	54	96	6	B	0	L1
TTP	54	192	7	B	0	L1
TTP	55	0	7	E	0	L1
TTP	55	96	6	E	0	L1
TTP	55	192	5	E	0	L1
TTP	55	288	4	E	0	L1
TTP	56	0	3	E	0	L1
TTP	56	96	2	E	0	L1
TTP	56	192	1	E	0	L1
TAP	57	0	7
TAP	57	96	6
TAP	57	192	5
TAP	57	288	4
TAP	58	0	3
TAP	58	96	3
TAP	58	192	2
TAP	58	192	3
TAP	59	0	2
TAP	59	96	2
TAP	59	192	1
TAP	59	288	1
TAP	60	0	0
TAP	60	96	0
TAP	60	192	0
TAP	60	192	7
TAP	61	0	0
TAP	61	96	1
TAP	61	192	2
TAP	61	288	3
TAP	62	0	4
TAP	62	96	4
TAP	62	192	4
TAP	62	192	5
TAP	63	0	5
TAP	63	96	5
TAP	63	192	6
TAP	63	288	6
TAP	64	0	7
TAP	64	96	7
TAP	64	192	0
TAP	64	192	7
TAP	65	0	6
TAP	65	96	6
TAP	65	192	6
TAP	65	192	7
STR	65	288	6
SI_	65	288	6	96	192	3
STR	65	288	7
SI_	65	288	7	96	192	2
TAP	67	0	3
TAP	67	0	4
TAP	67	96	3
TAP	67	96	4
TAP	67	192	2
TAP	67	192	5
TAP	67	288	2
TAP	67	288	5
TAP	68	0	1
TAP	68	0	6
TAP	68	96	1
TAP	68	96	6
XTP	68	192	0
XTP	68	192	7
TAP	69	0	1
TAP	69	96	1
TAP	69	192	0
TAP	69	192	1
STR	69	288	0
SI_	69	288	0	96	192	5
STR	69	288	1
SI_	69	288	1	96	192	4
TAP	71	0	6
TAP	71	96	7
TAP	71	192	0
TAP	71	288	1
BRK	72	0	0
BRK	72	0	7
BRK	72	96	0
BRK	72	96	7

T_REC_TAP	167
T_REC_BRK	4
T_REC_XTP	7
T_REC_HLD	14
T_REC_XHO	0
T_REC_STR	9
T_REC_BST	0
T_REC_XST	0
T_REC_TTP	28
T_REC_THO	0
T_REC_SLD	9
T_REC_ALL	238
T_NUM_TAP	211
T_NUM_BRK	4
T_NUM_HLD	14
T_NUM_SLD	9
T_NUM_ALL	238
T_JUDGE_TAP	215
T_JUDGE_HLD	56
T_JUDGE_SLD	9
T_JUDGE_ALL	280
TTM_EACHPAIRS	24
TTM_SCR_TAP	105500
TTM_SCR_BRK	10400
TTM_SCR_HLD	14000
TTM_SCR_SLD	13500
TTM_SCR_ALL	143400
TTM_SCR_S	138750
TTM_SCR_SS	143000
TTM_RAT_ACV	10027

