VERSION	0.00.00	1.03.00
FES_MODE	0
BPM_DEF	225.000	225.000	225.000	225.000
MET_DEF	4	4
RESOLUTION	384
CLK_DEF	384
COMPATIBLE_CODE	MA2

BPM	0	0	225.000
MET	0	0	4	4

STR	2	0	2
SCR	2	0	2	96	48	4
XTP	2	96	2
XTP	2	96	6
BRK	2	192	1
BRK	2	192	7
STR	3	0	6
SI_	3	0	6	96	48	3
TAP	3	96	2
TAP	3	192	0
TAP	3	240	0
TAP	3	288	4
TAP	3	336	1
TAP	3	336	5
TAP	4	48	2
TAP	4	48	6
TAP	4	144	1
TAP	4	144	5
TAP	4	192	1
STR	4	192	5
SCL	4	192	5	96	48	2
TAP	4	288	0
STR	5	0	1
SI_	5	0	1	96	48	4
TAP	5	96	5
TAP	5	192	7
TAP	5	240	7
TAP	5	288	3
TAP	5	336	2
TAP	5	336	6
TAP	6	48	1
TAP	6	48	5
TAP	6	144	2
TAP	6	144	6
BST	6	192	2
SI_	6	192	2	96	48	0
BRK	6	192	6
BRK	6	288	2
BRK	6	288	4
STR	7	0	6
SI_	7	0	6	96	48	3
TAP	7	96	1
TAP	7	192	0
TAP	7	240	0
TAP	7	288	4
TAP	7	336	1
TAP	7	336	5
TAP	8	48	2
TAP	8	48	6
TAP	8	144	1
TAP	8	144	5
TAP	8	192	1
STR	8	192	5
SCL	8	192	5	96	48	2
STR	8	288	0
SI_	8	288	0	96	48	4
TAP	9	0	7
TAP	9	96	7
TAP	9	192	0
TAP	9	192	6
TAP	9	240	1
TAP	9	240	5
TAP	9	288	2
TAP	9	288	4
STR	10	0	6
SI_	10	0	6	96	48	4
BST	10	96	0
SI_	10	96	0	96	48	2
BRK	10	96	6
BRK	10	192	0
BST	10	192	7
SI_	10	192	7	96	48	3
BRK	10	288	0
BRK	10	288	7
STR	11	0	1
SI_	11	0	1	96	48	4
TAP	11	96	5
TAP	11	192	7
TAP	11	240	7
TAP	11	288	3
TAP	11	336	2
TAP	11	336	6
TAP	12	48	1
TAP	12	48	5
TAP	12	144	2
TAP	12	144	6
STR	12	192	2
SCR	12	192	2	96	48	5
TAP	12	192	6
TAP	12	288	7
STR	13	0	6
SI_	13	0	6	96	48	3
TAP	13	96	2
TAP	13	192	0
TAP	13	240	0
TAP	13	288	4
TAP	13	336	1
TAP	13	336	5
TAP	14	48	2
TAP	14	48	6
TAP	14	144	1
TAP	14	144	5
BRK	14	192	1
BST	14	192	5
SI_	14	192	5	96	48	7
BRK	14	288	3
BRK	14	288	5
STR	15	0	1
SI_	15	0	1	96	48	4
TAP	15	96	6
TAP	15	192	7
TAP	15	240	7
TAP	15	288	3
TAP	15	336	2
TAP	15	336	6
TAP	16	48	1
TAP	16	48	5
TAP	16	144	2
TAP	16	144	6
STR	16	192	2
SCL	16	192	2	96	48	0
TAP	16	192	6
TAP	16	288	7
HLD	16	336	7	96
TAP	17	48	0
TAP	17	96	0
TAP	17	192	3
TAP	17	216	4
TAP	17	240	3
TAP	17	264	4
TAP	17	288	2
TAP	17	312	5
TAP	17	336	2
TAP	17	360	5
TAP	18	0	3
TAP	18	24	4
TAP	18	48	3
TAP	18	72	4
TAP	18	96	3
BRK	18	192	2
BRK	18	192	5
BRK	18	240	2
BRK	18	240	5
TAP	19	0	1
TAP	19	48	1
TAP	19	96	3
TAP	19	144	3
TAP	19	192	2
TAP	19	240	2
STR	19	288	4
SI_	19	288	4	96	48	6
TAP	20	0	3
STR	20	96	1
SV_	20	96	1	96	48	4
STR	20	96	7
SV_	20	96	7	96	48	4
XTP	20	288	3
XTP	20	288	5
STR	21	0	4
SCL	21	0	4	96	48	0
TAP	21	0	6
TAP	21	96	5
STR	21	192	3
SCR	21	192	3	96	48	7
TAP	21	288	2
STR	22	0	4
SCL	22	0	4	96	48	0
TAP	22	96	5
TAP	22	192	3
TAP	22	288	5
TAP	23	0	4
TAP	23	0	6
STR	23	96	3
SI_	23	96	3	96	48	1
STR	23	192	3
SI_	23	192	3	96	48	5
STR	23	288	3
SI_	23	288	3	96	48	0
STR	24	0	3
SI_	24	0	3	96	48	6
STR	24	96	3
SI_	24	96	3	96	48	7
TAP	24	192	3
STR	24	288	0
SI_	24	288	0	96	48	4
TAP	25	0	0
STR	25	96	6
SI_	25	96	6	96	48	4
STR	25	96	7
SI_	25	96	7	96	48	3
TAP	25	192	6
TAP	25	192	7
STR	25	288	0
SCR	25	288	0	96	192	7
BRK	26	0	0
HLD	26	0	6	288
TTP	26	288	1	E	0	M1
TAP	27	0	7
TAP	27	48	7
TAP	27	96	4
TAP	27	144	4
TAP	27	192	5
TAP	27	240	5
STR	27	288	3
SLL	27	288	3	96	96	7
STR	28	0	7
SLL	28	0	7	96	96	3
TAP	28	96	3
TAP	28	192	7
STR	28	288	2
SI_	28	288	2	96	48	6
TAP	29	0	4
STR	29	96	5
SI_	29	96	5	96	48	1
TAP	29	192	3
HLD	29	288	2	96
TTP	30	0	5	E	0	M1
TTP	30	96	4	E	0	M1
TTP	30	192	3	E	0	M1
XTP	31	0	2
XTP	31	0	3
XTP	31	96	4
XTP	31	96	5
XTP	31	192	0
XTP	31	192	1
XTP	31	288	6
XTP	31	288	7
BRK	32	0	1
BRK	32	0	7
BRK	32	96	0
BRK	32	96	6
BRK	32	192	1
BRK	32	192	7
XTP	32	288	3
XTP	32	288	4
TTP	33	0	1	B	0	M1
TTP	33	0	1	E	0	M1
TTP	33	0	2	E	0	M1
TAP	33	0	4
TAP	33	96	3
TTP	33	96	6	B	0	M1
TTP	33	96	6	E	0	M1
TTP	33	96	7	E	0	M1
TAP	33	192	2
TAP	33	192	4
STR	33	288	1
SCR	33	288	1	96	48	3
STR	33	288	5
SCR	33	288	5	96	48	7
STR	34	0	1
SV_	34	0	1	96	48	3
STR	34	0	5
SV_	34	0	5	96	48	7
TTP	34	192	0	C	1	M1
TTP	34	192	3	B	0	M1
TTP	34	192	7	B	0	M1
BST	35	0	1
SCL	35	0	1	96	48	7
STR	35	96	4
SXL	35	96	4	96	96	4
SXR	35	96	4	96	96	4
TAP	35	144	4
STR	36	0	3
SLL	36	0	3	96	96	7
TAP	36	48	3
STR	36	96	5
SI_	36	96	5	96	48	3
XTP	36	192	5
HLD	36	288	1	96
TAP	36	288	4
TAP	37	0	5
TAP	37	96	3
HLD	37	96	6	96
HLD	37	192	7	96
TAP	37	288	0
TAP	38	0	4
HLD	38	0	6	96
STR	38	96	5
SI_	38	96	5	96	48	0
HLD	39	0	2	96
HLD	39	96	4	96
BRK	39	192	7
STR	39	288	0
SXL	39	288	0	96	192	3
BRK	39	288	6
TAP	40	0	4
TAP	40	96	4
TAP	40	192	5
TAP	40	288	5
XTP	41	0	1
XTP	41	0	4
XST	41	48	1
SCL	41	48	1	96	48	7
XHO	41	48	4	288
XST	41	144	1
SCR	41	144	1	96	48	3
XST	41	240	1
SXL	41	240	1	96	240	4
BRK	41	336	1
TAP	42	48	5
TAP	42	96	5
STR	42	192	6
SI_	42	192	6	96	48	2
BRK	42	288	6
STR	43	0	1
SI_	43	0	1	96	48	3
STR	43	0	7
SI_	43	0	7	96	48	5
TAP	43	96	1
TAP	43	96	7
STR	43	192	1
SI_	43	192	1	96	48	3
STR	43	192	7
SI_	43	192	7	96	48	5
TAP	43	288	1
TAP	43	288	7
STR	44	0	0
SI_	44	0	0	96	48	2
STR	44	0	6
SI_	44	0	6	96	48	4
TAP	44	96	0
TAP	44	96	6
STR	44	192	0
SI_	44	192	0	96	48	2
STR	44	192	6
SI_	44	192	6	96	48	4
TAP	44	288	0
TAP	44	288	6
STR	45	0	1
SI_	45	0	1	96	48	3
STR	45	0	7
SI_	45	0	7	96	48	5
TAP	45	96	1
TAP	45	96	7
STR	45	192	1
SI_	45	192	1	96	48	3
STR	45	192	7
SI_	45	192	7	96	48	5
TAP	45	288	1
TAP	45	288	7
BRK	46	0	0
BRK	46	0	6
TAP	46	96	2
TAP	46	144	2
TAP	46	192	4
TAP	46	240	4
TAP	46	288	0
TAP	46	336	0
BST	47	0	6
SI_	47	0	6	96	48	2
BST	47	96	1
SI_	47	96	1	96	48	5
BRK	47	96	6
BRK	47	192	1
BRK	47	192	4
TAP	47	288	3
STR	47	336	3
SCL	47	336	3	96	192	5
XTP	48	96	4
XTP	48	192	3
XTP	48	288	2
XHO	49	0	1	48
XHO	49	0	7	48
XHO	49	96	1	48
XHO	49	96	7	48
HLD	49	192	2	96
HLD	49	192	6	96
XHO	49	336	1	96
XHO	49	336	7	96
XHO	50	96	1	48
XHO	50	96	7	48
STR	50	192	2
SI_	50	192	2	96	48	5
HLD	50	192	6	96
BRK	50	288	2
XTP	51	0	7
TAP	51	96	4
TAP	51	96	6
TAP	51	192	0
TAP	51	288	1
TAP	51	288	3
HLD	52	0	5	96
HLD	52	96	7	96
HLD	52	192	0	96
TAP	52	288	2
TAP	53	0	7
STR	53	96	7
SI_	53	96	7	96	48	3
STR	53	192	0
SI_	53	192	0	96	48	2
STR	53	288	6
SI_	53	288	6	96	48	4
TAP	54	0	0
STR	54	96	0
SCR	54	96	0	96	96	3
STR	54	96	7
SCL	54	96	7	96	96	4
THO	55	0	0	384	C	1	M1
TTP	55	0	2	B	0	M1
TTP	55	0	5	B	0	M1
TTP	56	0	1	B	0	M1
TTP	56	0	6	B	0	M1
XTP	56	192	0
XTP	56	192	7
XTP	56	288	0
XTP	56	288	7
STR	57	0	4
SI_	57	0	4	96	48	0
TAP	57	0	6
TAP	57	96	5
TAP	57	192	1
STR	57	192	3
SI_	57	192	3	96	48	7
TAP	57	288	2
STR	58	0	4
SI_	58	0	4	96	48	0
TAP	58	0	6
TAP	58	96	5
TAP	58	192	1
TAP	58	192	3
TAP	58	288	2
STR	58	288	7
SCL	58	288	7	96	96	3
STR	59	0	3
SCL	59	0	3	96	96	7
STR	59	96	7
SCL	59	96	7	96	96	3
STR	59	192	3
SCL	59	192	3	96	96	7
TAP	59	288	7
TAP	60	0	3
TAP	60	48	3
TAP	60	96	5
BRK	60	192	1
BRK	60	192	7
TAP	61	0	1
STR	61	0	3
SI_	61	0	3	96	48	7
TAP	61	96	2
STR	61	192	4
SI_	61	192	4	96	48	0
TAP	61	192	6
TAP	61	288	5
TAP	62	0	1
TAP	62	0	3
TAP	62	96	0
TAP	62	96	7
TAP	62	192	4
TAP	62	192	6
TAP	62	288	0
TAP	62	288	7
XTP	63	0	0
XTP	63	0	5
TAP	63	32	4
TAP	63	64	3
XTP	63	96	5
TAP	63	128	4
TAP	63	160	3
XTP	63	192	5
TAP	63	224	4
TAP	63	256	3
XTP	63	288	5
TAP	63	320	4
TAP	63	352	3
XTP	64	0	5
BRK	64	96	0
BRK	64	96	6
BRK	64	192	0
BRK	64	192	6
STR	65	0	2
SCR	65	0	2	96	96	5
TAP	65	192	7
TAP	65	288	7
STR	66	0	6
SCR	66	0	6	96	96	1
TAP	66	192	3
TAP	66	288	3
STR	67	0	2
SCR	67	0	2	96	96	5
TAP	67	192	7
STR	67	288	7
SF_	67	288	7	96	96	3
TAP	68	192	2
TAP	68	192	4
STR	68	288	2
SI_	68	288	2	96	960	5
TAP	68	288	4
TAP	69	96	6
TAP	69	192	6
TAP	69	288	7
TAP	70	0	7
TAP	70	96	0
TAP	70	192	0
TAP	70	288	1
TAP	71	0	1
TAP	71	96	2
BST	71	192	2
SCL	71	192	2	96	288	5
SUL	71	192	2	96	288	5
HLD	73	0	6	288
STR	73	288	4
SCR	73	288	4	96	192	7
HLD	74	0	2	288
STR	74	288	3
SCL	74	288	3	96	192	0
HLD	75	0	5	288
TAP	75	288	4
HLD	76	0	2	192
TAP	76	192	3
HLD	77	0	1	288
TAP	77	288	3
TAP	78	0	2
TAP	78	0	4
STR	78	192	5
SCR	78	192	5	96	96	0
BST	78	288	0
SCL	78	288	0	96	96	4
BRK	79	0	1
TAP	80	0	5
TAP	80	48	5
TAP	80	96	4
TAP	80	144	3
TAP	80	192	3
TAP	80	240	4
BRK	80	288	2
BRK	80	288	5
BST	81	0	1
SCL	81	0	1	96	48	7
BRK	81	0	3
STR	81	96	4
SXR	81	96	4	96	96	4
TAP	81	144	4
STR	81	192	4
SXL	81	192	4	96	96	4
STR	82	0	3
SLL	82	0	3	96	96	7
TAP	82	48	3
STR	82	96	5
SI_	82	96	5	96	48	3
BRK	82	192	5
TAP	82	288	1
TAP	82	288	4
TAP	82	336	1
TAP	82	336	4
TAP	83	0	1
TAP	83	0	4
TAP	83	96	3
HLD	83	96	6	96
HLD	83	192	7	96
TAP	83	288	0
TAP	84	0	4
HLD	84	0	6	96
STR	84	96	5
SI_	84	96	5	96	48	0
XHO	84	192	5	96
TAP	85	0	2
TAP	85	48	2
HLD	85	96	4	96
BRK	85	192	7
STR	85	288	0
SXL	85	288	0	96	192	3
BRK	85	288	6
TAP	86	0	4
TAP	86	96	6
TAP	86	144	6
TAP	86	192	6
TAP	86	288	5
TAP	87	0	1
TAP	87	0	4
STR	87	48	1
SCL	87	48	1	96	48	7
HLD	87	48	4	288
STR	87	144	1
SCR	87	144	1	96	48	3
STR	87	240	1
SXL	87	240	1	96	240	4
BRK	87	336	1
TAP	88	48	5
TAP	88	96	5
STR	88	192	6
SI_	88	192	6	96	48	2
BRK	88	288	6
TAP	89	0	1
STR	89	0	7
SI_	89	0	7	96	48	5
STR	89	96	1
SI_	89	96	1	96	48	3
TAP	89	96	7
TAP	89	192	1
STR	89	192	7
SI_	89	192	7	96	48	5
STR	89	288	0
SI_	89	288	0	96	48	2
TAP	89	288	7
TAP	90	0	0
STR	90	0	6
SI_	90	0	6	96	48	4
STR	90	96	0
SI_	90	96	0	96	48	2
TAP	90	96	6
TAP	90	192	0
STR	90	192	6
SI_	90	192	6	96	48	4
STR	90	288	1
SI_	90	288	1	96	48	3
TAP	90	288	6
TAP	91	0	1
STR	91	0	7
SI_	91	0	7	96	48	5
STR	91	96	1
SI_	91	96	1	96	48	3
TAP	91	96	7
TAP	91	192	1
STR	91	192	7
SI_	91	192	7	96	48	5
TAP	91	288	1
TAP	91	288	7
BRK	92	0	0
TAP	92	96	2
TAP	92	144	2
TAP	92	192	4
TAP	92	240	4
TAP	92	288	0
TAP	92	336	0
BST	93	0	6
SI_	93	0	6	96	48	2
BST	93	96	1
SI_	93	96	1	96	48	5
BRK	93	96	6
BRK	93	192	1
BRK	93	192	4
TAP	93	288	3
STR	93	336	3
SCL	93	336	3	96	192	4
XTP	94	96	4
XTP	94	192	3
XTP	94	288	2
HLD	95	0	1	48
HLD	95	0	7	48
HLD	95	96	1	48
HLD	95	96	7	48
HLD	95	192	2	96
HLD	95	192	6	96
HLD	95	336	1	96
HLD	95	336	7	96
HLD	96	96	1	48
HLD	96	96	7	48
STR	96	192	2
SCR	96	192	2	96	48	5
HLD	96	192	6	96
BRK	96	288	2
STR	97	0	7
SI_	97	0	7	96	48	3
TAP	97	96	3
STR	97	192	0
SI_	97	192	0	96	48	4
TAP	97	288	4
TAP	98	0	5
TAP	98	96	6
TAP	98	96	7
TAP	98	192	0
TAP	98	192	1
TAP	98	288	2
TAP	98	288	3
STR	99	0	5
SXL	99	0	5	96	288	0
TAP	99	96	3
TAP	99	192	3
TAP	99	288	4
TAP	100	0	5
STR	100	96	0
SCR	100	96	0	96	96	3
STR	100	96	7
SCL	100	96	7	96	96	4
THO	101	0	0	384	C	0	M1
TTP	101	0	2	B	0	M1
TTP	101	0	5	B	0	M1
TTP	102	0	1	B	0	M1
TTP	102	0	6	B	0	M1
XTP	102	192	0
XTP	102	192	7
BST	103	0	0
SI_	103	0	0	96	48	4
BST	103	96	1
SI_	103	96	1	96	48	5
BST	103	192	2
SI_	103	192	2	96	48	6
STR	103	288	3
SF_	103	288	3	96	48	7
BRK	104	0	3

T_REC_TAP	279
T_REC_BRK	54
T_REC_XTP	36
T_REC_HLD	36
T_REC_XHO	10
T_REC_STR	107
T_REC_BST	15
T_REC_XST	3
T_REC_TTP	21
T_REC_THO	2
T_REC_SLD	127
T_REC_ALL	690
T_NUM_TAP	446
T_NUM_BRK	69
T_NUM_HLD	48
T_NUM_SLD	127
T_NUM_ALL	690
T_JUDGE_TAP	515
T_JUDGE_HLD	126
T_JUDGE_SLD	127
T_JUDGE_ALL	768
TTM_EACHPAIRS	139
TTM_SCR_TAP	223000
TTM_SCR_BRK	179400
TTM_SCR_HLD	48000
TTM_SCR_SLD	190500
TTM_SCR_ALL	640900
TTM_SCR_S	615000
TTM_SCR_SS	634000
TTM_RAT_ACV	10108

