VERSION	0.00.00	1.03.00
FES_MODE	0
BPM_DEF	225.000	225.000	225.000	225.000
MET_DEF	4	4
RESOLUTION	384
CLK_DEF	384
COMPATIBLE_CODE	MA2

BPM	0	0	225.000
MET	0	0	4	4

TAP	2	0	3
TAP	2	0	4
TAP	2	192	1
TAP	2	192	7
TAP	3	0	3
TAP	3	96	3
TAP	3	192	2
TAP	4	0	4
TAP	4	96	4
TAP	4	192	5
TAP	5	0	3
TAP	5	96	3
TAP	5	192	2
TAP	6	0	4
TAP	6	96	4
TAP	6	192	5
TAP	7	0	3
TAP	7	96	3
TAP	7	192	2
TAP	8	0	2
TAP	8	96	2
XHO	8	192	1	96
XHO	8	192	3	96
STR	9	0	0
SCR	9	0	0	96	192	4
XTP	10	0	5
XTP	10	96	5
HLD	10	192	5	96
TAP	11	0	4
TAP	11	96	4
TAP	11	192	3
TAP	11	192	5
TAP	12	0	3
TAP	12	96	3
TAP	12	192	2
TAP	12	192	4
TAP	13	0	4
TAP	13	96	4
TAP	13	192	3
TAP	13	192	5
TAP	14	0	3
TAP	14	96	3
TAP	14	192	2
TAP	14	192	4
TAP	15	0	4
TAP	15	96	4
TAP	15	192	3
TAP	15	192	5
TAP	16	0	5
TAP	16	96	5
HLD	16	192	4	96
HLD	16	192	6	96
STR	17	0	7
SCL	17	0	7	96	192	3
XTP	18	0	2
XTP	18	96	1
XTP	18	96	3
XTP	18	192	1
XTP	18	192	3
TAP	19	0	4
TAP	19	96	4
TAP	19	192	3
TAP	19	288	3
TAP	20	0	2
TAP	20	96	1
TAP	20	192	0
TAP	20	192	7
TAP	21	0	2
TAP	21	96	2
TAP	21	192	2
TAP	21	192	3
TAP	22	0	5
TAP	22	96	5
TAP	22	192	4
TAP	22	192	5
TAP	23	0	3
TAP	23	96	3
TAP	23	192	4
TAP	23	288	4
TAP	24	0	5
TAP	24	96	6
TAP	24	192	0
TAP	24	192	7
TAP	25	0	5
TAP	25	96	5
TAP	25	192	4
TAP	25	192	5
TAP	26	0	2
XTP	26	96	2
XTP	26	96	3
XTP	26	192	2
XTP	26	192	3
TAP	27	0	0
TAP	27	96	0
TAP	27	192	7
TAP	27	288	7
TAP	28	0	6
TAP	28	96	5
TAP	28	192	3
TAP	28	192	4
TAP	29	0	6
TAP	29	96	6
TAP	29	192	6
TAP	29	192	7
TAP	30	0	1
TAP	30	96	1
TAP	30	192	0
TAP	30	192	1
TAP	31	0	7
TAP	31	96	7
TAP	31	192	0
TAP	31	288	0
TAP	32	0	1
TAP	32	96	2
TAP	32	192	3
TAP	32	192	4
TAP	33	0	2
TAP	33	0	3
TAP	33	96	2
TAP	33	96	3
TAP	33	192	4
TAP	33	192	5
TAP	33	288	4
TAP	33	288	5
XTP	34	0	1
XTP	34	0	2
XTP	34	96	1
XTP	34	96	2
HLD	34	192	3	96
HLD	34	192	7	96
HLD	35	0	5	96
TAP	35	96	4
HLD	35	192	2	96
TAP	35	288	3
TAP	36	0	4
TAP	36	0	5
TAP	36	96	4
TAP	36	96	5
BRK	36	192	0
BRK	36	192	1
XHO	36	288	2	96
XTP	37	0	3
XHO	37	96	5	96
XTP	37	192	4
TAP	37	288	2
TAP	37	288	3
TAP	38	0	4
TAP	38	0	5
TAP	38	96	4
STR	38	96	5
SI_	38	96	5	96	96	0
TAP	39	0	6
TAP	39	0	7
TAP	39	96	6
TAP	39	96	7
TAP	39	192	5
TAP	39	192	6
TAP	39	288	5
TAP	39	288	6
TAP	40	0	6
TAP	40	96	5
XTP	40	192	3
XTP	40	192	4
TAP	40	288	2
TAP	40	288	3
TAP	41	0	2
TAP	41	0	3
XTP	41	144	0
XTP	41	144	1
XTP	41	240	0
XTP	41	240	1
XTP	41	336	0
XTP	41	336	1
TTP	42	96	7	B	0	M1
TTP	42	192	6	B	0	M1
TTP	42	288	5	B	0	M1
TAP	43	0	3
TAP	43	96	3
TAP	43	192	2
TAP	43	192	4
TAP	43	288	2
TAP	43	288	4
TAP	44	0	2
TAP	44	96	1
TAP	44	96	3
TAP	44	192	1
TAP	44	192	3
TAP	45	0	4
TAP	45	96	4
TAP	45	192	3
TAP	45	192	5
TAP	45	288	3
TAP	45	288	5
TAP	46	0	5
TAP	46	96	4
TAP	46	96	6
TAP	46	192	4
TAP	46	192	6
TAP	47	0	7
TAP	47	96	7
TAP	47	192	0
TAP	47	192	6
TAP	47	288	0
TAP	47	288	6
TAP	48	0	6
TAP	48	96	5
TAP	48	96	7
TAP	48	192	5
TAP	48	192	7
XTP	48	288	0
XTP	49	0	0
XTP	49	0	1
XTP	49	96	0
XTP	49	96	1
TAP	49	192	2
TAP	49	192	7
XHO	49	336	6	96
XHO	49	336	7	96
XTP	50	96	6
XTP	50	96	7
TAP	50	192	0
TAP	50	192	5
TAP	51	0	0
TAP	51	96	0
TAP	51	192	1
TAP	51	192	7
TAP	51	288	1
TAP	51	288	7
TAP	52	0	1
TAP	52	96	0
TAP	52	96	2
XHO	52	192	0	96
XHO	52	192	2	96
TAP	53	0	3
TAP	53	96	3
XTP	53	192	4
XTP	53	192	5
XTP	53	288	4
XTP	53	288	5
TAP	54	0	3
TAP	54	0	4
XTP	54	96	2
XTP	54	192	1
XTP	54	288	0
XTP	54	288	7
BST	55	0	0
SCR	55	0	0	96	96	3
BST	55	0	7
SCL	55	0	7	96	96	4
BRK	56	0	1
BRK	56	0	6
STR	56	96	0
SI_	56	96	0	96	96	4
STR	56	96	7
SI_	56	96	7	96	96	3
HLD	57	0	2	192
HLD	57	0	5	192
TTP	58	0	6	B	0	M1
TTP	58	96	5	B	0	M1
TTP	58	192	4	B	0	M1
TTP	59	0	2	B	0	M1
TTP	59	0	3	B	0	M1
TTP	59	192	4	B	0	M1
TTP	59	192	5	B	0	M1
TTP	60	0	1	B	0	M1
TTP	60	96	2	B	0	M1
TTP	60	192	3	B	0	M1
TTP	61	0	5	B	0	M1
TTP	61	0	6	B	0	M1
TTP	61	192	1	B	0	M1
TTP	61	192	2	B	0	M1
TTP	62	0	7	E	0	M1
TTP	62	96	0	E	0	M1
TTP	62	192	1	E	0	M1
TTP	63	0	3	B	0	M1
TTP	63	0	4	B	0	M1
TTP	63	192	2	B	0	M1
TTP	63	192	5	B	0	M1
XTP	64	0	0
XTP	64	0	6
XTP	64	96	0
XTP	64	96	6
XTP	64	192	0
XTP	64	192	6
TAP	65	0	2
TAP	65	96	2
TAP	65	192	1
TAP	65	288	1
STR	66	0	0
SCR	66	0	0	96	96	3
TAP	66	192	4
TAP	67	0	5
TAP	67	96	5
TAP	67	192	6
TAP	67	288	6
STR	68	0	7
SCL	68	0	7	96	96	4
TAP	68	192	3
XTP	69	0	4
TAP	69	96	2
TAP	69	96	3
TAP	69	192	2
TAP	69	192	3
TAP	70	0	0
TAP	70	96	0
TAP	70	192	1
TAP	70	288	2
TAP	70	288	3
TAP	71	0	4
TAP	71	96	3
XST	71	192	2
SUR	71	192	2	96	288	5
HLD	73	0	5	384
TAP	73	288	4
HLD	74	0	4	384
TAP	74	288	3
HLD	75	0	3	288
TAP	75	288	2
TAP	76	0	2
TAP	76	0	3
TAP	76	192	2
TAP	76	192	3
TAP	77	0	2
HLD	77	0	3	384
TAP	77	288	4
HLD	78	0	4	288
TAP	78	288	5
TAP	79	0	5
XTP	79	144	4
XTP	79	144	5
XTP	79	240	4
XST	79	240	5
SCR	79	240	5	96	192	0
TAP	81	0	4
HLD	81	0	5	96
XTP	81	96	4
HLD	81	192	2	96
TAP	81	192	3
XTP	81	288	3
TAP	82	0	4
TAP	82	0	5
TAP	82	96	4
TAP	82	96	5
BRK	82	192	0
BRK	82	192	1
HLD	82	288	2	96
TAP	83	0	3
HLD	83	96	5	96
TAP	83	192	4
TAP	83	288	2
TAP	83	288	3
BRK	84	0	4
BRK	84	0	5
STR	84	96	4
SI_	84	96	4	96	96	1
STR	84	96	5
SI_	84	96	5	96	96	0
TAP	85	0	6
TAP	85	0	7
TAP	85	96	6
TAP	85	96	7
TAP	85	192	5
TAP	85	192	6
TAP	85	288	5
TAP	85	288	6
TAP	86	0	6
TAP	86	96	5
XTP	86	192	3
XTP	86	192	4
TAP	86	288	2
TAP	86	288	3
TAP	87	0	2
TAP	87	0	3
BRK	87	144	0
BRK	87	144	1
BRK	87	240	0
BRK	87	240	1
BRK	87	336	0
BRK	87	336	1
TTP	88	96	7	B	0	M1
TTP	88	192	6	B	0	M1
TTP	88	288	5	B	0	M1
TAP	89	0	3
TAP	89	96	3
TAP	89	192	2
TAP	89	192	4
TAP	89	288	2
TAP	89	288	4
TAP	90	0	1
TAP	90	96	0
TAP	90	96	2
TAP	90	192	0
TAP	90	192	2
TAP	91	0	4
TAP	91	96	4
TAP	91	192	3
TAP	91	192	5
TAP	91	288	3
TAP	91	288	5
TAP	92	0	6
TAP	92	96	5
TAP	92	96	7
TAP	92	192	5
TAP	92	192	7
TAP	93	0	7
TAP	93	96	7
TAP	93	192	0
TAP	93	192	6
TAP	93	288	0
TAP	93	288	6
TAP	94	0	5
TAP	94	96	4
TAP	94	96	6
TAP	94	192	4
TAP	94	192	6
XTP	94	288	3
TAP	95	0	2
TAP	95	0	3
TAP	95	96	2
TAP	95	96	3
BRK	95	192	0
BRK	95	192	1
HLD	95	336	4	96
HLD	95	336	5	96
TAP	96	96	4
TAP	96	96	5
BRK	96	192	6
BRK	96	192	7
TAP	97	0	0
TAP	97	96	0
TAP	97	192	1
TAP	97	192	7
TAP	97	288	1
TAP	97	288	7
TAP	98	0	2
TAP	98	96	1
TAP	98	96	3
XHO	98	192	1	96
XHO	98	192	3	96
TAP	99	0	3
TAP	99	96	3
XTP	99	192	4
XTP	99	192	5
XTP	99	288	4
XTP	99	288	5
TAP	100	0	3
TAP	100	0	4
TAP	100	96	2
TAP	100	192	1
TAP	100	288	0
TAP	100	288	7
BST	101	0	0
SCR	101	0	0	96	96	3
BST	101	0	7
SCL	101	0	7	96	96	4
BRK	102	0	1
BRK	102	0	6
STR	102	96	0
SI_	102	96	0	96	96	4
STR	102	96	7
SI_	102	96	7	96	96	3
TAP	103	0	4
TAP	103	96	3
TAP	103	192	2
STR	103	288	1
SI_	103	288	1	96	96	5

T_REC_TAP	294
T_REC_BRK	20
T_REC_XTP	59
T_REC_HLD	20
T_REC_XHO	10
T_REC_STR	12
T_REC_BST	4
T_REC_XST	2
T_REC_TTP	27
T_REC_THO	0
T_REC_SLD	18
T_REC_ALL	466
T_NUM_TAP	394
T_NUM_BRK	24
T_NUM_HLD	30
T_NUM_SLD	18
T_NUM_ALL	466
T_JUDGE_TAP	418
T_JUDGE_HLD	90
T_JUDGE_SLD	18
T_JUDGE_ALL	526
TTM_EACHPAIRS	133
TTM_SCR_TAP	197000
TTM_SCR_BRK	62400
TTM_SCR_HLD	30000
TTM_SCR_SLD	27000
TTM_SCR_ALL	316400
TTM_SCR_S	304600
TTM_SCR_SS	314000
TTM_RAT_ACV	10076

