VERSION	0.00.00	1.03.00
FES_MODE	0
BPM_DEF	225.000	225.000	225.000	225.000
MET_DEF	4	4
RESOLUTION	384
CLK_DEF	384
COMPATIBLE_CODE	MA2

BPM	0	0	225.000
MET	0	0	4	4

TAP	3	0	2
TAP	3	192	2
TAP	4	0	2
TAP	5	0	3
TAP	5	192	3
TAP	6	0	3
TAP	7	0	4
TAP	7	192	4
TAP	8	0	4
HLD	9	0	5	192
TAP	9	192	4
TAP	10	0	4
TAP	10	0	5
TAP	11	0	5
TAP	11	192	5
TAP	12	0	5
TAP	13	0	4
TAP	13	192	4
TAP	14	0	4
TAP	15	0	3
TAP	15	192	3
TAP	16	0	3
HLD	17	0	2	192
TAP	17	192	3
TAP	18	0	2
TAP	18	0	3
HLD	19	0	1	192
TAP	19	192	0
TAP	20	0	0
TAP	20	0	1
TAP	20	192	0
TAP	20	192	1
HLD	21	0	2	192
TAP	21	192	3
TAP	22	0	2
TAP	22	0	3
TAP	22	192	2
TAP	22	192	3
HLD	23	0	5	192
TAP	23	192	4
TAP	24	0	4
TAP	24	0	5
TAP	24	192	4
TAP	24	192	5
HLD	25	0	3	192
TAP	25	192	4
TAP	26	0	3
TAP	26	0	4
TAP	26	192	2
TAP	26	192	5
HLD	27	0	6	192
TAP	27	192	7
TAP	28	0	6
TAP	28	0	7
TAP	28	192	6
TAP	28	192	7
HLD	29	0	5	192
TAP	29	192	4
TAP	30	0	4
TAP	30	0	5
TAP	30	192	4
TAP	30	192	5
HLD	31	0	2	192
TAP	31	192	3
TAP	32	0	2
TAP	32	0	3
TAP	32	192	2
TAP	32	192	3
HLD	33	0	4	192
TAP	33	192	3
XTP	34	0	3
XTP	34	0	4
XTP	34	192	2
XTP	34	192	5
TAP	35	0	2
TAP	35	96	2
TAP	35	192	2
TAP	36	0	1
TAP	36	96	1
TAP	36	192	1
TAP	37	0	0
TAP	37	96	0
TAP	37	192	0
TAP	38	0	6
TAP	38	0	7
TAP	38	96	6
TAP	38	96	7
TAP	38	192	6
TAP	38	192	7
TAP	39	0	5
TAP	39	96	5
TAP	39	192	5
TAP	40	0	6
TAP	40	96	6
TAP	40	192	6
TAP	41	0	7
TAP	41	96	7
TAP	41	192	7
TAP	42	0	0
TAP	42	0	1
TAP	42	96	0
TAP	42	96	1
TAP	42	192	0
TAP	42	192	1
HLD	43	0	2	192
TAP	43	192	3
TAP	44	0	4
TAP	44	96	4
TAP	44	192	4
TAP	45	0	5
TAP	45	96	5
TAP	45	192	5
TAP	46	0	6
TAP	46	96	6
TAP	46	192	6
TAP	47	0	0
TAP	47	0	7
TAP	47	192	0
TAP	47	192	7
TAP	48	0	1
TAP	48	0	6
TAP	48	192	1
TAP	48	192	6
TAP	49	0	2
TAP	49	0	5
TAP	49	192	2
TAP	49	192	5
TAP	50	0	3
TAP	50	0	4
TAP	50	96	3
TAP	50	96	4
TAP	50	192	3
TAP	50	192	4
HLD	51	0	5	192
TAP	51	192	4
TAP	52	0	3
TAP	52	96	3
TAP	52	192	3
TAP	53	0	2
TAP	53	96	2
TAP	53	192	2
TAP	54	0	1
TAP	54	96	1
TAP	54	192	1
HLD	55	0	0	192
HLD	55	0	7	192
XTP	56	0	0
XTP	56	0	7
TTP	57	0	1	B	0	L1
TTP	57	192	2	B	0	L1
TTP	58	0	3	B	0	L1
TTP	59	0	6	B	0	L1
TTP	59	192	5	B	0	L1
TTP	60	0	4	B	0	L1
TTP	61	0	1	B	0	L1
TTP	61	192	2	B	0	L1
TTP	62	0	3	B	0	L1
TTP	62	192	4	B	0	L1
TTP	63	0	5	B	0	L1
TTP	63	192	6	B	0	L1
TTP	64	0	7	B	0	L1
HLD	65	0	1	192
HLD	65	192	2	192
TAP	66	0	3
HLD	67	0	6	192
HLD	67	192	5	192
TAP	68	0	4
HLD	69	0	1	192
HLD	69	192	2	192
HLD	70	0	3	192
HLD	70	192	4	192
HLD	71	0	5	192
HLD	71	192	6	192
BRK	72	0	7
STR	73	0	0
SI_	73	0	0	96	288	4
STR	75	0	6
SI_	75	0	6	96	288	3
STR	77	0	1
SI_	77	0	1	96	288	4
BRK	79	0	6
TAP	81	0	7
TAP	81	96	7
TAP	81	192	6
TAP	81	288	6
TAP	82	0	5
TAP	82	96	5
TAP	82	192	5
TAP	83	0	4
TAP	83	96	4
TAP	83	192	3
TAP	83	288	3
TAP	84	0	2
TAP	84	96	2
TAP	84	192	2
TAP	84	192	3
TAP	85	0	0
TAP	85	96	0
TAP	85	192	1
TAP	85	288	1
TAP	86	0	2
TAP	86	96	2
TAP	86	192	2
TAP	87	0	3
TAP	87	96	3
TAP	87	192	4
TAP	87	288	4
TAP	88	0	5
TAP	88	96	5
TAP	88	192	4
TAP	88	192	5
HLD	89	0	5	192
TAP	89	192	4
TAP	90	0	3
TAP	90	96	3
TAP	90	192	2
TAP	90	288	2
TAP	91	0	1
TAP	91	96	1
TAP	91	192	0
TAP	91	288	0
TAP	92	0	7
TAP	92	96	7
TAP	92	192	0
TAP	92	192	7
TAP	93	0	0
TAP	93	0	7
TAP	93	192	0
TAP	93	192	7
TAP	94	0	1
TAP	94	0	6
TAP	94	192	1
TAP	94	192	6
TAP	95	0	2
TAP	95	0	5
TAP	95	192	2
TAP	95	192	5
TAP	96	0	3
TAP	96	0	4
TAP	96	96	3
TAP	96	96	4
TAP	96	192	3
TAP	96	192	4
HLD	97	0	2	192
TAP	97	192	3
TAP	98	0	4
TAP	98	96	4
TAP	98	192	5
TAP	98	288	5
TAP	99	0	6
TAP	99	96	6
TAP	99	192	7
TAP	99	288	7
TAP	100	0	0
TAP	100	96	0
TAP	100	192	0
TAP	100	192	7
HLD	101	0	0	192
HLD	101	0	7	192
XTP	102	0	0
XTP	102	0	7
TAP	103	0	0
TAP	103	0	7
TAP	103	96	0
TAP	103	96	7
TAP	103	192	1
TAP	103	192	6
TAP	103	288	1
TAP	103	288	6
BRK	104	0	2
BRK	104	0	5

T_REC_TAP	212
T_REC_BRK	4
T_REC_XTP	8
T_REC_HLD	28
T_REC_XHO	0
T_REC_STR	3
T_REC_BST	0
T_REC_XST	0
T_REC_TTP	13
T_REC_THO	0
T_REC_SLD	3
T_REC_ALL	271
T_NUM_TAP	236
T_NUM_BRK	4
T_NUM_HLD	28
T_NUM_SLD	3
T_NUM_ALL	271
T_JUDGE_TAP	240
T_JUDGE_HLD	112
T_JUDGE_SLD	3
T_JUDGE_ALL	355
TTM_EACHPAIRS	55
TTM_SCR_TAP	118000
TTM_SCR_BRK	10400
TTM_SCR_HLD	28000
TTM_SCR_SLD	4500
TTM_SCR_ALL	160900
TTM_SCR_S	155700
TTM_SCR_SS	160500
TTM_RAT_ACV	10024

