VERSION	0.00.00	1.03.00
FES_MODE	0
BPM_DEF	225.000	225.000	225.000	225.000
MET_DEF	4	4
RESOLUTION	384
CLK_DEF	384
COMPATIBLE_CODE	MA2

BPM	0	0	225.000
MET	0	0	4	4

XTP	3	0	0
TAP	5	0	0
TAP	7	0	7
TAP	9	0	7
TAP	11	0	6
TAP	12	0	6
TAP	13	0	5
TAP	14	0	5
TAP	15	0	4
TAP	16	0	4
XTP	17	0	3
XTP	17	0	4
TAP	19	0	3
TAP	20	0	3
TAP	21	0	2
TAP	22	0	2
TAP	23	0	1
TAP	24	0	1
TAP	25	0	0
TAP	25	0	7
TAP	27	0	0
TAP	27	192	0
TAP	28	0	0
TAP	29	0	0
TAP	30	0	0
TAP	31	0	7
TAP	31	192	7
TAP	32	0	7
TAP	33	0	0
TAP	33	0	7
TAP	34	0	0
TAP	34	0	7
XTP	35	0	0
TAP	35	96	0
TAP	35	192	0
TAP	36	0	1
TAP	36	192	1
TAP	37	0	2
TAP	37	96	2
TAP	37	192	2
TAP	38	0	3
TAP	38	0	4
TAP	39	0	4
TAP	39	96	4
TAP	39	192	4
TAP	40	0	5
TAP	40	192	5
TAP	41	0	6
TAP	41	96	6
TAP	41	192	6
XTP	42	0	6
XTP	42	0	7
TAP	43	0	7
TAP	43	96	7
TAP	43	192	7
TAP	44	0	6
TAP	44	192	6
TAP	45	0	5
TAP	45	96	5
TAP	45	192	5
TAP	46	0	4
TAP	46	192	4
TAP	47	0	3
TAP	47	96	3
TAP	47	192	3
TAP	48	0	2
TAP	48	192	2
TAP	49	0	1
TAP	49	96	1
TAP	49	192	1
TAP	50	0	0
TAP	50	0	1
TAP	51	0	0
TAP	51	96	0
TAP	51	192	0
TAP	52	0	0
TAP	52	0	7
TAP	53	0	7
TAP	53	96	7
TAP	53	192	7
TAP	54	0	0
TAP	54	0	7
XTP	55	0	0
XTP	55	0	7
XTP	55	192	0
XTP	55	192	7
XTP	56	0	0
XTP	56	0	7
STR	57	0	7
SI_	57	0	7	96	480	4
TAP	60	0	0
STR	61	0	0
SI_	61	0	0	96	480	3
TAP	64	0	4
HLD	65	0	3	384
HLD	65	0	4	384
HLD	67	0	2	384
HLD	67	0	3	384
HLD	69	0	4	384
HLD	69	0	5	384
HLD	71	0	3	384
HLD	71	0	4	384
TTP	73	0	3	B	0	L1
TTP	74	0	4	B	0	L1
TTP	75	0	2	B	0	L1
TTP	76	0	5	B	0	L1
TTP	77	0	1	B	0	L1
TTP	78	0	6	B	0	L1
TTP	79	0	0	C	0	L1
BRK	81	0	0
TAP	81	96	0
TAP	81	192	0
TAP	82	0	1
TAP	82	192	1
TAP	83	0	2
TAP	83	96	2
TAP	83	192	2
TAP	84	0	2
TAP	84	0	3
TAP	85	0	4
TAP	85	96	4
TAP	85	192	4
TAP	86	0	5
TAP	86	192	5
XTP	87	0	6
XTP	87	0	7
XTP	88	0	6
XTP	88	0	7
TAP	89	0	7
TAP	89	96	7
TAP	89	192	7
TAP	90	0	6
TAP	90	192	6
TAP	91	0	5
TAP	91	96	5
TAP	91	192	5
TAP	92	0	4
TAP	92	192	4
TAP	93	0	3
TAP	93	96	3
TAP	93	192	3
TAP	94	0	2
TAP	94	192	2
TAP	95	0	1
TAP	95	96	1
TAP	95	192	1
TAP	96	0	0
TAP	96	0	1
TAP	97	0	7
TAP	97	96	7
TAP	97	192	7
TAP	98	0	6
TAP	98	0	7
TAP	99	0	0
TAP	99	96	0
TAP	99	192	0
TAP	100	0	0
TAP	100	0	1
TAP	101	0	7
TAP	101	192	7
TAP	102	0	0
TAP	102	192	0
TAP	103	0	0
TAP	103	0	7
TAP	103	96	0
TAP	103	96	7
TAP	103	192	0
TAP	103	192	7
BRK	104	0	1
BRK	104	0	6

T_REC_TAP	132
T_REC_BRK	3
T_REC_XTP	16
T_REC_HLD	8
T_REC_XHO	0
T_REC_STR	2
T_REC_BST	0
T_REC_XST	0
T_REC_TTP	7
T_REC_THO	0
T_REC_SLD	2
T_REC_ALL	170
T_NUM_TAP	157
T_NUM_BRK	3
T_NUM_HLD	8
T_NUM_SLD	2
T_NUM_ALL	170
T_JUDGE_TAP	160
T_JUDGE_HLD	64
T_JUDGE_SLD	2
T_JUDGE_ALL	226
TTM_EACHPAIRS	26
TTM_SCR_TAP	78500
TTM_SCR_BRK	7800
TTM_SCR_HLD	8000
TTM_SCR_SLD	3000
TTM_SCR_ALL	97300
TTM_SCR_S	94100
TTM_SCR_SS	97000
TTM_RAT_ACV	10030

