VERSION	0.00.00	1.03.00
FES_MODE	0
BPM_DEF	210.000	210.000	240.000	210.000
MET_DEF	4	4
RESOLUTION	384
CLK_DEF	384
COMPATIBLE_CODE	MA2

BPM	0	0	210.000
BPM	59	0	220.000
BPM	81	0	240.000
MET	0	0	4	4
MET	25	0	4	3
MET	31	0	4	4

HLD	1	0	3	192
STR	1	0	4
SCR	1	0	4	96	1344	2
TAP	1	336	3
TAP	2	48	3
TAP	3	0	3
TAP	3	192	3
TAP	3	336	3
HLD	4	48	3	240
TAP	5	0	3
STR	5	0	4
SCR	5	0	4	96	576	2
TAP	5	336	3
HLD	6	48	3	240
HLD	7	0	3	96
STR	7	0	4
SCR	7	0	4	96	48	6
HLD	7	192	3	96
STR	7	192	4
SCR	7	192	4	96	48	6
TAP	8	0	2
TAP	8	0	4
TAP	8	48	1
TAP	8	96	0
TAP	8	144	7
STR	8	192	5
SI_	8	192	5	96	48	2
STR	8	192	6
SI_	8	192	6	96	48	1
XTP	9	0	0
XTP	9	0	3
TAP	9	48	0
TAP	9	96	0
TAP	9	96	3
TAP	9	144	0
TAP	9	192	0
TAP	9	192	3
TAP	9	240	0
TAP	9	288	0
TAP	9	288	3
TAP	10	0	1
TAP	10	0	3
TAP	10	48	1
TAP	10	96	1
TAP	10	96	3
TAP	10	144	1
TAP	10	192	1
TAP	10	192	3
TAP	10	240	1
TAP	10	288	1
TAP	10	288	3
TAP	11	0	2
TAP	11	0	3
TAP	11	48	2
TAP	11	96	2
TAP	11	96	3
TAP	11	144	2
TAP	11	192	2
TAP	11	192	3
TAP	11	240	2
TAP	11	288	2
TAP	11	288	3
TAP	12	0	3
TAP	12	0	4
TAP	12	48	3
TAP	12	48	4
TAP	12	96	3
TAP	12	96	4
TAP	12	144	1
TAP	12	144	2
STR	12	192	1
SI_	12	192	1	96	48	6
STR	12	192	2
SI_	12	192	2	96	48	5
XTP	13	0	4
XTP	13	0	7
TAP	13	48	7
TAP	13	96	4
TAP	13	96	7
TAP	13	144	7
TAP	13	192	4
TAP	13	192	7
TAP	13	240	7
TAP	13	288	4
TAP	13	288	7
XTP	14	0	4
XTP	14	0	6
TAP	14	48	6
TAP	14	96	4
TAP	14	96	6
TAP	14	144	6
TAP	14	192	4
TAP	14	192	6
TAP	14	240	6
TAP	14	288	4
TAP	14	288	6
XTP	15	0	4
XTP	15	0	5
TAP	15	48	5
TAP	15	96	4
TAP	15	96	5
TAP	15	144	5
XTP	15	192	4
XTP	15	192	5
TAP	15	240	5
TAP	15	288	4
TAP	15	288	5
TAP	16	0	3
TAP	16	0	4
TAP	16	48	3
TAP	16	48	4
TAP	16	96	3
TAP	16	96	4
TAP	16	144	5
TAP	16	144	6
TAP	16	192	5
TAP	16	192	6
BRK	16	288	4
BRK	16	288	7
STR	17	0	0
SI_	17	0	0	96	48	4
TAP	17	0	6
TAP	17	96	5
STR	17	144	5
SI_	17	144	5	96	48	1
TAP	17	240	3
STR	17	288	3
SI_	17	288	3	96	48	7
STR	18	0	0
SI_	18	0	0	96	48	4
SI_	18	0	0	96	48	5
TAP	18	96	0
TAP	18	192	3
TAP	18	216	2
TAP	18	240	1
TAP	18	264	0
TAP	18	288	4
TAP	18	312	5
TAP	18	336	6
TAP	18	360	7
TAP	19	0	1
STR	19	48	1
SI_	19	48	1	96	48	5
TAP	19	144	7
STR	19	192	7
SI_	19	192	7	96	48	2
TAP	19	288	4
TAP	19	336	4
STR	20	0	3
SI_	20	0	3	96	48	6
SI_	20	0	3	96	48	7
TAP	20	96	3
TAP	20	192	0
TAP	20	216	1
TAP	20	240	2
TAP	20	264	3
TAP	20	288	7
TAP	20	312	6
TAP	20	336	5
TAP	20	360	4
STR	21	0	0
SI_	21	0	0	96	48	4
TAP	21	96	5
STR	21	144	5
SI_	21	144	5	96	48	1
TAP	21	240	3
STR	21	288	3
SI_	21	288	3	96	48	6
STR	22	0	7
SI_	22	0	7	96	48	2
SI_	22	0	7	96	48	3
TAP	22	96	7
TAP	22	192	4
TAP	22	216	5
TAP	22	240	6
TAP	22	264	7
TAP	22	288	3
TAP	22	312	2
TAP	22	336	1
TAP	22	360	0
TAP	23	0	6
STR	23	48	6
SI_	23	48	6	96	48	2
TAP	23	144	0
STR	23	192	0
SI_	23	192	0	96	48	5
TAP	23	288	3
TAP	23	336	3
STR	24	0	4
SI_	24	0	4	96	48	0
SV_	24	0	4	96	48	7
TAP	24	96	4
TAP	24	192	1
TAP	24	216	7
TAP	24	240	1
TAP	24	264	7
TAP	24	288	2
TAP	24	288	6
HLD	25	0	3	288
TAP	25	0	5
TAP	25	96	4
TAP	25	144	4
TAP	25	192	2
HLD	25	288	1	288
TAP	26	0	2
TAP	26	48	2
TAP	26	96	0
HLD	26	192	7	288
TAP	26	288	0
TAP	26	336	0
TAP	27	0	6
HLD	27	96	5	192
TAP	27	192	6
TAP	27	240	6
TAP	27	288	4
STR	28	0	3
SCL	28	0	3	96	48	0
TAP	28	48	3
BST	28	96	3
SUL	28	96	3	96	48	7
BRK	28	192	3
STR	28	288	4
SCL	28	288	4	96	48	1
TAP	28	336	4
BST	29	0	4
SUL	29	0	4	96	48	0
BRK	29	96	4
STR	29	192	3
SLL	29	192	3	96	96	7
STR	29	288	7
SLL	29	288	7	96	96	3
STR	30	0	3
SCL	30	0	3	96	96	7
STR	30	96	7
SF_	30	96	7	96	48	3
TAP	30	288	1
TAP	30	288	5
TAP	31	0	4
TAP	31	48	4
TAP	31	72	3
TAP	31	96	4
TAP	31	144	2
TAP	31	192	2
TAP	31	216	3
HLD	31	240	2	48
TTP	31	288	0	C	0	M1
TAP	32	0	6
TAP	32	48	6
TAP	32	72	7
TAP	32	96	6
TAP	32	144	0
TAP	32	192	0
TAP	32	216	7
HLD	32	240	0	48
TTP	32	288	0	C	0	M1
TAP	33	0	7
TAP	33	24	1
TAP	33	48	7
TAP	33	72	1
TAP	33	96	7
TAP	33	144	2
TAP	33	168	0
TAP	33	192	2
TAP	33	216	0
TAP	33	240	2
TAP	33	288	3
TAP	33	312	1
TAP	33	336	3
TAP	33	360	1
TAP	34	0	3
TAP	34	48	2
TAP	34	72	4
TAP	34	96	2
TAP	34	120	4
TAP	34	144	2
TAP	34	192	5
TAP	34	216	3
HLD	34	240	5	48
TTP	34	288	0	C	0	M1
STR	35	0	1
SI_	35	0	1	96	48	5
STR	35	0	6
SCR	35	0	6	96	48	1
TAP	35	96	1
TAP	35	96	6
TAP	35	192	4
TAP	35	224	3
TAP	35	256	2
TAP	35	288	7
TAP	35	320	6
TAP	35	352	5
STR	36	0	0
SI_	36	0	0	96	48	4
STR	36	0	4
SCR	36	0	4	96	48	7
TAP	36	96	0
TAP	36	96	4
TAP	36	192	3
TAP	36	224	2
TAP	36	256	1
TAP	36	288	6
TAP	36	320	5
TAP	36	352	4
STR	37	0	3
SCR	37	0	3	96	48	6
STR	37	0	7
SI_	37	0	7	96	48	3
TAP	37	96	3
TAP	37	96	7
TAP	37	192	2
TAP	37	224	1
TAP	37	256	0
TAP	37	288	6
TAP	37	320	5
TAP	37	352	4
STR	38	0	3
SI_	38	0	3	96	48	7
STR	38	0	7
SI_	38	0	7	96	48	2
TAP	38	96	3
TAP	38	96	7
TAP	38	192	6
TAP	38	224	5
TAP	38	256	4
TAP	38	288	0
TAP	38	288	3
STR	39	0	1
SCL	39	0	1	96	48	6
STR	39	0	6
SI_	39	0	6	96	48	2
TAP	39	96	1
TAP	39	96	6
TAP	39	192	3
TAP	39	224	4
TAP	39	256	5
TAP	39	288	0
TAP	39	320	1
TAP	39	352	2
STR	40	0	3
SCL	40	0	3	96	48	0
STR	40	0	7
SI_	40	0	7	96	48	3
TAP	40	96	3
TAP	40	96	7
TAP	40	192	4
TAP	40	224	5
TAP	40	256	6
TAP	40	288	1
TAP	40	320	2
TAP	40	352	3
STR	41	0	0
SI_	41	0	0	96	48	4
STR	41	0	4
SCL	41	0	4	96	48	1
TAP	41	96	0
TAP	41	96	4
TAP	41	192	5
TAP	41	224	6
TAP	41	256	7
TAP	41	288	0
TAP	41	288	2
TAP	41	320	3
TAP	41	352	4
HLD	42	0	5	96
TAP	42	0	7
TAP	42	96	6
TAP	42	128	6
TAP	42	160	6
TAP	42	192	4
TAP	42	224	4
TAP	42	256	4
TAP	42	288	2
TAP	42	320	2
TAP	42	352	2
BST	43	0	0
TTP	43	0	0	C	1	M1
SCR	43	0	0	96	576	7
TTP	44	0	7	E	0	M1
TTP	44	96	0	E	0	M1
TTP	44	192	1	E	0	M1
STR	45	0	0
SCR	45	0	0	96	576	7
TTP	46	0	2	E	0	M1
TTP	46	96	3	E	0	M1
TTP	46	192	4	E	0	M1
STR	47	0	0
SCR	47	0	0	96	576	7
TTP	48	0	5	E	0	M1
TTP	48	96	6	E	0	M1
TTP	48	192	7	E	0	M1
STR	49	0	0
SSL	49	0	0	96	384	4
TTP	50	0	6	E	0	M1
TTP	50	96	0	C	0	M1
TTP	50	192	2	E	0	M1
TAP	51	0	5
TAP	51	32	4
TAP	51	64	5
TAP	51	96	3
TAP	51	128	4
TAP	51	160	3
TAP	51	192	5
TAP	51	224	4
TAP	51	256	5
TAP	51	288	2
TAP	51	320	3
TAP	51	352	2
TAP	52	0	5
TAP	52	32	3
TAP	52	64	4
TAP	52	96	2
TAP	52	128	3
TAP	52	160	2
TAP	52	192	4
TAP	52	224	3
TAP	52	256	4
TAP	52	288	3
TAP	52	288	5
TAP	53	0	2
TAP	53	32	3
TAP	53	64	2
TAP	53	96	4
TAP	53	128	3
TAP	53	160	4
TAP	53	192	2
TAP	53	224	3
TAP	53	256	2
TAP	53	288	4
TAP	53	320	3
TAP	53	352	4
TAP	54	0	1
TAP	54	32	3
TAP	54	64	2
TAP	54	96	4
TAP	54	128	3
TAP	54	160	5
TAP	54	192	4
TAP	54	224	6
TAP	54	256	3
TAP	54	288	2
TAP	54	288	5
TAP	55	0	1
TAP	55	32	3
TAP	55	64	2
TAP	55	96	5
TAP	55	128	4
TAP	55	160	6
TAP	55	192	2
TAP	55	224	4
TAP	55	256	3
TAP	55	288	5
TAP	55	320	4
TAP	55	352	5
TAP	56	0	3
TAP	56	32	4
TAP	56	64	2
TAP	56	96	5
TAP	56	128	3
TAP	56	160	4
TAP	56	192	1
TAP	56	224	3
TAP	56	256	2
TAP	56	288	5
TAP	56	320	4
TAP	56	352	6
TAP	57	0	2
TAP	57	32	3
TAP	57	64	2
TAP	57	96	5
TAP	57	128	4
TAP	57	160	5
TAP	57	192	1
TAP	57	224	3
TAP	57	256	2
TAP	57	288	6
TAP	57	320	4
TAP	57	352	5
TAP	58	0	0
TAP	58	24	7
TAP	58	48	0
TAP	58	72	7
TAP	58	96	1
TAP	58	120	6
TAP	58	144	1
TAP	58	168	6
TAP	58	192	0
TAP	58	216	1
TAP	58	240	2
TAP	58	264	3
TAP	58	288	4
TAP	58	312	5
TAP	58	336	6
TAP	58	360	7
BST	59	0	0
SSL	59	0	0	96	192	4
SLR	59	0	0	96	192	5
TAP	60	0	4
TAP	60	24	3
TAP	60	72	3
TAP	60	96	4
TAP	60	144	2
TAP	60	144	5
TAP	60	192	7
TAP	60	216	0
TAP	60	240	7
TAP	60	264	0
BRK	60	288	1
BRK	60	288	6
STR	61	0	0
SCR	61	0	0	96	48	3
TAP	61	48	0
TAP	61	96	7
TAP	61	144	6
STR	61	192	5
SCR	61	192	5	96	48	0
TAP	61	240	5
TAP	61	288	4
TAP	61	336	3
STR	62	0	2
SCR	62	0	2	96	48	5
TAP	62	48	2
TAP	62	96	1
TAP	62	144	0
STR	62	192	7
SI_	62	192	7	96	48	2
STR	62	240	6
SI_	62	240	6	96	48	3
XTP	62	288	7
XTP	62	336	6
STR	63	0	1
SCR	63	0	1	96	48	4
TAP	63	48	1
TAP	63	96	0
TAP	63	144	7
STR	63	192	6
SCR	63	192	6	96	48	1
TAP	63	240	6
TAP	63	288	5
TAP	63	336	4
STR	64	0	3
SCR	64	0	3	96	48	6
TAP	64	48	3
TAP	64	96	2
TAP	64	144	1
TAP	64	192	0
TAP	64	240	7
TAP	64	288	0
TAP	64	288	6
TAP	64	336	1
TAP	64	336	5
STR	65	0	2
SCL	65	0	2	96	48	7
TAP	65	48	2
TAP	65	96	3
TAP	65	144	4
STR	65	192	5
SCL	65	192	5	96	48	2
TAP	65	240	5
TAP	65	288	6
TAP	65	336	7
STR	66	0	0
SCL	66	0	0	96	48	5
TAP	66	48	0
TAP	66	96	1
TAP	66	144	2
STR	66	192	3
SI_	66	192	3	96	48	0
STR	66	240	4
SI_	66	240	4	96	48	7
XTP	66	288	3
XTP	66	336	4
TAP	67	0	1
TAP	67	24	2
TAP	67	48	3
TAP	67	72	4
TAP	67	96	7
TAP	67	120	6
TAP	67	144	5
TAP	67	168	4
TAP	67	192	0
TAP	67	216	1
TAP	67	240	2
TAP	67	264	3
TAP	67	288	6
TAP	67	312	5
HLD	67	336	0	96
BRK	67	336	4
TAP	68	48	7
TAP	68	96	0
TAP	68	96	6
TAP	68	144	1
TAP	68	144	5
TAP	68	192	2
TAP	68	192	4
TAP	68	240	0
TAP	68	288	1
TAP	68	288	7
STR	69	0	4
SI_	69	0	4	96	48	7
TAP	69	48	4
TAP	69	96	3
TAP	69	144	2
STR	69	192	1
SI_	69	192	1	96	48	4
TAP	69	240	1
TAP	69	288	0
TAP	69	336	7
STR	70	0	6
SI_	70	0	6	96	48	1
TAP	70	48	6
TAP	70	96	5
TAP	70	144	4
STR	70	192	3
SCR	70	192	3	96	48	6
STR	70	240	2
SCL	70	240	2	96	48	7
XTP	70	288	3
XTP	70	336	2
STR	71	0	5
SI_	71	0	5	96	48	0
TAP	71	48	5
TAP	71	96	4
TAP	71	144	3
STR	71	192	2
SI_	71	192	2	96	48	5
TAP	71	240	2
TAP	71	288	1
TAP	71	336	0
STR	72	0	7
SI_	72	0	7	96	48	2
TAP	72	48	7
TAP	72	96	6
TAP	72	144	5
TAP	72	192	4
TAP	72	240	3
TAP	72	288	2
TAP	72	288	4
TAP	72	336	1
TAP	72	336	5
STR	73	0	6
SI_	73	0	6	96	48	3
TAP	73	48	6
TAP	73	96	7
TAP	73	144	0
STR	73	192	1
SI_	73	192	1	96	48	6
TAP	73	240	1
TAP	73	288	2
TAP	73	336	3
STR	74	0	4
SI_	74	0	4	96	48	1
TAP	74	48	4
TAP	74	96	5
TAP	74	144	6
STR	74	192	7
SCL	74	192	7	96	48	4
STR	74	240	0
SCR	74	240	0	96	48	3
XTP	74	288	7
XTP	74	336	0
TAP	75	0	6
TAP	75	24	7
TAP	75	48	0
TAP	75	72	1
TAP	75	96	2
TAP	75	120	3
TAP	75	144	4
TAP	75	168	5
TAP	75	192	4
TAP	75	216	3
TAP	75	240	2
TAP	75	264	1
TAP	75	288	0
TAP	75	312	7
TAP	75	336	6
TAP	75	360	5
TAP	76	0	0
TAP	76	0	4
TAP	76	48	1
TAP	76	96	2
TAP	76	96	5
TAP	76	144	6
TAP	76	192	0
TAP	76	192	7
TAP	76	240	0
TAP	76	240	7
BST	76	288	1
SI_	76	288	1	96	1440	5
BST	76	288	6
SI_	76	288	6	96	1440	2
BRK	76	336	1
BRK	76	336	6
TAP	81	0	3
TAP	81	0	4
TAP	81	96	2
TAP	81	144	2
TAP	81	192	3
TAP	81	288	3
TAP	81	288	4
TAP	82	0	5
TAP	82	48	5
TAP	82	96	4
HLD	82	192	3	96
HLD	82	192	5	96
TAP	83	0	3
TAP	83	0	4
TAP	83	96	5
TAP	83	144	5
TAP	83	192	4
TAP	83	288	3
TAP	83	288	4
TAP	84	0	2
TAP	84	48	2
TAP	84	96	3
HLD	84	192	2	96
TAP	84	192	4
TAP	84	288	3
TAP	85	0	3
TAP	85	0	4
TAP	85	96	2
TAP	85	144	2
TAP	85	192	3
TAP	85	288	3
TAP	85	288	4
TAP	86	0	5
TAP	86	48	5
TAP	86	96	4
TAP	86	192	3
TAP	86	192	5
TAP	86	288	3
TAP	86	288	5
TAP	87	0	3
TAP	87	0	4
TAP	87	96	5
TAP	87	144	5
TAP	87	192	4
TAP	87	288	3
TAP	87	288	4
TAP	88	0	2
TAP	88	48	2
TAP	88	96	3
HLD	88	192	2	96
TAP	88	192	4
TAP	88	240	4
TAP	88	288	4
TAP	89	0	0
TAP	89	0	7
STR	89	96	6
SI_	89	96	6	96	48	4
TAP	89	144	6
TAP	89	192	4
STR	89	288	1
SI_	89	288	1	96	48	3
TAP	89	336	1
TAP	90	0	3
TAP	90	96	6
TAP	90	144	6
TAP	90	192	3
TAP	90	192	5
TAP	90	288	0
TAP	90	288	7
TAP	91	0	2
TAP	91	0	4
STR	91	96	1
SI_	91	96	1	96	48	3
TAP	91	144	1
TAP	91	192	3
STR	91	288	6
SI_	91	288	6	96	48	4
TAP	91	336	6
TAP	92	0	4
TAP	92	96	1
TAP	92	144	1
TAP	92	192	2
TAP	92	192	4
TAP	92	288	0
TAP	92	288	7
TAP	93	0	3
TAP	93	0	5
STR	93	96	2
SI_	93	96	2	96	48	0
TAP	93	144	2
TAP	93	192	4
STR	93	288	5
SI_	93	288	5	96	48	7
TAP	93	336	5
TAP	94	0	3
TAP	94	96	1
TAP	94	144	1
TAP	94	192	2
TAP	94	192	4
TAP	94	288	0
TAP	94	288	7
TAP	95	0	3
TAP	95	0	5
TAP	95	48	5
TAP	95	96	2
TAP	95	96	4
TAP	95	144	2
TAP	95	192	3
TAP	95	192	6
TAP	95	240	6
TAP	95	288	1
TAP	95	288	4
TAP	95	336	1
TAP	96	0	7
TAP	96	24	6
TAP	96	48	5
TAP	96	72	4
TAP	96	96	0
TAP	96	120	1
TAP	96	144	2
TAP	96	168	3
TAP	96	192	4
BRK	96	192	7
BRK	96	288	1
BRK	96	288	5
STR	97	0	2
SI_	97	0	2	96	48	7
STR	97	48	6
SI_	97	48	6	96	48	3
TAP	97	96	2
TAP	97	144	6
STR	97	192	0
SI_	97	192	0	96	48	3
STR	97	240	5
SI_	97	240	5	96	48	0
TAP	97	288	0
TAP	97	336	5
STR	98	0	4
SI_	98	0	4	96	48	1
STR	98	48	7
SI_	98	48	7	96	48	4
TAP	98	96	4
TAP	98	144	7
STR	98	192	0
SCR	98	192	0	96	48	3
TAP	98	240	5
TAP	98	288	6
TAP	98	336	7
STR	99	0	4
SI_	99	0	4	96	48	1
STR	99	48	6
SI_	99	48	6	96	48	3
TAP	99	96	4
TAP	99	144	6
STR	99	192	0
SI_	99	192	0	96	48	3
STR	99	240	4
SI_	99	240	4	96	48	7
TAP	99	288	0
TAP	99	336	4
TAP	100	0	2
TAP	100	48	6
TAP	100	96	0
TAP	100	96	7
TAP	100	144	0
TAP	100	144	7
STR	100	192	1
SI_	100	192	1	96	48	4
STR	100	192	6
SI_	100	192	6	96	48	3
BRK	100	288	1
BRK	100	288	6
STR	101	0	5
SI_	101	0	5	96	48	0
STR	101	48	1
SI_	101	48	1	96	48	4
TAP	101	96	5
TAP	101	144	1
STR	101	192	7
SI_	101	192	7	96	48	4
STR	101	240	2
SI_	101	240	2	96	48	7
TAP	101	288	7
TAP	101	336	2
STR	102	0	3
SI_	102	0	3	96	48	6
STR	102	48	0
SI_	102	48	0	96	48	3
TAP	102	96	3
TAP	102	144	0
STR	102	192	7
SCL	102	192	7	96	48	4
TAP	102	240	2
TAP	102	288	1
TAP	102	336	0
STR	103	0	3
SI_	103	0	3	96	48	6
STR	103	48	1
SI_	103	48	1	96	48	4
TAP	103	96	3
TAP	103	144	1
TAP	103	192	7
TAP	103	240	3
TAP	103	288	4
TAP	103	336	3
HLD	104	0	2	48
BRK	104	0	5
BRK	104	48	5
BRK	104	96	1
HLD	104	96	6	48
BRK	104	144	1
TAP	104	192	0
TAP	104	192	7
TAP	104	240	0
TAP	104	240	7
BRK	104	288	1
BRK	104	288	6
TAP	105	0	7
TAP	105	24	6
TAP	105	48	5
TAP	105	72	4
STR	105	96	7
SCL	105	96	7	96	48	4
TAP	105	120	0
TAP	105	144	1
TAP	105	168	2
STR	105	192	7
SI_	105	192	7	96	48	3
TAP	105	288	5
TAP	105	288	7
STR	106	0	6
SV_	106	0	6	96	48	3
TAP	106	48	2
TAP	106	96	6
TAP	106	144	0
STR	106	192	5
SV_	106	192	5	96	48	0
TAP	106	240	1
TAP	106	288	5
TAP	106	336	3
TAP	107	0	7
TAP	107	24	6
TAP	107	48	5
TAP	107	72	4
STR	107	96	0
SCL	107	96	0	96	48	5
TAP	107	120	1
TAP	107	144	2
TAP	107	168	3
STR	107	192	0
SI_	107	192	0	96	48	4
TAP	107	288	0
TAP	107	288	6
TAP	108	0	3
TAP	108	0	7
TAP	108	48	3
TAP	108	48	7
TAP	108	96	2
TAP	108	96	6
TAP	108	144	2
TAP	108	144	6
TAP	108	192	1
TAP	108	192	5
TAP	108	240	1
TAP	108	240	5
TAP	108	288	2
TAP	108	288	6
TAP	109	0	3
TAP	109	24	2
TAP	109	48	1
TAP	109	72	0
STR	109	96	3
SCL	109	96	3	96	48	0
TAP	109	120	4
TAP	109	144	5
TAP	109	168	6
STR	109	192	3
SI_	109	192	3	96	48	7
TAP	109	288	1
TAP	109	288	3
STR	110	0	2
SV_	110	0	2	96	48	7
TAP	110	48	6
TAP	110	96	2
TAP	110	144	4
STR	110	192	1
SV_	110	192	1	96	48	4
TAP	110	240	5
TAP	110	288	1
TAP	110	336	7
TAP	111	0	3
TAP	111	24	2
TAP	111	48	1
TAP	111	72	0
STR	111	96	4
SCL	111	96	4	96	48	1
TAP	111	120	5
TAP	111	144	6
TAP	111	168	7
STR	111	192	4
SI_	111	192	4	96	48	0
TAP	111	288	2
TAP	111	288	4
TAP	112	0	3
TAP	112	0	7
TAP	112	48	3
TAP	112	48	7
TAP	112	96	2
TAP	112	96	6
TAP	112	144	2
TAP	112	144	6
BRK	112	192	1
TAP	112	192	5
BST	112	240	1
SI_	112	240	1	96	30	6
STR	112	240	5
SI_	112	240	5	96	672	2
BRK	112	288	1
TAP	112	288	5
BRK	112	336	1
TAP	112	336	5
TAP	115	0	2
TAP	115	24	3
TAP	115	48	2
TAP	115	96	1
TAP	115	144	2
TAP	115	192	5
TAP	115	240	4
TAP	115	288	3
TAP	115	336	2
TAP	116	0	4
TAP	116	48	5
TAP	116	96	3
TAP	116	144	2
TAP	116	192	3
TAP	116	240	4
TAP	116	288	5
TAP	116	336	2
STR	117	0	1
SI_	117	0	1	96	48	4
STR	117	0	7
SI_	117	0	7	96	48	4
TAP	117	48	1
TAP	117	48	7
BRK	117	96	1
BRK	117	96	7
STR	117	288	2
SI_	117	288	2	96	48	7
STR	117	288	4
SI_	117	288	4	96	48	7
TAP	117	336	2
TAP	117	336	4
BRK	118	0	2
BRK	118	0	4
TAP	118	144	0
TAP	118	192	1
TAP	118	240	7
TAP	118	288	6
TAP	118	336	2
TAP	119	0	3
TAP	119	0	5
TAP	119	48	6
TAP	119	96	2
TAP	119	96	4
TAP	119	144	1
TAP	119	192	3
TAP	119	192	4
BRK	119	240	2
BRK	119	240	5
TAP	119	336	1
TAP	119	336	7
TAP	120	0	2
TAP	120	0	3
TAP	120	48	0
TAP	120	48	6
TAP	120	96	4
TAP	120	96	5
BRK	120	144	1
BRK	120	144	6
BRK	120	192	3
BRK	120	192	4
BRK	120	240	0
TTP	120	240	0	C	1	M1

T_REC_TAP	735
T_REC_BRK	34
T_REC_XTP	18
T_REC_HLD	20
T_REC_XHO	0
T_REC_STR	116
T_REC_BST	7
T_REC_XST	0
T_REC_TTP	17
T_REC_THO	0
T_REC_SLD	128
T_REC_ALL	1075
T_NUM_TAP	886
T_NUM_BRK	41
T_NUM_HLD	20
T_NUM_SLD	128
T_NUM_ALL	1075
T_JUDGE_TAP	927
T_JUDGE_HLD	53
T_JUDGE_SLD	128
T_JUDGE_ALL	1108
TTM_EACHPAIRS	153
TTM_SCR_TAP	443000
TTM_SCR_BRK	106600
TTM_SCR_HLD	20000
TTM_SCR_SLD	192000
TTM_SCR_ALL	761600
TTM_SCR_S	734800
TTM_SCR_SS	757500
TTM_RAT_ACV	10054

