VERSION	0.00.00	1.03.00
FES_MODE	0
BPM_DEF	210.000	210.000	240.000	210.000
MET_DEF	4	4
RESOLUTION	384
CLK_DEF	384
COMPATIBLE_CODE	MA2

BPM	0	0	210.000
BPM	59	0	220.000
BPM	81	0	240.000
MET	0	0	4	4
MET	25	0	4	3
MET	31	0	4	4

HLD	1	0	3	96
HLD	1	0	5	96
HLD	1	192	2	96
HLD	1	192	4	96
TAP	2	0	3
TAP	2	0	5
TAP	2	96	6
TAP	2	192	0
TAP	2	192	7
TAP	2	288	1
HLD	3	0	2	96
HLD	3	0	4	96
HLD	3	192	3	96
HLD	3	192	5	96
TAP	4	0	2
TAP	4	48	2
TAP	4	96	3
XTP	4	192	1
XTP	4	192	5
HLD	5	0	2	96
HLD	5	0	4	96
HLD	5	192	3	96
HLD	5	192	5	96
TAP	6	0	2
TAP	6	0	4
TAP	6	96	1
TAP	6	192	0
TAP	6	192	7
TAP	6	288	6
TAP	7	0	3
STR	7	0	5
SI_	7	0	5	96	48	3
STR	7	192	1
SI_	7	192	1	96	48	3
TAP	8	0	4
TAP	8	48	4
TAP	8	96	3
TAP	8	192	2
TAP	8	192	5
TAP	8	288	2
TAP	8	288	5
BRK	9	0	3
BRK	9	0	4
TAP	9	96	3
HLD	9	96	4	1152
TTP	9	288	5	B	0	M1
TTP	10	96	3	B	0	M1
TTP	10	288	5	B	0	M1
TTP	10	288	6	E	0	M1
TTP	11	96	3	B	0	M1
TTP	11	96	4	E	0	M1
TTP	11	288	5	B	0	M1
TTP	11	288	5	E	0	M1
TAP	12	96	3
TAP	12	240	2
TAP	12	240	4
TAP	12	288	2
TAP	12	288	4
BRK	13	0	1
BRK	13	0	5
HLD	13	96	1	192
TAP	13	96	5
TAP	13	240	3
TAP	13	288	3
BRK	14	0	2
BRK	14	0	4
TAP	14	96	1
HLD	14	96	5	192
TAP	14	240	4
TAP	14	288	4
HLD	15	0	3	96
BRK	15	0	5
BRK	15	192	2
HLD	15	192	4	96
TAP	16	0	5
TAP	16	48	5
TAP	16	96	3
TAP	16	144	3
TAP	16	192	4
TAP	16	288	3
TAP	16	288	5
BRK	17	0	1
TAP	17	48	1
TAP	17	96	3
TAP	17	144	2
TAP	17	192	2
TAP	17	240	4
TAP	17	288	4
TAP	17	336	3
TAP	18	0	6
TAP	18	96	3
TAP	18	96	7
TAP	18	192	6
TAP	18	240	6
TAP	18	288	4
TAP	18	336	5
TAP	19	0	2
TAP	19	48	3
TAP	19	96	2
TAP	19	144	5
TAP	19	192	4
TAP	19	240	5
TAP	19	288	2
TAP	19	336	3
HLD	20	0	1	96
TAP	20	96	0
TAP	20	192	6
TAP	20	192	7
TAP	20	288	4
TAP	20	288	5
TAP	21	0	6
TAP	21	48	6
TAP	21	96	4
TAP	21	144	5
TAP	21	192	5
TAP	21	240	3
TAP	21	288	3
TAP	21	336	4
TAP	22	0	2
TAP	22	96	1
TAP	22	96	5
TAP	22	192	0
TAP	22	192	7
TAP	22	288	2
TAP	22	288	6
TAP	23	0	5
TAP	23	48	4
TAP	23	96	5
TAP	23	144	2
TAP	23	192	3
TAP	23	240	2
TAP	23	288	5
TAP	23	336	4
HLD	24	0	6	96
TAP	24	96	7
TAP	24	192	0
TAP	24	240	0
TAP	24	288	0
TAP	24	288	7
BRK	25	0	1
BRK	25	0	5
TAP	25	96	2
TAP	25	96	4
TAP	25	192	3
TAP	25	192	5
TAP	25	240	5
HLD	25	288	2	96
TAP	26	0	3
TAP	26	96	2
TAP	26	96	4
TAP	26	144	2
HLD	26	192	6	96
TAP	26	288	4
TAP	27	0	3
TAP	27	0	5
TAP	27	48	5
TAP	27	96	2
TAP	27	144	2
TAP	27	192	3
TAP	27	288	1
TAP	27	288	4
TAP	28	0	5
TAP	28	48	4
BRK	28	96	3
TAP	28	144	4
TAP	28	192	5
TAP	28	288	2
TAP	28	336	3
BRK	29	0	4
TAP	29	48	3
TAP	29	96	2
TAP	29	192	6
TAP	29	240	4
BRK	29	288	2
TAP	29	336	4
TAP	30	0	6
TAP	30	96	1
TAP	30	144	3
BRK	30	192	5
TAP	30	240	3
TAP	30	288	1
BRK	31	0	0
BRK	31	0	4
STR	31	96	1
SCR	31	96	1	96	96	4
TAP	31	192	5
TAP	31	240	5
BRK	31	288	5
TAP	32	0	4
TAP	32	0	6
TAP	32	96	3
STR	32	96	7
SCL	32	96	7	96	96	4
TAP	32	192	2
TAP	32	240	2
BRK	32	288	2
TAP	33	0	2
TAP	33	0	3
STR	33	96	1
SI_	33	96	1	96	96	4
TAP	33	96	4
TAP	33	192	5
TAP	33	240	5
TAP	33	288	5
TAP	34	0	3
TAP	34	0	7
TAP	34	96	3
TAP	34	192	2
TAP	34	192	4
TAP	34	240	2
TAP	34	240	4
STR	34	288	2
SLL	34	288	2	96	192	5
TAP	34	288	4
BRK	35	0	3
TAP	35	96	3
TAP	35	192	3
STR	35	288	4
SLL	35	288	4	96	192	7
TAP	36	0	5
TAP	36	96	5
TAP	36	192	5
STR	36	288	6
SLL	36	288	6	96	192	1
TAP	37	0	7
TAP	37	96	7
TAP	37	192	7
TAP	37	288	7
TAP	38	0	6
TAP	38	0	7
TAP	38	96	5
TAP	38	96	6
TAP	38	192	4
TAP	38	192	5
TAP	38	288	4
STR	38	288	5
SLR	38	288	5	96	192	2
TAP	39	0	4
TAP	39	96	4
TAP	39	192	3
STR	39	288	3
SLR	39	288	3	96	192	0
TAP	40	0	2
TAP	40	96	2
TAP	40	192	1
STR	40	288	1
SLR	40	288	1	96	192	6
TAP	41	0	0
TAP	41	96	0
TAP	41	192	7
STR	41	288	7
SCL	41	288	7	96	192	3
SCR	41	288	7	96	192	3
HLD	43	0	2	1344
BRK	43	0	4
TTP	44	192	4	E	0	M1
TTP	45	192	4	E	0	M1
TTP	46	192	4	E	0	M1
TAP	47	0	3
HLD	47	0	5	288
TTP	47	192	4	E	0	M1
HLD	48	0	2	288
TAP	48	0	4
TTP	48	192	4	E	0	M1
TAP	49	0	3
HLD	49	0	5	288
TAP	49	192	4
STR	50	0	4
SI_	50	0	4	96	192	0
HLD	50	0	6	384
BRK	51	0	0
TTP	51	96	4	B	0	M1
TTP	51	192	3	B	0	M1
TTP	51	288	3	E	0	M1
TTP	52	0	2	E	0	M1
TTP	52	0	5	E	0	M1
TTP	52	96	4	B	0	M1
TTP	52	192	3	B	0	M1
TTP	52	288	3	E	0	M1
TTP	53	0	1	E	0	M1
TTP	53	0	5	E	0	M1
TTP	53	96	4	B	0	M1
TTP	53	192	3	B	0	M1
TTP	53	288	3	E	0	M1
TTP	54	0	0	E	0	M1
TTP	54	0	5	E	0	M1
TTP	54	96	4	B	0	M1
TTP	54	192	3	B	0	M1
TTP	54	288	3	E	0	M1
TTP	55	0	0	C	0	M1
TTP	55	0	2	E	0	M1
TTP	55	96	1	E	0	M1
TTP	55	192	0	E	0	M1
TTP	55	288	7	E	0	M1
TTP	56	0	0	C	0	M1
TTP	56	0	6	E	0	M1
TTP	56	96	5	E	0	M1
TTP	56	192	4	E	0	M1
TTP	56	288	3	E	0	M1
TTP	57	0	0	C	0	M1
TTP	57	0	2	E	0	M1
TTP	57	96	1	E	0	M1
TTP	57	192	0	E	0	M1
TTP	57	288	7	E	0	M1
TTP	58	0	0	C	0	M1
TTP	58	0	6	E	0	M1
TTP	58	96	5	E	0	M1
TTP	58	192	4	E	0	M1
TTP	58	288	3	E	0	M1
TTP	59	0	0	C	1	M1
TTP	59	0	2	E	0	M1
TTP	59	0	6	E	0	M1
TAP	60	0	0
TAP	60	48	0
TAP	60	96	7
TAP	60	144	7
TAP	60	192	0
XTP	60	288	1
XTP	60	288	6
BRK	61	0	2
TAP	61	48	2
STR	61	96	3
SI_	61	96	3	96	48	5
TAP	61	192	0
TAP	61	288	2
TAP	61	336	2
TAP	62	0	6
TAP	62	48	6
STR	62	96	4
SI_	62	96	4	96	48	2
TAP	62	192	7
TAP	62	288	5
TAP	62	336	5
TAP	63	0	1
TAP	63	48	1
STR	63	96	3
SI_	63	96	3	96	48	6
TAP	63	192	0
TAP	63	288	2
TAP	63	336	2
TAP	64	0	2
TAP	64	0	7
TAP	64	96	4
TAP	64	96	5
TAP	64	192	3
TAP	64	192	4
TAP	64	288	2
TAP	64	336	2
TAP	65	0	3
TAP	65	48	3
STR	65	96	1
SI_	65	96	1	96	48	4
TAP	65	192	7
TAP	65	288	6
TAP	65	336	6
TAP	66	0	4
TAP	66	48	4
STR	66	96	5
SI_	66	96	5	96	48	0
TAP	66	192	2
TAP	66	288	1
TAP	66	336	1
TAP	67	0	1
TAP	67	0	7
TAP	67	96	5
TAP	67	96	6
TAP	67	192	2
TAP	67	192	3
TAP	67	288	0
TAP	67	288	1
TAP	68	0	7
TAP	68	48	7
TAP	68	96	0
TAP	68	144	0
TAP	68	192	6
TAP	68	240	6
TAP	68	288	3
TAP	68	288	6
BRK	69	0	5
TAP	69	48	5
STR	69	96	4
SI_	69	96	4	96	48	2
STR	69	192	6
SI_	69	192	6	96	48	4
TAP	69	288	1
TAP	69	336	1
STR	70	0	3
SI_	70	0	3	96	48	6
STR	70	96	0
SI_	70	96	0	96	48	4
XTP	70	192	7
XTP	70	288	3
XTP	70	288	6
TAP	71	0	2
TAP	71	48	2
STR	71	96	3
SI_	71	96	3	96	48	5
STR	71	192	1
SI_	71	192	1	96	48	3
TAP	71	288	6
TAP	71	336	6
STR	72	0	4
SI_	72	0	4	96	48	1
STR	72	96	7
SI_	72	96	7	96	48	3
XTP	72	192	0
XTP	72	288	1
XTP	72	288	4
BRK	73	0	2
TAP	73	48	2
STR	73	96	3
SI_	73	96	3	96	48	6
STR	73	192	0
SI_	73	192	0	96	48	3
XTP	73	288	7
TAP	74	0	6
TAP	74	48	6
STR	74	96	4
SI_	74	96	4	96	48	1
STR	74	192	7
SI_	74	192	7	96	48	3
XTP	74	288	0
TAP	74	336	0
TAP	75	0	0
TAP	75	0	4
TAP	75	96	2
TAP	75	96	3
TAP	75	192	3
TAP	75	192	7
TAP	75	288	4
TAP	75	288	5
TAP	76	0	2
TAP	76	48	2
TAP	76	96	3
TAP	76	144	3
TAP	76	192	4
TAP	76	240	4
STR	76	288	5
SCR	76	288	5	96	1152	2
BRK	77	0	4
BRK	81	0	5
HLD	81	96	5	96
HLD	81	192	4	96
HLD	81	288	6	96
HLD	82	0	7	96
HLD	82	96	5	96
TAP	82	192	4
TAP	82	288	3
TAP	83	0	2
HLD	83	96	2	96
HLD	83	192	3	96
HLD	83	288	1	96
HLD	84	0	0	96
TAP	84	96	1
TAP	84	192	2
TAP	84	192	3
TAP	84	288	2
TAP	84	288	3
TAP	85	0	1
TAP	85	0	4
HLD	85	96	5	96
HLD	85	192	4	96
HLD	85	288	6	96
HLD	86	0	7	96
HLD	86	96	4	96
TAP	86	192	5
TAP	86	288	4
TAP	87	0	3
HLD	87	96	2	96
HLD	87	192	3	96
HLD	87	288	0	96
HLD	88	0	1	96
TAP	88	96	3
TAP	88	192	2
TAP	88	192	4
HLD	89	0	5	192
TAP	89	96	4
HLD	89	192	1	192
TAP	89	288	3
HLD	90	0	6	192
TTP	90	96	4	B	0	M1
TTP	90	96	5	B	0	M1
HLD	90	192	0	192
TTP	90	288	0	C	0	M1
HLD	91	0	6	192
TAP	91	96	7
HLD	91	192	2	192
TAP	91	288	0
HLD	92	0	5	192
TTP	92	96	6	B	0	M1
TTP	92	96	6	E	0	M1
HLD	92	192	3	192
TTP	92	288	0	C	0	M1
HLD	93	0	5	96
HLD	93	96	6	96
HLD	93	192	7	96
HLD	93	288	0	96
HLD	94	0	1	96
HLD	94	96	2	96
TAP	94	192	3
TAP	94	288	2
TAP	94	288	3
TAP	95	0	1
TAP	95	48	1
TAP	95	96	6
TAP	95	144	6
TAP	95	192	0
TAP	95	240	0
TAP	95	288	7
TAP	95	336	7
TAP	96	0	0
TAP	96	24	7
TAP	96	48	0
TAP	96	72	7
TAP	96	96	0
TAP	96	120	7
TAP	96	144	0
TAP	96	168	7
TAP	96	192	0
XTP	96	288	1
XTP	96	288	6
BRK	97	0	2
TAP	97	48	2
STR	97	96	3
SI_	97	96	3	96	48	7
STR	97	192	1
SI_	97	192	1	96	48	4
STR	97	288	0
SI_	97	288	0	96	48	5
STR	98	0	2
SI_	98	0	2	96	48	7
TAP	98	96	4
TAP	98	192	0
TAP	98	192	6
TAP	98	288	1
TAP	98	288	4
TAP	99	0	2
TAP	99	48	2
STR	99	96	3
SI_	99	96	3	96	48	6
STR	99	192	0
SI_	99	192	0	96	48	3
XTP	99	288	7
TAP	100	0	6
TAP	100	96	4
TAP	100	96	5
TAP	100	192	2
TAP	100	192	3
BRK	100	288	0
BRK	100	288	5
TAP	101	0	6
TAP	101	48	6
STR	101	96	7
SI_	101	96	7	96	48	2
STR	101	192	5
SI_	101	192	5	96	48	2
XTP	101	288	0
TAP	102	0	1
TAP	102	48	1
STR	102	96	0
SI_	102	96	0	96	48	5
STR	102	192	2
SI_	102	192	2	96	48	5
XTP	102	288	7
TAP	103	0	6
TAP	103	48	6
TAP	103	96	4
TAP	103	144	4
TAP	103	192	5
TAP	103	240	5
TAP	103	288	3
TAP	103	288	5
TAP	104	0	2
TAP	104	0	4
TAP	104	48	2
TAP	104	48	4
TAP	104	96	2
TAP	104	96	4
TAP	104	144	2
TAP	104	144	4
TAP	104	192	2
TAP	104	192	4
XTP	104	288	0
XTP	104	288	7
BST	105	0	1
SI_	105	0	1	96	48	4
TAP	105	48	1
STR	105	96	0
SI_	105	96	0	96	48	5
TAP	105	144	0
TAP	105	192	3
TAP	105	288	2
TAP	105	336	2
STR	106	0	3
SI_	106	0	3	96	48	6
TAP	106	48	3
STR	106	96	2
SI_	106	96	2	96	48	7
TAP	106	144	2
STR	106	192	5
SI_	106	192	5	96	48	2
TAP	106	240	5
XTP	106	288	0
STR	107	0	1
SI_	107	0	1	96	48	4
TAP	107	48	1
STR	107	96	0
SI_	107	96	0	96	48	5
TAP	107	144	0
TAP	107	192	3
XTP	107	288	2
XTP	107	288	4
TAP	108	0	3
TAP	108	48	3
TAP	108	96	5
TAP	108	144	5
TAP	108	192	7
TAP	108	288	0
TAP	108	288	6
STR	109	0	5
SI_	109	0	5	96	48	0
TAP	109	48	5
STR	109	96	1
SI_	109	96	1	96	48	4
TAP	109	144	1
TAP	109	192	7
TAP	109	288	6
TAP	109	336	6
STR	110	0	7
SI_	110	0	7	96	48	2
TAP	110	48	7
STR	110	96	4
SI_	110	96	4	96	48	7
TAP	110	144	4
XTP	110	192	3
TAP	110	288	0
TAP	110	336	0
TAP	111	0	7
TAP	111	48	6
TAP	111	96	5
TAP	111	144	4
TAP	111	192	3
TAP	111	240	2
TAP	111	288	1
TAP	111	336	0
TAP	112	0	7
TAP	112	48	7
TAP	112	96	0
TAP	112	144	0
TAP	112	192	1
TAP	112	192	6
TAP	112	240	1
TAP	112	240	6
BRK	112	288	2
BRK	112	288	5
BST	112	336	2
SLR	112	336	2	96	528	1
BST	112	336	5
SLL	112	336	5	96	528	6
TAP	115	0	1
TAP	115	48	1
TAP	115	96	3
TAP	115	144	3
TAP	115	192	2
TAP	115	240	2
TAP	115	288	6
TAP	115	336	6
TAP	116	0	5
TAP	116	48	5
TAP	116	96	4
TAP	116	144	4
TAP	116	192	3
TAP	116	240	3
TAP	116	288	3
TAP	116	288	4
BRK	117	0	2
TAP	117	0	3
TAP	117	48	2
XTP	117	48	3
XTP	117	96	1
BRK	117	96	4
TAP	117	288	4
BRK	117	288	5
XTP	117	336	4
TAP	117	336	5
BRK	118	0	3
XTP	118	0	6
XTP	118	144	2
XTP	118	144	5
XTP	118	192	4
XTP	118	240	3
XTP	118	288	2
XTP	118	336	1
TAP	119	0	0
XTP	119	0	1
XTP	119	48	0
TAP	119	48	1
TAP	119	96	2
XTP	119	96	7
XTP	119	144	2
TAP	119	144	7
TAP	119	192	3
XTP	119	192	6
XTP	119	240	3
TAP	119	240	6
XTP	119	336	7
XTP	120	0	0
XTP	120	48	1
TAP	120	48	6
TAP	120	96	2
XTP	120	96	5
XTP	120	144	3
TAP	120	144	4
TAP	120	192	3
XTP	120	192	4
BRK	120	240	2
BRK	120	240	5

T_REC_TAP	407
T_REC_BRK	38
T_REC_XTP	45
T_REC_HLD	58
T_REC_XHO	0
T_REC_STR	51
T_REC_BST	3
T_REC_XST	0
T_REC_TTP	60
T_REC_THO	0
T_REC_SLD	55
T_REC_ALL	717
T_NUM_TAP	563
T_NUM_BRK	41
T_NUM_HLD	58
T_NUM_SLD	55
T_NUM_ALL	717
T_JUDGE_TAP	604
T_JUDGE_HLD	162
T_JUDGE_SLD	55
T_JUDGE_ALL	821
TTM_EACHPAIRS	114
TTM_SCR_TAP	281500
TTM_SCR_BRK	106600
TTM_SCR_HLD	58000
TTM_SCR_SLD	82500
TTM_SCR_ALL	528600
TTM_SCR_S	508800
TTM_SCR_SS	524500
TTM_RAT_ACV	10078

