VERSION	0.00.00	1.03.00
FES_MODE	0
BPM_DEF	210.000	210.000	240.000	210.000
MET_DEF	4	4
RESOLUTION	384
CLK_DEF	384
COMPATIBLE_CODE	MA2

BPM	0	0	210.000
BPM	59	0	220.000
BPM	81	0	240.000
MET	0	0	4	4
MET	25	0	4	3
MET	31	0	4	4

STR	1	0	0
SCR	1	0	0	96	384	5
STR	3	0	7
SCL	3	0	7	96	384	2
STR	5	0	1
SSL	5	0	1	96	384	5
STR	7	0	6
SSR	7	0	6	96	384	2
TTP	9	0	2	E	0	L1
TTP	9	192	3	E	0	L1
TTP	10	0	4	E	0	L1
TTP	10	192	5	E	0	L1
TTP	11	0	6	E	0	L1
TTP	11	192	7	E	0	L1
TTP	12	0	0	E	0	L1
TTP	12	192	1	E	0	L1
TTP	13	0	2	E	0	L1
TTP	13	192	1	E	0	L1
TTP	14	0	0	E	0	L1
TTP	14	192	7	E	0	L1
TTP	15	0	6	E	0	L1
TTP	15	192	5	E	0	L1
TTP	16	0	4	E	0	L1
TTP	16	192	3	E	0	L1
TTP	16	192	5	E	0	L1
HLD	17	0	2	384
HLD	18	0	3	384
HLD	19	0	4	384
TAP	20	0	5
TAP	20	192	4
TAP	20	192	5
HLD	21	0	6	384
HLD	22	0	7	384
HLD	23	0	0	384
TAP	24	0	1
XTP	24	192	0
XTP	24	192	7
TAP	25	0	1
TAP	25	192	0
TAP	25	192	1
TAP	26	0	6
TAP	26	192	6
TAP	26	192	7
TAP	27	0	4
TAP	27	0	5
TAP	27	192	3
TAP	27	192	6
TAP	28	0	2
XTP	28	96	2
XTP	28	96	3
TAP	28	192	2
TAP	28	288	4
XTP	29	0	3
XTP	29	0	4
TAP	29	96	4
TAP	29	192	2
XTP	29	288	2
XTP	29	288	3
TAP	30	0	2
TAP	30	96	4
XTP	30	192	3
XTP	30	192	4
TAP	30	288	4
STR	31	0	5
SI_	31	0	5	96	192	0
TAP	32	0	1
TAP	32	96	1
TAP	32	192	0
TAP	32	192	1
STR	33	0	2
SI_	33	0	2	96	192	7
TAP	34	0	6
TAP	34	96	6
TAP	34	192	6
TAP	34	192	7
TAP	35	0	1
TAP	35	96	1
TAP	35	192	0
TAP	35	288	0
TAP	36	0	7
TAP	36	96	7
TAP	36	192	0
TAP	36	192	6
TAP	37	0	5
TAP	37	96	5
TAP	37	192	4
TAP	37	288	4
TAP	38	0	3
TAP	38	96	3
TAP	38	192	2
TAP	38	192	4
TAP	39	0	2
TAP	39	96	2
TAP	39	192	3
TAP	39	288	3
TAP	40	0	4
TAP	40	96	4
TAP	40	192	3
TAP	40	192	5
TAP	41	0	6
TAP	41	96	6
TAP	41	192	7
TAP	41	288	7
TAP	42	0	0
TAP	42	96	0
TAP	42	96	7
TAP	42	192	1
TAP	42	192	6
TTP	43	0	0	E	0	L1
TTP	44	0	1	E	0	L1
TTP	44	0	7	E	0	L1
TTP	45	0	2	E	0	L1
TTP	45	0	6	E	0	L1
TTP	46	0	3	E	0	L1
TTP	46	0	5	E	0	L1
TTP	47	0	4	E	0	L1
TTP	48	0	3	E	0	L1
TTP	48	0	5	E	0	L1
TTP	49	0	2	E	0	L1
TTP	49	0	6	E	0	L1
TTP	50	0	1	E	0	L1
TTP	50	0	7	E	0	L1
TTP	51	0	6	E	0	L1
TTP	51	96	5	B	0	L1
TTP	51	192	4	B	0	L1
TTP	52	0	2	E	0	L1
TTP	52	96	2	B	0	L1
TTP	52	192	3	B	0	L1
TTP	53	0	6	E	0	L1
TTP	53	96	5	B	0	L1
TTP	53	192	4	B	0	L1
TTP	54	0	2	E	0	L1
TTP	54	96	2	B	0	L1
TTP	54	192	3	B	0	L1
TTP	55	0	5	B	0	L1
TTP	55	96	6	B	0	L1
TTP	55	192	7	E	0	L1
TTP	56	0	2	B	0	L1
TTP	56	96	1	B	0	L1
TTP	56	192	1	E	0	L1
TTP	57	0	5	B	0	L1
TTP	57	96	6	B	0	L1
TTP	57	192	7	E	0	L1
THO	58	0	0	384	C	1	L1
XTP	60	0	0
XTP	60	0	7
XTP	60	96	0
XTP	60	96	7
XTP	60	192	1
XTP	60	192	6
HLD	61	0	5	192
TAP	61	192	4
TAP	62	0	5
TAP	62	96	5
TAP	62	192	4
TAP	62	192	6
HLD	63	0	2	192
TAP	63	192	3
TAP	64	0	2
TAP	64	96	2
TAP	64	192	1
TAP	64	192	3
HLD	65	0	5	192
TAP	65	192	4
TAP	66	0	2
TAP	66	96	2
TAP	66	192	1
TAP	66	192	3
HLD	67	0	5	192
TAP	67	192	4
TAP	68	0	3
TAP	68	96	3
TAP	68	96	4
TAP	68	192	2
TAP	68	192	5
TAP	69	0	6
TAP	69	96	6
TAP	69	192	6
TAP	69	192	7
TAP	70	0	1
TAP	70	96	1
TAP	70	192	0
TAP	70	192	1
TAP	71	0	6
TAP	71	96	6
TAP	71	192	6
TAP	71	192	7
TAP	72	0	0
TAP	72	96	0
TAP	72	192	1
TAP	72	192	7
TAP	73	0	2
TAP	73	96	2
TAP	73	192	2
TAP	73	192	3
TAP	74	0	5
TAP	74	96	5
TAP	74	192	4
TAP	74	192	5
TAP	75	0	2
TAP	75	96	2
TAP	75	192	2
TAP	75	192	3
TAP	76	0	4
TAP	76	96	4
TAP	76	192	3
TAP	76	288	3
BST	77	0	3
SXR	77	0	3	96	1056	0
BST	77	0	4
SXL	77	0	4	96	1056	7
STR	81	0	1
SI_	81	0	1	96	192	4
STR	82	0	5
SI_	82	0	5	96	192	0
STR	83	0	1
SI_	83	0	1	96	192	5
TAP	84	0	6
TAP	84	192	6
TAP	84	192	7
STR	85	0	5
SI_	85	0	5	96	192	0
STR	86	0	1
SI_	86	0	1	96	192	5
STR	87	0	6
SI_	87	0	6	96	192	3
TAP	88	0	2
TAP	88	192	3
TAP	88	192	4
HLD	89	0	5	192
TAP	89	192	4
HLD	90	0	2	192
TAP	90	192	3
HLD	91	0	5	192
TAP	91	192	4
HLD	92	0	2	96
HLD	92	0	3	96
TAP	92	192	2
TAP	92	192	3
HLD	93	0	1	192
TAP	93	192	0
HLD	94	0	6	192
TAP	94	192	7
HLD	95	0	1	192
TAP	95	192	0
HLD	96	0	0	96
HLD	96	0	7	96
TAP	96	192	0
TAP	96	192	7
BRK	97	0	6
TAP	97	96	6
TAP	97	192	6
TAP	97	192	7
TAP	97	288	6
TAP	97	288	7
TAP	98	0	1
TAP	98	96	1
TAP	98	192	0
TAP	98	192	1
TAP	98	288	0
TAP	98	288	1
TAP	99	0	2
TAP	99	96	3
TAP	99	192	4
TAP	99	288	5
TAP	100	0	6
TAP	100	48	6
TAP	100	96	6
TAP	100	192	0
TAP	100	192	7
BRK	101	0	1
TAP	101	96	1
TAP	101	192	0
TAP	101	192	1
TAP	101	288	0
TAP	101	288	1
TAP	102	0	6
TAP	102	96	6
TAP	102	192	6
TAP	102	192	7
TAP	102	288	6
TAP	102	288	7
TAP	103	0	5
TAP	103	96	4
TAP	103	192	3
TAP	103	288	2
XTP	104	0	0
XTP	104	0	1
XTP	104	96	0
XTP	104	96	1
XTP	104	192	2
XTP	104	192	7
BRK	105	0	6
TAP	105	48	6
TAP	105	96	6
TAP	105	192	6
TAP	105	192	7
TAP	105	288	6
TAP	105	288	7
TAP	106	0	1
TAP	106	48	1
TAP	106	96	1
TAP	106	192	0
TAP	106	192	1
TAP	106	288	0
TAP	106	288	1
TAP	107	0	2
TAP	107	48	2
TAP	107	96	2
TAP	107	192	3
TAP	107	192	4
TAP	107	288	5
TAP	108	0	6
TAP	108	48	6
TAP	108	96	6
TAP	108	192	0
TAP	108	192	7
BRK	109	0	1
TAP	109	48	1
TAP	109	96	1
TAP	109	192	0
TAP	109	192	1
TAP	109	288	0
TAP	109	288	1
TAP	110	0	6
TAP	110	48	6
TAP	110	96	6
TAP	110	192	6
TAP	110	192	7
TAP	110	288	6
TAP	110	288	7
TAP	111	0	5
TAP	111	48	5
TAP	111	96	5
TAP	111	192	3
TAP	111	240	3
TAP	111	288	3
TAP	112	0	4
TAP	112	48	4
TAP	112	96	4
TAP	112	192	3
TAP	112	240	3
TAP	112	288	4
STR	112	336	4
SCR	112	336	4	96	528	3
TAP	115	0	4
TAP	115	96	4
TAP	115	192	5
TAP	115	288	6
TAP	116	0	7
TAP	116	96	0
TAP	116	192	1
TAP	116	288	2
TAP	117	0	3
TAP	117	0	4
TAP	117	48	3
TAP	117	48	4
TAP	117	96	3
TAP	117	96	4
TAP	117	288	2
TAP	117	288	3
TAP	117	336	2
TAP	117	336	3
TAP	118	0	2
TAP	118	0	3
TAP	118	192	3
TAP	118	192	4
TAP	118	288	3
TAP	118	288	4
TAP	119	0	5
TAP	119	48	5
TAP	119	96	4
TAP	119	96	5
TAP	119	192	3
TAP	119	192	4
TAP	119	240	3
TAP	119	240	4
TAP	119	336	2
TAP	120	0	2
TAP	120	48	3
TAP	120	96	3
TAP	120	144	4
TAP	120	192	4
BRK	120	240	5

T_REC_TAP	254
T_REC_BRK	5
T_REC_XTP	22
T_REC_HLD	20
T_REC_XHO	0
T_REC_STR	13
T_REC_BST	2
T_REC_XST	0
T_REC_TTP	52
T_REC_THO	1
T_REC_SLD	15
T_REC_ALL	384
T_NUM_TAP	341
T_NUM_BRK	7
T_NUM_HLD	21
T_NUM_SLD	15
T_NUM_ALL	384
T_JUDGE_TAP	348
T_JUDGE_HLD	88
T_JUDGE_SLD	15
T_JUDGE_ALL	451
TTM_EACHPAIRS	72
TTM_SCR_TAP	170500
TTM_SCR_BRK	18200
TTM_SCR_HLD	21000
TTM_SCR_SLD	22500
TTM_SCR_ALL	232200
TTM_SCR_S	224600
TTM_SCR_SS	231500
TTM_RAT_ACV	10030

