VERSION	0.00.00	1.03.00
FES_MODE	0
BPM_DEF	210.000	210.000	240.000	210.000
MET_DEF	4	4
RESOLUTION	384
CLK_DEF	384
COMPATIBLE_CODE	MA2

BPM	0	0	210.000
BPM	59	0	220.000
BPM	81	0	240.000
MET	0	0	4	4
MET	25	0	4	3
MET	31	0	4	4

TAP	5	0	0
TAP	6	0	0
TAP	7	0	7
TAP	8	0	7
BRK	9	0	0
TAP	9	192	0
TAP	10	0	0
TAP	11	0	1
TAP	12	0	1
TAP	13	0	2
TAP	13	192	2
TAP	14	0	2
TAP	15	0	3
TAP	16	0	3
TAP	16	0	4
TAP	17	0	4
TAP	17	192	4
TAP	18	0	4
TAP	19	0	5
TAP	19	192	5
TAP	20	0	5
TAP	21	0	6
TAP	21	192	6
TAP	22	0	6
TAP	23	0	7
TAP	23	192	7
TAP	24	0	0
TAP	24	0	7
TAP	25	0	6
TAP	25	96	6
TAP	25	192	6
TAP	25	288	6
TAP	26	192	4
TAP	26	288	4
TAP	27	0	4
TAP	27	96	4
TAP	28	0	2
TAP	28	96	2
TAP	28	192	2
TAP	28	288	2
TAP	29	192	0
TAP	29	288	0
TAP	30	0	0
XTP	30	96	0
HLD	31	0	6	288
HLD	31	0	7	288
HLD	33	0	0	288
HLD	33	0	1	288
TTP	35	0	0	B	0	L1
TTP	36	0	1	B	0	L1
TTP	37	0	2	B	0	L1
TTP	38	0	3	B	0	L1
TTP	39	0	4	B	0	L1
TTP	40	0	5	B	0	L1
TTP	41	0	6	B	0	L1
TTP	42	0	0	C	0	L1
STR	43	0	0
SI_	43	0	0	96	288	4
STR	45	0	5
SI_	45	0	5	96	288	0
STR	47	0	1
SI_	47	0	1	96	288	5
STR	49	0	6
SI_	49	0	6	96	288	2
HLD	51	0	0	192
TAP	52	0	0
HLD	53	0	1	192
TAP	54	0	1
TAP	55	0	2
TAP	55	192	2
TAP	56	0	3
TAP	56	192	3
TAP	57	0	4
TAP	57	192	4
TAP	58	0	5
TAP	58	192	5
BRK	59	0	3
BRK	59	0	4
TAP	61	0	3
TAP	61	96	3
TAP	61	192	3
TAP	62	0	2
TAP	62	192	1
TAP	63	0	0
TAP	63	96	0
TAP	63	192	0
TAP	64	0	7
TAP	64	192	6
TAP	65	0	5
TAP	65	96	5
TAP	65	192	5
TAP	66	0	4
TAP	66	192	3
TAP	67	0	2
TAP	67	96	2
TAP	67	192	2
TAP	68	0	2
TAP	68	0	3
TAP	69	0	4
TAP	69	96	4
TAP	69	192	4
TAP	70	0	5
TAP	70	192	6
TAP	71	0	7
TAP	71	96	7
TAP	71	192	7
TAP	72	0	0
TAP	72	0	1
TAP	72	192	0
TAP	72	192	1
TAP	73	0	2
TAP	73	96	2
TAP	73	192	2
TAP	74	0	3
TAP	74	192	4
TAP	75	0	5
TAP	75	96	5
TAP	75	192	5
TAP	76	0	4
TAP	76	0	5
TAP	76	192	4
TAP	76	192	5
BRK	77	0	3
BRK	77	0	6
TTP	81	0	4	B	0	L1
TTP	82	0	3	B	0	L1
TTP	83	0	5	B	0	L1
TTP	84	0	2	B	0	L1
TTP	85	0	6	B	0	L1
TTP	86	0	1	B	0	L1
TTP	87	0	7	B	0	L1
TTP	88	0	0	B	0	L1
TTP	89	0	6	B	0	L1
TTP	89	0	7	B	0	L1
TTP	90	0	4	B	0	L1
TTP	90	0	5	B	0	L1
TTP	91	0	2	B	0	L1
TTP	91	0	3	B	0	L1
TTP	92	0	0	B	0	L1
TTP	92	0	1	B	0	L1
TTP	93	0	2	B	0	L1
TTP	93	0	3	B	0	L1
TTP	93	0	3	E	0	L1
TTP	94	0	4	B	0	L1
TTP	94	0	5	B	0	L1
TTP	94	0	5	E	0	L1
TTP	95	0	0	C	0	L1
XTP	96	0	0
XTP	96	0	7
BRK	97	0	0
TAP	97	96	0
TAP	97	192	0
TAP	98	0	1
TAP	98	96	1
TAP	98	192	1
TAP	99	0	2
TAP	99	96	2
TAP	99	192	2
TAP	100	0	3
TAP	100	0	4
TAP	100	96	3
TAP	100	96	4
TAP	100	192	3
TAP	100	192	4
TAP	101	0	5
TAP	101	96	5
TAP	101	192	5
TAP	102	0	6
TAP	102	96	6
TAP	102	192	6
TAP	103	0	7
TAP	103	96	7
TAP	103	192	7
TAP	104	0	0
TAP	104	0	1
TAP	104	96	0
TAP	104	96	1
TAP	104	192	0
TAP	104	192	1
TAP	105	0	7
TAP	105	96	7
TAP	105	192	6
TAP	105	288	6
TAP	106	0	5
TAP	106	96	5
TAP	106	192	4
TAP	106	288	4
TAP	107	0	3
TAP	107	96	3
TAP	107	192	2
TAP	107	288	2
TAP	108	0	1
TAP	108	96	1
TAP	108	192	0
TAP	108	192	1
TAP	109	0	2
TAP	109	96	2
TAP	109	192	3
TAP	109	288	3
TAP	110	0	4
TAP	110	96	4
TAP	110	192	3
TAP	110	288	3
TAP	111	0	2
TAP	111	0	5
TAP	111	96	2
TAP	111	96	5
TAP	111	192	1
TAP	111	192	6
TAP	111	288	1
TAP	111	288	6
TAP	112	0	0
TAP	112	0	7
TAP	112	96	0
TAP	112	96	7
TAP	112	192	1
TAP	112	192	6
TAP	112	288	1
TAP	112	288	6
BRK	113	0	2
BRK	113	0	5
TAP	115	0	5
TAP	115	96	5
TAP	115	192	4
TAP	115	192	5
TAP	116	0	2
TAP	116	96	2
TAP	116	192	2
TAP	116	192	3
XTP	117	0	4
XTP	117	0	5
XTP	117	96	4
XTP	117	96	5
XTP	117	288	2
XTP	117	288	3
XTP	118	0	2
XTP	118	0	3
XTP	118	192	4
XTP	118	288	4
TAP	119	0	5
TAP	119	96	6
TAP	119	192	7
TAP	119	288	0
TAP	120	0	1
TAP	120	96	2
XTP	120	192	3
XTP	120	192	4
XTP	120	240	3
XTP	120	240	4

T_REC_TAP	179
T_REC_BRK	8
T_REC_XTP	17
T_REC_HLD	6
T_REC_XHO	0
T_REC_STR	4
T_REC_BST	0
T_REC_XST	0
T_REC_TTP	31
T_REC_THO	0
T_REC_SLD	4
T_REC_ALL	249
T_NUM_TAP	231
T_NUM_BRK	8
T_NUM_HLD	6
T_NUM_SLD	4
T_NUM_ALL	249
T_JUDGE_TAP	239
T_JUDGE_HLD	32
T_JUDGE_SLD	4
T_JUDGE_ALL	275
TTM_EACHPAIRS	36
TTM_SCR_TAP	115500
TTM_SCR_BRK	20800
TTM_SCR_HLD	6000
TTM_SCR_SLD	6000
TTM_SCR_ALL	148300
TTM_SCR_S	143100
TTM_SCR_SS	147500
TTM_RAT_ACV	10054

